<?xml version="1.0" standalone="no"?>
<!DOCTYPE svg PUBLIC "-//W3C//DTD SVG 1.1//EN" "http://www.w3.org/Graphics/SVG/1.1/DTD/svg11.dtd" >
<svg xmlns="http://www.w3.org/2000/svg" xmlns:xlink="http://www.w3.org/1999/xlink" version="1.1">
<metadata>
Created by FontForge 20170731 at Wed Sep 20 01:01:00 2017
 By Aleksey,,,
Copyright 2016 Google Inc. All Rights Reserved.
</metadata>
<defs>
<font id="NotoSansThaiUI-SemiBold" horiz-adv-x="0" >
  <font-face 
    font-family="Noto Sans Thai UI SemBd"
    font-weight="600"
    font-stretch="normal"
    units-per-em="1000"
    panose-1="2 11 7 2 4 5 4 2 2 4"
    ascent="800"
    descent="-200"
    bbox="-719 -265 889 1010"
    underline-thickness="50"
    underline-position="-175"
    unicode-range="U+000D-25CC"
  />
<missing-glyph horiz-adv-x="364" 
d="M33 0v666h265v-666h-265zM66 33h199v600h-199v-600z" />
    <glyph glyph-name="ru_lakkhangyao-thai" unicode="&#xe24;&#xe45;" horiz-adv-x="956" 
d="M415 -198v520q0 54 -32 79t-85 25q-52 0 -80 -20t-29 -48l98 -42l-10 -56q-37 -1 -58.5 -18t-21.5 -59v-64q0 -38 40 -38q21 0 36 6l14 -79q-37 -18 -86 -18q-56 0 -92.5 27.5t-36.5 88.5v66q0 56 26 84t71 40l1 4l-111 37v27q0 44 27.5 82t80.5 60.5t128 22.5
q73 0 119.5 -22.5t71.5 -62.5h3q22 40 69.5 62.5t115.5 22.5q104 0 156 -51t52 -139v-537h-127v521q0 55 -29.5 79t-76.5 24q-48 0 -77.5 -25t-29.5 -80v-519h-127z" />
    <glyph glyph-name="lu_lakkhangyao-thai" unicode="&#xe26;&#xe45;" horiz-adv-x="964" 
d="M423 -198v520q0 54 -32.5 79t-84.5 25t-80 -20t-29 -48l97 -41l-9 -57q-32 0 -49.5 -19t-17.5 -60v-82q0 -61 -32.5 -85t-81.5 -24q-25 0 -45.5 5t-37.5 14l12 73q7 -2 14.5 -3t14.5 -1q31 0 31 34v74q0 49 21.5 74.5t62.5 35.5l1 4l-111 37v27q0 44 28 82t81.5 60.5
t129.5 22.5q70 0 117.5 -22.5t70.5 -62.5h3q22 40 69.5 62.5t114.5 22.5q103 0 155.5 -51t52.5 -139v-537h-127v521q0 55 -29.5 79t-76.5 24t-76.5 -25t-29.5 -80v-519h-127z" />
    <glyph glyph-name=".notdef" horiz-adv-x="364" 
d="M33 0v666h265v-666h-265zM66 33h199v600h-199v-600z" />
    <glyph glyph-name=".null" 
 />
    <glyph glyph-name="nonmarkingreturn" horiz-adv-x="333" 
 />
    <glyph glyph-name="NULL" 
 />
    <glyph glyph-name="NULL" 
 />
    <glyph glyph-name="CR" unicode="&#xd;" horiz-adv-x="260" 
 />
    <glyph glyph-name="space" unicode=" " horiz-adv-x="260" 
 />
    <glyph glyph-name="hyphen" unicode="-" horiz-adv-x="322" 
d="M34 215v106h254v-106h-254z" />
    <glyph glyph-name="uni00A0" unicode="&#xa0;" horiz-adv-x="260" 
 />
    <glyph glyph-name="uni02BC" unicode="&#x2bc;" horiz-adv-x="201" 
d="M182 714l7 -11q-13 -53 -35.5 -116.5t-45.5 -117.5h-95q13 58 26 125.5t20 119.5h123z" />
    <glyph glyph-name="uni02D7" unicode="&#x2d7;" horiz-adv-x="218" 
d="M206 246h-194v58h194v-58z" />
    <glyph glyph-name="tildecomb" unicode="&#x303;" 
d="M-120 749q-6 -71 -36.5 -107t-76.5 -36q-27 0 -52.5 13.5t-49.5 27t-46 13.5q-33 0 -43 -55h-66q6 71 36 107t78 36q26 0 51 -13.5t49 -27t46 -13.5q32 0 44 55h66z" />
    <glyph glyph-name="uni0331" unicode="&#x331;" 
d="M-120 -76v-91h-307v91h307z" />
    <glyph glyph-name="uni0E01" unicode="&#xe01;" horiz-adv-x="615" 
d="M69 0v163q0 60 26 90.5t71 42.5l1 4l-108 37v27q0 44 28 82t82.5 60.5t131.5 22.5q70 0 124 -21t85 -64.5t31 -108.5v-335h-127v326q0 51 -32 75.5t-84 24.5t-80 -20t-29 -48l97 -42l-10 -58q-37 -2 -58.5 -24t-21.5 -64v-170h-127z" />
    <glyph glyph-name="uni0E02" unicode="&#xe02;" horiz-adv-x="575" 
d="M287 -12q-105 0 -160 46t-55 136v43q0 40 12 66t28 46q16 21 27.5 37.5t11.5 36.5q0 17 -9.5 24.5t-23.5 7.5q-10 0 -22 -3.5t-25 -8.5l-23 82q24 13 54.5 18t53.5 5q62 0 88 -29t26 -77q0 -30 -10.5 -53t-25.5 -45t-25.5 -42t-10.5 -55v-43q0 -50 25.5 -70.5t64.5 -20.5
q87 0 87 84v344h126v-348q0 -89 -54.5 -135t-159.5 -46z" />
    <glyph glyph-name="uni0E03" unicode="&#xe03;" horiz-adv-x="581" 
d="M290 -12q-109 0 -163 48t-54 136v39q0 47 18 78.5t49 61.5q12 12 23 25.5t13 26.5l-3 1q-11 -5 -23 -9t-26 -4q-37 0 -60 25t-23 71v30h96q0 -27 6.5 -38.5t23.5 -11.5q9 0 19.5 2.5t19.5 10.5l18 37h68v-58q0 -29 -3 -49t-12 -37t-26 -39q-14 -18 -25.5 -32t-18.5 -32.5
t-7 -48.5v-39q0 -52 25.5 -72.5t64.5 -20.5q91 0 91 84v344h126v-348q0 -89 -55.5 -135t-161.5 -46z" />
    <glyph glyph-name="uni0E04" unicode="&#xe04;" horiz-adv-x="634" 
d="M74 0v312q0 105 58 161t186 56q127 0 184.5 -56t57.5 -161v-312h-127v314q0 53 -28.5 82.5t-88.5 29.5q-59 0 -87.5 -29.5t-28.5 -82.5v-87l3 -1q19 37 48 48.5t80 11.5h26v-97h-26q-55 0 -83 -16t-38 -42.5t-10 -57.5v-73h-126z" />
    <glyph glyph-name="uni0E05" unicode="&#xe05;" horiz-adv-x="644" 
d="M74 0v397q0 67 37.5 99.5t101.5 32.5q40 0 68.5 -14t37.5 -43h5q10 29 38.5 43t68.5 14q64 0 101.5 -32.5t37.5 -99.5v-397h-126v370q0 32 -13.5 44t-33.5 12q-44 0 -48 -50h-57q-4 50 -48 50q-20 0 -32.5 -12t-12.5 -44v-143l3 -1q20 37 49.5 48.5t83.5 11.5h28v-97h-28
q-57 0 -86 -16t-39 -42.5t-10 -57.5v-73h-126z" />
    <glyph glyph-name="uni0E06" unicode="&#xe06;" horiz-adv-x="624" 
d="M367 -10q-69 0 -114.5 25t-62.5 66h-7l-12 -81h-97v205q0 49 17 82.5t49 63.5q16 17 26 28.5t12 23.5l-3 1q-10 -5 -22 -9t-26 -4q-37 0 -60.5 25t-23.5 71v30h96q0 -27 7.5 -38.5t23.5 -11.5q9 0 19.5 2.5t20.5 10.5l17 37h71v-58q0 -27 -3.5 -46t-13 -37t-27.5 -42
q-15 -20 -27 -34.5t-19 -31.5t-7 -44v-8q0 -53 32.5 -84.5t91.5 -31.5q47 0 72 24t25 80v313h127v-338q0 -93 -47 -141t-135 -48z" />
    <glyph glyph-name="uni0E07" unicode="&#xe07;" horiz-adv-x="558" 
d="M167 0l-164 517h128l131 -413h9q19 0 36 9t30 23q24 28 35 67t11 79q0 66 -30 102.5t-83 36.5q-10 0 -19 -1t-17 -4l-25 98q22 6 41.5 8t33.5 2q52 0 91 -14t67 -40q70 -65 70 -188q0 -75 -25 -132.5t-61 -90.5q-30 -27 -74 -43t-118 -16h-67z" />
    <glyph glyph-name="uni0E08" unicode="&#xe08;" horiz-adv-x="549" 
d="M127 0v220h-64v82h180v-204h9q57 0 86.5 39t29.5 122q0 92 -38.5 130t-119.5 38q-50 0 -93 -13t-78 -34v108q31 16 81 28.5t112 12.5q142 0 203.5 -67.5t61.5 -199.5q0 -127 -58.5 -194.5t-200.5 -67.5h-111z" />
    <glyph glyph-name="uni0E09" unicode="&#xe09;" horiz-adv-x="616" 
d="M254 -10q-84 0 -130.5 40t-46.5 129v136h123v-104q0 -91 93 -91q57 0 89.5 33.5t32.5 92.5v77q0 71 -38.5 97.5t-106.5 26.5q-51 0 -97 -13.5t-84 -33.5v108q31 16 86 28.5t120 12.5q131 0 189 -57.5t58 -165.5v-306h-99l-12 77h-6q-18 -37 -61 -62t-110 -25z" />
    <glyph glyph-name="uni0E0A" unicode="&#xe0a;" horiz-adv-x="581" 
d="M292 -12q-106 0 -162 46.5t-56 135.5v42q0 40 11 66.5t27 46.5q16 21 27.5 37.5t11.5 36.5q0 17 -9.5 24.5t-23.5 7.5q-10 0 -22 -3.5t-25 -8.5l-23 82q24 13 54.5 18t53.5 5q62 0 88 -29t26 -77q0 -30 -10.5 -53t-25.5 -45t-24.5 -42t-9.5 -55v-41q0 -52 26 -72.5
t66 -20.5q89 0 89 84v101q0 31 -14.5 47.5t-49.5 16.5h-5v70h6q34 0 50 16.5t20 41.5t4 51h127q0 -56 -15 -93t-57 -51v-3q37 -10 48.5 -36.5t11.5 -58.5v-106q0 -89 -54.5 -135t-160.5 -46z" />
    <glyph glyph-name="uni0E0B" unicode="&#xe0b;" horiz-adv-x="585" 
d="M293 -12q-108 0 -162.5 48t-54.5 136v39q0 47 16.5 78.5t47.5 61.5q12 12 23 25.5t13 26.5l-3 1q-11 -5 -23 -9t-26 -4q-37 0 -60 25t-23 71v30h96q0 -27 7 -38.5t23 -11.5q9 0 20 2.5t20 10.5l17 37h65v-58q0 -29 -2.5 -49t-10.5 -37t-25 -39q-13 -18 -24 -32t-17.5 -31
t-6.5 -45v-44q0 -52 25 -72.5t65 -20.5q93 0 93 84v101q0 31 -14.5 47.5t-46.5 16.5h-4v70h5q34 0 49 16.5t19 41.5t4 51h125q0 -56 -15 -92t-57 -51v-4q35 -10 48 -35t13 -65v-101q0 -89 -55.5 -135t-163.5 -46z" />
    <glyph glyph-name="uni0E0C" unicode="&#xe0c;" horiz-adv-x="919" 
d="M201 -10q-56 0 -92.5 27.5t-36.5 88.5v69q0 55 26 82t71 39l1 4l-111 37v27q0 46 28 83t80.5 59.5t127.5 22.5q67 0 119.5 -20.5t82.5 -62t30 -104.5v-110q0 -60 30.5 -96t78.5 -36q37 0 59.5 21t22.5 69v327h127v-351q0 -89 -42.5 -132.5t-123.5 -43.5q-59 0 -101 25
t-60 66h-6l-12 -81h-99v329q0 55 -30.5 76.5t-77.5 21.5t-74.5 -17t-29.5 -51l98 -42l-10 -57q-37 -1 -58.5 -18t-21.5 -59v-64q0 -38 40 -38q21 0 36 6l14 -79q-37 -18 -86 -18z" />
    <glyph glyph-name="uni0E0D" unicode="&#xe0d;" horiz-adv-x="926" 
d="M597 -180q-43 0 -87 8t-81 24v110q28 -16 69.5 -27.5t85.5 -11.5q62 0 99.5 28t37.5 93v27h-6q-19 -27 -56 -46.5t-93 -19.5q-74 0 -120.5 39t-46.5 127v162q0 53 -31.5 73.5t-75.5 20.5t-72.5 -17t-30.5 -51l98 -42l-10 -57q-37 -1 -58.5 -18t-21.5 -59v-64
q0 -38 40 -38q21 0 36 6l14 -79q-37 -18 -86 -18q-56 0 -92.5 27.5t-36.5 88.5v69q0 55 26 82t71 39l1 4l-111 37v27q0 46 28 83.5t80.5 59.5t125.5 22q67 0 119 -20.5t82 -61.5t30 -105v-138q0 -48 23.5 -69t59.5 -21q49 0 79.5 36t30.5 96v271h127v-457q0 -122 -63 -181
t-184 -59z" />
    <glyph glyph-name="uni0E0E" unicode="&#xe0e;" horiz-adv-x="624" 
d="M96 -198v17q0 71 42 106t119 35q51 0 94 -13.5t72 -34.5v414q0 51 -32.5 75.5t-84.5 24.5t-80 -20t-29 -48l97 -41l-9 -57q-32 0 -49.5 -19t-17.5 -60v-79q0 -60 -32.5 -83.5t-81.5 -23.5q-25 0 -45.5 5t-37.5 13l12 74q15 -5 29 -5q31 0 31 35v69q0 49 21.5 74.5
t62.5 35.5l1 4l-111 37v27q0 44 27.5 82t81.5 60.5t132 22.5q71 0 125.5 -21t85.5 -64.5t31 -108.5v-533h-107q-23 26 -67.5 42.5t-85.5 16.5q-38 0 -55 -14t-17 -35v-10h-122z" />
    <glyph glyph-name="uni0E0F" unicode="&#xe0f;" horiz-adv-x="624" 
d="M67 -198v31q0 61 36.5 91t85.5 30q43 0 70 -16t44 -44l60 49l60 -40v423q0 51 -32.5 75.5t-84.5 24.5t-80 -20t-29 -48l97 -41l-9 -57q-32 0 -49.5 -19t-17.5 -60v-79q0 -60 -32.5 -83.5t-81.5 -23.5q-25 0 -45.5 5t-37.5 13l12 74q15 -5 29 -5q31 0 31 35v69
q0 49 21.5 74.5t62.5 35.5l1 4l-111 37v27q0 44 27.5 82t81.5 60.5t132 22.5q71 0 125.5 -21t85.5 -64.5t31 -108.5v-533h-109l-71 51l-54 -51h-31q-11 22 -27.5 38t-41.5 16t-34 -15.5t-9 -31.5v-7h-106z" />
    <glyph glyph-name="uni0E10" unicode="&#xe10;" horiz-adv-x="563" 
d="M127 0v220h-64v82h180v-204h9q56 0 86 39t30 122q0 92 -38 130t-120 38q-51 0 -93.5 -13t-78.5 -34v108q32 16 82 28.5t113 12.5q45 0 82 -8t61 -27q20 10 31.5 24t11.5 33h115q0 -38 -23 -70t-68 -51q54 -52 54 -173q0 -122 -59.5 -189.5t-199.5 -67.5h-111zM41 -198v29
q0 61 33.5 90t80.5 29q41 0 65.5 -16t42.5 -43l54 51l67 -45v68h107v-163h-112l-61 50l-48 -50h-24q-10 22 -26.5 38t-39.5 16q-24 0 -32 -15.5t-8 -31.5v-7h-99z" />
    <glyph glyph-name="uni0E11" unicode="&#xe11;" horiz-adv-x="641" 
d="M89 0v200q0 48 7 81t38 65q26 26 33 35.5t9 21.5l-3 1q-11 -5 -23 -9t-26 -4q-37 0 -60 25t-23 71v30h94q0 -28 7 -39t24 -11q8 0 17 2.5t17 10.5l17 37h63v-70h4q54 79 147 79q70 0 103 -35t33 -93v-398h-127v350q0 71 -57 71q-29 0 -55 -18.5t-61 -59.5
q-19 -23 -30 -42t-16 -42.5t-5 -59.5v-199h-127z" />
    <glyph glyph-name="uni0E12" unicode="&#xe12;" horiz-adv-x="927" 
d="M272 -10q-84 0 -131 34t-66 96t-19 145q0 140 42 200.5t119 60.5q34 0 59.5 -12t38.5 -44h4q12 32 41 44t63 12q61 0 95.5 -34t34.5 -101v-159q0 -60 30 -96t79 -36q36 0 59 21t23 69v327h127v-351q0 -89 -43 -132.5t-120 -43.5q-64 0 -105 26t-58 65h-7l-12 -81h-99v371
q0 31 -11 42t-29 11q-38 0 -44 -48h-57q-4 28 -15.5 38t-27.5 10q-29 0 -44.5 -34t-15.5 -123q0 -88 21.5 -133t88.5 -45q13 0 24 1.5t21 3.5l12 -91q-30 -13 -78 -13z" />
    <glyph glyph-name="uni0E13" unicode="&#xe13;" horiz-adv-x="926" 
d="M201 -10q-56 0 -92.5 27.5t-36.5 88.5v69q0 55 26 82t71 39l1 4l-111 37v27q0 46 28 83.5t80.5 59.5t125.5 22q67 0 119 -20.5t82 -61.5t30 -105v-152q0 -48 23 -69t60 -21q49 0 79.5 36t30.5 96v285h127v-517h-100l-12 81h-7q-18 -41 -59.5 -66t-99.5 -25
q-80 0 -123.5 41t-43.5 130v172q0 53 -31.5 73.5t-75.5 20.5t-72.5 -17t-30.5 -51l98 -42l-10 -57q-37 -1 -58.5 -18t-21.5 -59v-64q0 -38 40 -38q21 0 36 6l14 -79q-37 -18 -86 -18z" />
    <glyph glyph-name="uni0E14" unicode="&#xe14;" horiz-adv-x="627" 
d="M267 -10q-81 0 -128 34t-66.5 93.5t-19.5 135.5q0 109 33 168.5t91.5 83.5t135.5 24q129 0 184.5 -52t55.5 -138v-339h-127v329q0 47 -25.5 72t-86.5 25q-40 0 -69.5 -14t-46.5 -51.5t-17 -106.5q0 -71 23.5 -116t84.5 -45q25 0 45 6l12 -96q-16 -7 -37.5 -10t-41.5 -3z
" />
    <glyph glyph-name="uni0E15" unicode="&#xe15;" horiz-adv-x="647" 
d="M277 -10q-87 0 -135 35t-67 97.5t-19 144.5q0 137 42.5 198t124.5 61q35 0 61 -12t40 -44h4q12 32 42 44t66 12q137 0 137 -135v-391h-127v371q0 31 -13 42t-33 11q-22 0 -33 -11t-14 -37h-58q-4 28 -17.5 38t-30.5 10q-31 0 -47 -36t-16 -122t22 -131.5t90 -45.5
q15 0 26 1.5t20 3.5l13 -91q-30 -13 -78 -13z" />
    <glyph glyph-name="uni0E16" unicode="&#xe16;" horiz-adv-x="616" 
d="M201 -10q-56 0 -92.5 27.5t-36.5 88.5v66q0 56 26 84t71 40l1 4l-111 37v27q0 44 28 82t82.5 60.5t131.5 22.5q71 0 125 -21t85 -64.5t31 -108.5v-335h-127v326q0 51 -32 75.5t-85 24.5q-52 0 -80 -20t-29 -48l98 -42l-10 -56q-37 -1 -58.5 -15.5t-21.5 -55.5v-70
q0 -38 40 -38q21 0 36 6l14 -79q-37 -18 -86 -18z" />
    <glyph glyph-name="uni0E17" unicode="&#xe17;" horiz-adv-x="631" 
d="M80 0v517h92l18 -81h7q17 40 60 65t109 25q93 0 142 -46.5t49 -143.5v-336h-127v314q0 54 -25.5 78.5t-74.5 24.5q-59 0 -91 -41t-32 -115v-261h-127z" />
    <glyph glyph-name="uni0E18" unicode="&#xe18;" horiz-adv-x="553" 
d="M281 -12q-62 0 -115.5 11t-93.5 25v207h111v-138q15 -5 40 -9t54 -4q45 0 78.5 15.5t33.5 59.5q0 32 -18.5 48t-54.5 26t-87 23q-57 14 -96 30t-59 41t-20 67q0 74 58.5 106.5t167.5 32.5q69 0 117.5 -10.5t73.5 -20.5v-100q-28 12 -83 24t-116 12q-40 0 -65.5 -8
t-25.5 -29q0 -24 38.5 -34t103.5 -28q55 -15 97.5 -35.5t66.5 -53.5t24 -88q0 -50 -22 -88t-72.5 -60t-135.5 -22z" />
    <glyph glyph-name="uni0E19" unicode="&#xe19;" horiz-adv-x="634" 
d="M262 -10q-91 0 -139.5 48.5t-48.5 145.5v333h127v-313q0 -54 25 -79t74 -25q59 0 91.5 39t32.5 117v261h127v-517h-99l-11 79h-8q-17 -38 -59.5 -63.5t-111.5 -25.5z" />
    <glyph glyph-name="uni0E1A" unicode="&#xe1a;" horiz-adv-x="623" 
d="M311 -12q-126 0 -181.5 56t-55.5 161v312h127v-319q0 -107 110 -107q111 0 111 107v319h127v-312q0 -105 -56.5 -161t-181.5 -56z" />
    <glyph glyph-name="uni0E1B" unicode="&#xe1b;" horiz-adv-x="624" 
d="M311 -12q-126 0 -181.5 56t-55.5 161v312h127v-319q0 -107 110 -107q111 0 111 107v505h127v-498q0 -105 -56.5 -161t-181.5 -56z" />
    <glyph glyph-name="uni0E1C" unicode="&#xe1c;" horiz-adv-x="669" 
d="M79 0v408q0 46 17.5 71.5t46.5 36t66 10.5q22 0 42.5 -4.5t33.5 -10.5l-16 -85q-9 2 -18 3t-14 1q-22 0 -30 -10t-8 -28v-103q0 -25 -1.5 -57.5t-5.5 -80.5h5q19 44 35 71t30 49l43 69h56l43 -69q22 -35 35.5 -60t29.5 -60h5q-4 48 -5.5 80.5t-1.5 57.5v228h120v-517
h-119l-133 216h-4l-133 -216h-119z" />
    <glyph glyph-name="uni0E1D" unicode="&#xe1d;" horiz-adv-x="671" 
d="M79 0v409q0 46 17.5 72t46.5 36.5t66 10.5q22 0 42.5 -4.5t33.5 -11.5l-16 -85q-9 2 -18 3t-14 1q-22 0 -30 -10t-8 -28v-103q0 -26 -1.5 -58t-5.5 -80h5q19 44 35 70.5t30 48.5l43 69h56l43 -69q22 -35 35.5 -60t29.5 -59h5q-4 48 -5.5 80t-1.5 58v414h120v-704h-119
l-133 217h-4l-133 -217h-119z" />
    <glyph glyph-name="uni0E1E" unicode="&#xe1e;" horiz-adv-x="715" 
d="M131 0l-96 517h125l32 -193q3 -24 7.5 -64t10.5 -94h3q13 54 24 94.5t19 66.5l59 190h84l59 -190q8 -26 19 -66.5t25 -94.5h3q5 54 9 94t9 64l33 193h124l-96 -517h-124l-73 228q-11 33 -16.5 62.5t-10.5 64.5h-4q-6 -35 -12.5 -63.5t-17.5 -63.5l-73 -228h-122z" />
    <glyph glyph-name="uni0E1F" unicode="&#xe1f;" horiz-adv-x="704" 
d="M129 0l-94 517h125l29 -193q2 -16 7.5 -62t10.5 -96h4q10 42 20.5 83t22.5 78l59 190h84l59 -190q11 -37 21.5 -78t21.5 -83h3q5 52 9.5 93t6.5 65l51 379h123l-110 -703h-125l-73 228q-10 32 -15.5 62t-11.5 65h-4q-6 -35 -12.5 -63.5t-16.5 -63.5l-74 -228h-121z" />
    <glyph glyph-name="uni0E20" unicode="&#xe20;" horiz-adv-x="624" 
d="M104 -10q-25 0 -45.5 5t-37.5 14l12 73q7 -2 14.5 -3t14.5 -1q31 0 31 34v74q0 49 21.5 74.5t62.5 35.5l1 4l-111 37v27q0 44 27.5 82t81.5 60.5t132 22.5q71 0 125.5 -21t85.5 -64.5t31 -108.5v-335h-127v326q0 51 -32.5 75.5t-84.5 24.5t-80 -20t-29 -48l97 -41l-9 -57
q-32 0 -49.5 -19t-17.5 -60v-82q0 -61 -32.5 -85t-81.5 -24z" />
    <glyph glyph-name="uni0E21" unicode="&#xe21;" horiz-adv-x="634" 
d="M375 -10q-69 0 -113.5 25t-61.5 66h-7l-12 -81h-98v517h127v-261q0 -78 32.5 -117t92.5 -39q48 0 73 25t25 79v313h127v-338q0 -93 -48 -141t-137 -48z" />
    <glyph glyph-name="uni0E22" unicode="&#xe22;" horiz-adv-x="611" 
d="M298 -11q-86 0 -138.5 20t-75.5 56.5t-23 85.5q0 41 13.5 67t34.5 39t43 17v6q-22 6 -43 19.5t-35 36t-14 57.5t16.5 65t54.5 48.5t101 18.5q28 0 55.5 -4.5t43.5 -11.5l-20 -88q-10 3 -25 6t-30 3q-36 0 -52.5 -15t-16.5 -39q0 -26 14.5 -39.5t37.5 -18.5t48 -5h21v-81
h-21q-49 0 -73 -15.5t-24 -51.5q0 -20 9.5 -38t33 -29.5t67.5 -11.5q63 0 86.5 24.5t23.5 62.5v344h127v-340q0 -97 -57.5 -142.5t-181.5 -45.5z" />
    <glyph glyph-name="uni0E23" unicode="&#xe23;" horiz-adv-x="504" 
d="M248 -12q-59 0 -115 12t-97 33l36 101q30 -15 76 -29.5t97 -14.5q44 0 70 13t26 38t-29.5 42t-85.5 34q-85 27 -131.5 62t-46.5 103q0 72 57 109.5t162 37.5q53 0 97 -8.5t68 -22.5v-101q-26 11 -71.5 22t-90.5 11q-50 0 -73.5 -12.5t-23.5 -33.5q0 -24 31.5 -39
t97.5 -37q50 -16 87 -36t57.5 -49t20.5 -75q0 -42 -20 -78.5t-68 -59t-131 -22.5z" />
    <glyph glyph-name="uni0E24" unicode="&#xe24;" horiz-adv-x="616" 
d="M201 -10q-56 0 -92.5 27.5t-36.5 88.5v66q0 56 26 84t71 40l1 4l-111 37v27q0 44 28 82t82.5 60.5t131.5 22.5q71 0 125 -21t85 -64.5t31 -108.5v-533h-127v524q0 51 -32 75.5t-85 24.5q-52 0 -80 -20t-29 -48l98 -42l-10 -56q-37 -1 -58.5 -15.5t-21.5 -55.5v-70
q0 -38 40 -38q21 0 36 6l14 -79q-37 -18 -86 -18z" />
    <glyph glyph-name="uni0E25" unicode="&#xe25;" horiz-adv-x="588" 
d="M223 -10q-87 0 -133.5 39t-46.5 109q0 76 58.5 120.5t187.5 53.5l101 7v19q0 50 -27.5 71t-87.5 21q-51 0 -99 -14t-86 -35v108q28 13 80 26.5t119 13.5q69 0 119.5 -18.5t78 -60.5t27.5 -114v-336h-124v225l-86 -7q-76 -7 -105 -25.5t-29 -50.5t22.5 -47.5t61.5 -15.5
q14 0 27 2.5t23 4.5l14 -81q-20 -7 -44.5 -11t-50.5 -4z" />
    <glyph glyph-name="uni0E26" unicode="&#xe26;" horiz-adv-x="624" 
d="M104 -10q-25 0 -45.5 5t-37.5 14l12 73q7 -2 14.5 -3t14.5 -1q31 0 31 34v74q0 49 21.5 74.5t62.5 35.5l1 4l-111 37v27q0 44 27.5 82t81.5 60.5t132 22.5q71 0 125.5 -21t85.5 -64.5t31 -108.5v-533h-127v524q0 51 -32.5 75.5t-84.5 24.5t-80 -20t-29 -48l97 -41l-9 -57
q-32 0 -49.5 -19t-17.5 -60v-82q0 -61 -32.5 -85t-81.5 -24z" />
    <glyph glyph-name="uni0E27" unicode="&#xe27;" horiz-adv-x="506" 
d="M207 -12q-92 0 -170 41l35 92q22 -12 52 -21t63 -9q62 0 98.5 42.5t36.5 127.5q0 80 -37 122.5t-113 42.5q-33 0 -67 -8t-58 -22v105q62 28 145 28q137 0 198 -71.5t61 -196.5q0 -132 -62.5 -202.5t-181.5 -70.5z" />
    <glyph glyph-name="uni0E28" unicode="&#xe28;" horiz-adv-x="647" 
d="M74 0v312q0 105 58 161t186 56q41 0 75 -7.5t59 -24.5q17 9 27.5 22.5t10.5 31.5h115q0 -35 -20 -65.5t-60 -49.5q19 -22 27 -53.5t8 -70.5v-312h-126v314q0 53 -28.5 82.5t-87.5 29.5q-61 0 -89 -29.5t-28 -82.5v-87l3 -1q20 37 48.5 48.5t78.5 11.5h28v-97h-28
q-53 0 -81.5 -16t-38.5 -42.5t-10 -57.5v-73h-127z" />
    <glyph glyph-name="uni0E29" unicode="&#xe29;" horiz-adv-x="662" 
d="M320 -12q-133 0 -189.5 56.5t-56.5 162.5v310h127v-316q0 -55 28 -83t92 -28q62 0 89.5 26.5t27.5 84.5v6h-56q-46 0 -71.5 14t-36.5 36t-11 45q0 16 5 34t13 30l83 -16q-6 -12 -6 -27q0 -13 8 -22.5t24 -9.5h48v226h126v-226h61v-84h-61q0 -106 -56.5 -162.5
t-187.5 -56.5z" />
    <glyph glyph-name="uni0E2A" unicode="&#xe2a;" horiz-adv-x="591" 
d="M223 -10q-87 0 -133.5 39t-46.5 109q0 76 58.5 120.5t187.5 53.5l101 7v19q0 50 -27.5 71t-87.5 21q-51 0 -99 -14t-86 -35v108q28 13 80 26.5t119 13.5q38 0 69.5 -6t54.5 -22q14 10 22 22t8 28h115q0 -34 -18 -63t-54 -48q15 -18 21.5 -44.5t6.5 -59.5v-336h-124v225
l-86 -7q-76 -7 -105 -25.5t-29 -50.5t22.5 -47.5t61.5 -15.5q14 0 27 2.5t23 4.5l14 -81q-20 -7 -44.5 -11t-50.5 -4z" />
    <glyph glyph-name="uni0E2B" unicode="&#xe2b;" horiz-adv-x="609" 
d="M83 0v517h126v-201h3l192 201h142v-4l-148 -152q73 -10 111 -56.5t38 -113.5v-191h-127v174q0 91 -108 99l-103 -106v-167h-126z" />
    <glyph glyph-name="uni0E2C" unicode="&#xe2c;" horiz-adv-x="694" 
d="M117 0l-82 517h126l28 -220q3 -24 7 -64.5t5 -91.5h3q14 47 25.5 79t24.5 64l53 133h78l53 -133q13 -32 24.5 -64t24.5 -79h5q1 41 4.5 82t9.5 73l17 89q10 57 -14 81.5t-83 24.5h-56v85h80q70 0 95 26t25 67v5h123v-5q0 -53 -25 -92t-84 -49v-4q44 -16 56 -54t6 -73
l-69 -397h-130l-60 165q-13 35 -22 66t-18 77h-4q-9 -48 -18 -80t-21 -64l-62 -164h-125z" />
    <glyph glyph-name="uni0E2D" unicode="&#xe2d;" horiz-adv-x="586" 
d="M283 -12q-117 0 -173.5 55.5t-56.5 166.5q0 20 1.5 45.5t3.5 46.5h229v-84h-109v-15q0 -65 26 -92t78 -27q38 0 65 14.5t41.5 51t14.5 100.5q0 88 -33.5 132t-119.5 44q-46 0 -92.5 -12.5t-80.5 -30.5v108q31 16 84.5 27t109.5 11q94 0 151.5 -33.5t84 -95t26.5 -144.5
q0 -128 -58 -198t-192 -70z" />
    <glyph glyph-name="uni0E2E" unicode="&#xe2e;" horiz-adv-x="582" 
d="M282 -12q-229 0 -229 222q0 20 1.5 45.5t3.5 46.5h229v-84h-109v-15q0 -65 26 -92t78 -27q37 0 64 14.5t42 50t15 99.5q0 93 -34.5 135.5t-117.5 42.5q-48 0 -93.5 -12t-81.5 -31v108q32 16 85 27t109 11q39 0 72.5 -8t60.5 -25q17 9 28 23t11 32h115q0 -36 -20.5 -66.5
t-61.5 -50.5q30 -29 44 -75.5t14 -108.5q0 -122 -58 -192t-193 -70z" />
    <glyph glyph-name="uni0E2F" unicode="&#xe2f;" horiz-adv-x="534" 
d="M323 0v239q-42 -37 -122 -37q-52 0 -94 18.5t-67 56t-25 94.5q0 73 42.5 114t118.5 41q14 0 32.5 -2t38.5 -9l-11 -82q-11 2 -19.5 3t-13.5 1q-28 0 -47.5 -15.5t-19.5 -49.5t23.5 -53.5t67.5 -19.5q49 0 72.5 23t23.5 73v122h127v-517h-127z" />
    <glyph glyph-name="uni0E30" unicode="&#xe30;" horiz-adv-x="350" 
d="M160 331q-67 0 -93.5 29t-26.5 66q0 36 18 67l96 -13q-5 -15 -5 -32q0 -14 7.5 -21.5t26.5 -7.5h125v-88h-148zM160 51q-67 0 -93.5 29t-26.5 66q0 36 18 67l96 -13q-5 -15 -5 -32q0 -14 7.5 -21.5t26.5 -7.5h125v-88h-148z" />
    <glyph glyph-name="uni0E31" unicode="&#xe31;" 
d="M-222 604q-68 0 -94 28t-26 63q0 17 4.5 35t13.5 33l96 -13q-5 -13 -5 -29q0 -31 36 -31h230v-86h-255z" />
    <glyph glyph-name="uni0E32" unicode="&#xe32;" horiz-adv-x="424" 
d="M223 0v348q0 41 -21 60t-68 19q-34 0 -63 -8.5t-55 -21.5v103q21 10 60.5 19.5t91.5 9.5q54 0 95 -15t64 -49.5t23 -94.5v-370h-127z" />
    <glyph glyph-name="uni0E33" unicode="&#xe33;" horiz-adv-x="424" 
d="M223 0v348q0 41 -21 60t-68 19q-34 0 -63 -8.5t-55 -21.5v103q21 10 60.5 19.5t91.5 9.5q54 0 95 -15t64 -49.5t23 -94.5v-370h-127zM-173 582q-55 0 -87 24.5t-32 70.5t32 71t87 25t87.5 -25t32.5 -71t-32.5 -70.5t-87.5 -24.5zM-173 635q23 0 35 11.5t12 30.5
q0 42 -47 42q-46 0 -46 -42q0 -19 12 -30.5t34 -11.5z" />
    <glyph glyph-name="uni0E34" unicode="&#xe34;" 
d="M-528 604v54l90 39h355v-93h-445z" />
    <glyph glyph-name="uni0E35" unicode="&#xe35;" 
d="M-528 604v54l90 39h244v73h111v-166h-445z" />
    <glyph glyph-name="uni0E36" unicode="&#xe36;" 
d="M-528 604v54l90 39h177v1q0 37 25.5 61t71.5 24q47 0 73.5 -25.5t26.5 -64.5q0 -38 -24 -63.5t-73 -25.5h-367zM-163 654q20 0 31 11t11 28t-11.5 28t-31.5 11t-31 -11t-11 -27t10.5 -28t32.5 -12z" />
    <glyph glyph-name="uni0E37" unicode="&#xe37;" 
d="M-528 604v54l91 39h118v73h87v-73h64v73h86v-166h-446z" />
    <glyph glyph-name="uni0E38" unicode="&#xe38;" 
d="M-193 -261v95q0 25 -22 25q-5 0 -10 -1.5t-10 -2.5l-7 68q14 5 36 9t42 4q44 0 62.5 -18.5t18.5 -50.5v-128h-110z" />
    <glyph glyph-name="uni0E39" unicode="&#xe39;" 
d="M-228 -265q-74 0 -109.5 24.5t-35.5 66.5v17q0 17 -9 20.5t-24 -0.5l-6 65q14 4 32.5 6t30.5 2q41 0 59 -16t18 -45v-27q0 -18 9 -29t32 -11q25 0 34 11t9 29v85h106v-97q0 -50 -35.5 -75.5t-110.5 -25.5z" />
    <glyph glyph-name="uni0E3A" unicode="&#xe3a;" 
d="M-146 -203q-36 0 -56 18.5t-20 53.5t20 53.5t56 18.5q35 0 55 -18.5t20 -53.5t-20 -53.5t-55 -18.5z" />
    <glyph glyph-name="uni0E3F" unicode="&#xe3f;" horiz-adv-x="582" 
d="M72 36v642h172v82h67v-83q102 -6 151.5 -44.5t49.5 -113.5q0 -57 -32.5 -95t-90.5 -47v-5q60 -10 100.5 -45t40.5 -108q0 -87 -60 -135t-159 -48v-95h-67v95h-172zM172 417h72v164h-72v-164zM402 502q0 69 -91 78v-162q51 4 71 26.5t20 57.5zM172 134h72v188h-72v-188z
M418 231q0 36 -24 61.5t-83 28.5v-187q59 3 83 29.5t24 67.5z" />
    <glyph glyph-name="uni0E40" unicode="&#xe40;" horiz-adv-x="324" 
d="M217 -10q-58 0 -93 27.5t-35 88.5v411h127v-395q0 -37 38 -37q18 0 35 6l14 -83q-39 -18 -86 -18z" />
    <glyph glyph-name="uni0E41" unicode="&#xe41;" horiz-adv-x="614" 
d="M217 -10q-58 0 -93 27.5t-35 88.5v411h127v-395q0 -37 38 -37q18 0 35 6l14 -83q-39 -18 -86 -18zM507 -10q-58 0 -93 27.5t-35 88.5v411h127v-395q0 -37 38 -37q18 0 35 6l14 -83q-39 -18 -86 -18z" />
    <glyph glyph-name="uni0E42" unicode="&#xe42;" horiz-adv-x="334" 
d="M234 -10q-58 0 -93 27.5t-35 88.5v478q0 58 -24.5 83t-68.5 25v51l91 42h260v-93h-181l-1 -4q24 -15 37.5 -43.5t13.5 -75.5v-447q0 -37 38 -37q19 0 35 6l14 -83q-39 -18 -86 -18z" />
    <glyph glyph-name="uni0E43" unicode="&#xe43;" horiz-adv-x="320" 
d="M213 -10q-58 0 -93 27.5t-35 88.5v354q0 24 4 40.5t14.5 32t30.5 36.5q22 23 35 40t13 38q0 49 -70 49q-28 0 -51 -7t-40 -17v97q13 7 47.5 16.5t81.5 9.5q74 0 118 -30.5t44 -91.5q0 -38 -15.5 -66t-33.5 -50q-17 -21 -28.5 -35t-17 -28t-5.5 -37v-335q0 -37 37 -37
q21 0 37 6l13 -83q-37 -18 -86 -18z" />
    <glyph glyph-name="uni0E44" unicode="&#xe44;" horiz-adv-x="331" 
d="M235 -10q-58 0 -93 27.5t-35 88.5v463q0 54 15.5 79.5t35.5 39.5l-1 4h-162l26 93h305v-93q-38 0 -65 -23t-27 -85v-462q0 -37 38 -37q18 0 35 6l14 -83q-39 -18 -86 -18z" />
    <glyph glyph-name="uni0E45" unicode="&#xe45;" horiz-adv-x="424" 
d="M223 -201v549q0 41 -21 60t-68 19q-34 0 -63 -8.5t-55 -21.5v103q21 10 60.5 19.5t91.5 9.5q54 0 95 -15t64 -49.5t23 -94.5v-571h-127z" />
    <glyph glyph-name="uni0E46" unicode="&#xe46;" horiz-adv-x="621" 
d="M421 -198v588q0 46 -40 46t-40 -46v-33h-72v33q0 46 -41 46q-22 0 -32.5 -17.5t-10.5 -58.5q0 -46 13 -63t39 -17q19 0 34 7l23 -83q-16 -9 -36 -15.5t-46 -6.5q-70 0 -107.5 44.5t-37.5 131.5q0 92 38.5 131.5t101.5 39.5q36 0 63.5 -11.5t40.5 -37.5h3q13 26 40.5 37.5
t65.5 11.5q35 0 64 -11.5t46 -40.5t17 -81v-594h-126z" />
    <glyph glyph-name="uni0E47" unicode="&#xe47;" 
d="M-198 593q-60 0 -83 45l-50 -42q-61 0 -97.5 30t-36.5 86q0 59 36.5 88t83.5 29h244v-68h-223q-21 0 -35.5 -13t-14.5 -39q0 -19 9.5 -31.5t29.5 -12.5l50 46h20q3 -21 14 -35t30 -14q17 0 25.5 10t8.5 27v14h87v-18q0 -52 -26.5 -77t-71.5 -25z" />
    <glyph glyph-name="uni0E48" unicode="&#xe48;" 
d="M-206 604v221h119v-221h-119z" />
    <glyph glyph-name="uni0E49" unicode="&#xe49;" 
d="M-376 604v48q16 4 34.5 11t32 19t13.5 31q0 29 -29 29q-9 0 -18.5 -3t-16.5 -6l-20 62q20 17 47.5 22t46.5 5q43 0 67 -21.5t24 -59.5q0 -28 -17 -50h156v-87h-320z" />
    <glyph glyph-name="uni0E4A" unicode="&#xe4a;" 
d="M-331 599q-52 0 -80.5 29.5t-28.5 79.5t29 79t79 33l60 -37l55 37q63 -4 88 -30t25 -61q0 -24 -12 -43h81v-82h-195v56q13 5 23 15.5t10 29.5q0 21 -10.5 30t-20.5 10l-41 -24h-5l-41 24q-10 -1 -19 -10t-9 -29t9.5 -31t26.5 -11q5 0 10 0.5t11 3.5l10 -58q-8 -5 -23 -8
t-32 -3z" />
    <glyph glyph-name="uni0E4B" unicode="&#xe4b;" 
d="M-249 604v71h-73v78h73v72h103v-72h72v-78h-72v-71h-103z" />
    <glyph glyph-name="uni0E4C" unicode="&#xe4c;" 
d="M-260 580q-8 13 -13 33t-5 40q0 38 23.5 66t90.5 28h142v-89h-103q-19 0 -30 -7t-11 -24q0 -14 8 -30z" />
    <glyph glyph-name="uni0E4D" unicode="&#xe4d;" 
d="M-173 582q-55 0 -87 24.5t-32 70.5t32 71t87 25t87.5 -25t32.5 -71t-32.5 -70.5t-87.5 -24.5zM-173 635q23 0 35 11.5t12 30.5q0 42 -47 42q-46 0 -46 -42q0 -19 12 -30.5t34 -11.5z" />
    <glyph glyph-name="uni0E4E" unicode="&#xe4e;" 
d="M-267 580q-6 10 -10.5 24.5t-4.5 29.5q0 37 24 55t58 18q18 0 31 -5q-2 8 -2 17q0 35 26 50.5t59 15.5q13 0 29.5 -2.5t29.5 -7.5v-62q-8 3 -17.5 4.5t-17.5 1.5q-42 0 -42 -34q0 -15 7 -26l-34 -23q-8 7 -17.5 8.5t-14.5 1.5q-17 0 -25 -8.5t-8 -20.5q0 -6 2 -11.5
t5 -12.5z" />
    <glyph glyph-name="uni0E4F" unicode="&#xe4f;" horiz-adv-x="626" 
d="M313 -12q-130 0 -191.5 64.5t-61.5 175.5q0 116 61.5 177.5t191.5 61.5t192 -61.5t62 -177.5q0 -111 -62 -175.5t-192 -64.5zM312 67q77 0 115.5 42t38.5 119q0 82 -38.5 121t-115.5 39q-78 0 -115.5 -39t-37.5 -121q0 -77 37.5 -119t115.5 -42zM312 123q-50 0 -73.5 29
t-23.5 76q0 51 23.5 77.5t73.5 26.5t73.5 -26.5t23.5 -77.5q0 -47 -23.5 -76t-73.5 -29z" />
    <glyph glyph-name="uni0E50" unicode="&#xe50;" horiz-adv-x="568" 
d="M284 -12q-113 0 -173 64.5t-60 175.5q0 116 60 177.5t173 61.5t173 -61.5t60 -177.5q0 -111 -60 -175.5t-173 -64.5zM284 86q109 0 109 142q0 74 -28 107.5t-81 33.5q-54 0 -81.5 -33.5t-27.5 -107.5q0 -142 109 -142z" />
    <glyph glyph-name="uni0E51" unicode="&#xe51;" horiz-adv-x="538" 
d="M261 -12q-23 0 -45 3.5t-38 8.5v88q19 -8 55 -8q67 0 98.5 39t31.5 118q0 75 -27 104.5t-80 29.5q-46 0 -70.5 -19.5t-24.5 -59.5q0 -32 15 -49t39 -17q12 0 24 5l19 -82q-12 -11 -33 -16.5t-43 -5.5q-64 0 -100 43.5t-36 117.5q0 177 209 177q124 0 178 -61t54 -168
q0 -72 -23 -128t-72.5 -88t-130.5 -32z" />
    <glyph glyph-name="uni0E52" unicode="&#xe52;" horiz-adv-x="632" 
d="M322 -12q-140 0 -203.5 61t-63.5 167v368h121v-359q0 -61 32.5 -100.5t115.5 -39.5q55 0 85 18t41.5 50.5t11.5 74.5v109q0 44 -25 44q-16 0 -21.5 -12.5t-6.5 -33.5h-44q-1 22 -7 34t-22 12q-26 0 -26 -56q0 -25 7 -40.5t27 -15.5q5 0 12.5 1.5t14.5 5.5l20 -69
q-26 -17 -59 -17q-58 0 -88 38t-30 103q0 61 25 96t75 35q26 0 46.5 -10.5t30.5 -35.5h3q10 24 31 35t49 11q41 0 72 -25t31 -89v-131q0 -71 -24.5 -122.5t-80.5 -79t-150 -27.5z" />
    <glyph glyph-name="uni0E53" unicode="&#xe53;" horiz-adv-x="563" 
d="M208 -10q-57 0 -91.5 31.5t-50 87t-15.5 127.5q0 118 36 173.5t106 55.5q28 0 51.5 -11t38.5 -42h4q10 31 37.5 42t59.5 11q58 0 89 -32.5t31 -101.5v-331h-121v317q0 31 -11 40t-24 9q-16 0 -25.5 -10.5t-12.5 -40.5h-53q-3 31 -13 41t-22 10q-48 0 -48 -128
q0 -77 16 -116t54 -39q6 0 14 1t16 5l15 -87q-14 -4 -36.5 -8t-44.5 -4z" />
    <glyph glyph-name="uni0E54" unicode="&#xe54;" horiz-adv-x="538" 
d="M257 0q-104 0 -155 54t-51 169q0 64 18.5 118t60.5 86.5t114 32.5h38q50 0 66 17t16 59v48h113v-70q0 -71 -35 -109t-114 -38h-39q-64 0 -89.5 -39t-25.5 -108q0 -68 23 -97.5t74 -29.5h37q-21 29 -21 79q0 119 115 119q42 0 68 -15l-21 -70q-5 2 -11 2.5t-10 0.5
q-38 0 -38 -54q0 -64 61 -64h37v-91h-231z" />
    <glyph glyph-name="uni0E55" unicode="&#xe55;" horiz-adv-x="549" 
d="M262 0q-110 0 -160.5 55t-50.5 170q0 91 32 147.5t95 73.5q-14 10 -23 26.5t-9 38.5q0 37 27 61t74 24q49 0 74.5 -24.5t25.5 -61.5q0 -17 -5.5 -30.5t-13.5 -23.5q40 5 51 25t11 68v35h100v-70q0 -71 -37.5 -109t-116.5 -38h-41q-68 0 -94.5 -39t-26.5 -108
q0 -68 23.5 -97.5t76.5 -29.5h38q-21 31 -21 79q0 118 115 118q43 0 69 -14l-21 -71q-5 2 -11.5 3t-10.5 1q-18 0 -28 -14.5t-10 -39.5q0 -64 61 -64h37v-91h-230zM248 468q18 0 28 11t10 27q0 14 -10 25t-28 11q-19 0 -28 -11t-9 -25q0 -16 9 -27t28 -11z" />
    <glyph glyph-name="uni0E56" unicode="&#xe56;" horiz-adv-x="524" 
d="M254 -12q-60 0 -108 20t-79 67l80 65q20 -26 43 -41.5t58 -15.5q55 0 78 37t23 108q0 76 -23.5 109t-70.5 33q-35 0 -58 -17t-24 -50h-88l-64 281h107l37 -162q19 22 48 32.5t66 10.5q101 0 147.5 -64.5t46.5 -172.5q0 -115 -53.5 -177.5t-165.5 -62.5z" />
    <glyph glyph-name="uni0E57" unicode="&#xe57;" horiz-adv-x="739" 
d="M213 -10q-60 0 -95.5 30.5t-51 87t-15.5 132.5q0 124 36 174.5t102 50.5q29 0 50.5 -11t35.5 -42h3q13 32 40.5 42.5t55.5 10.5q50 0 78.5 -26.5t28.5 -84.5v-263q38 0 58.5 21.5t20.5 83.5v388h118v-381q0 -60 -18.5 -99.5t-49.5 -62t-68 -32t-74 -9.5h-101v320
q0 26 -8.5 36t-22.5 10q-18 0 -25.5 -11.5t-10.5 -39.5h-49q-3 29 -11 40t-21 11q-26 0 -35.5 -31t-9.5 -93q0 -82 16 -120.5t53 -38.5q7 0 15 1t16 5l15 -87q-14 -4 -34.5 -8t-41.5 -4z" />
    <glyph glyph-name="uni0E58" unicode="&#xe58;" horiz-adv-x="566" 
d="M382 -12q-42 0 -70 17.5t-38 54.5l-55 -68q-78 0 -123 56t-45 171q0 67 18.5 121.5t62.5 87t122 32.5h40q47 0 61.5 16t14.5 58v50h118v-70q0 -71 -35 -109t-114 -38h-63q-58 0 -83 -38t-25 -103q0 -64 18.5 -91t38.5 -31l45 56h43q0 -38 12.5 -54t36.5 -16q52 0 52 61
q0 29 -12 45.5t-22 25.5l70 65q38 -23 54.5 -59.5t16.5 -83.5q0 -74 -37.5 -115t-101.5 -41z" />
    <glyph glyph-name="uni0E59" unicode="&#xe59;" horiz-adv-x="532" 
d="M211 -10q-88 0 -124 67t-36 181q0 123 38.5 175t116.5 52q63 0 92 -42q8 19 24.5 30.5t40.5 11.5h6q20 0 28.5 10.5t8.5 34.5v74h109v-88q0 -52 -22 -81.5t-67 -29.5h-15q-29 0 -40 -17t3 -53l120 -315h-116l-119 335q-7 19 -14 28t-22 9q-14 0 -25 -11t-17.5 -40
t-6.5 -83q0 -76 16 -115.5t54 -39.5q6 0 14 1t16 5l15 -87q-14 -5 -36 -8.5t-42 -3.5z" />
    <glyph glyph-name="uni0E5A" unicode="&#xe5a;" horiz-adv-x="804" 
d="M323 0v242q-21 -20 -52 -30t-69 -10q-53 0 -95.5 18.5t-67 56t-24.5 94.5q0 73 42.5 114t118.5 41q14 0 32.5 -2t38.5 -9l-11 -82q-11 2 -19.5 3t-12.5 1q-28 0 -48 -15.5t-20 -49.5t23 -53.5t70 -19.5q94 0 94 92v126h127v-209q19 -8 42 -8q46 0 73.5 27t27.5 76v114
h127v-517h-127v249q-19 -21 -45.5 -31t-55.5 -10q-22 0 -42 6v-214h-127z" />
    <glyph glyph-name="uni0E5B" unicode="&#xe5b;" horiz-adv-x="893" 
d="M243 70q-95 0 -144 51t-49 141q0 70 36 117t118 47q69 0 104.5 -31t35.5 -87q0 -25 -6.5 -46.5t-16.5 -38.5l-79 30q4 7 7.5 18t3.5 22q0 23 -12.5 34t-32.5 11q-26 0 -36.5 -22t-10.5 -50q0 -57 27 -80.5t71 -23.5q73 0 103 51.5t27 133.5h79l46 -120l28 111h65l36 -99
l27 85h57l6 -17q7 -23 14 -42t20 -30t40 -11q11 0 18.5 2t12.5 4v-81q-9 -5 -19.5 -8.5t-26.5 -3.5q-70 0 -103 82l-19 -87h-55l-37 112l-29 -122h-66l-35 106q-9 -35 -31 -71.5t-63.5 -61.5t-110.5 -25z" />
    <glyph glyph-name="uni200B" unicode="&#x200b;" 
 />
    <glyph glyph-name="uni200C" unicode="&#x200c;" 
d="M-21 -133v761h42v-761h-42z" />
    <glyph glyph-name="uni200D" unicode="&#x200d;" 
d="M-21 -133v668l-62 -62l-26 27l82 82l-82 81l26 27l83 -83l83 83l26 -27l-82 -81l82 -82l-26 -27l-62 62v-668h-42z" />
    <glyph glyph-name="uni2010" unicode="&#x2010;" horiz-adv-x="322" 
d="M34 215v106h254v-106h-254z" />
    <glyph glyph-name="uni25CC" unicode="&#x25cc;" horiz-adv-x="594" 
d="M297 488q-11 0 -18.5 8t-7.5 18t7.5 18t18.5 8t18.5 -8t7.5 -18t-7.5 -18t-18.5 -8zM213 470q-11 0 -18.5 8t-7.5 18t7.5 18t18.5 8t18.5 -8t7.5 -18t-7.5 -18t-18.5 -8zM381 470q-11 0 -18.5 8t-7.5 18t7.5 18t18.5 8t18.5 -8t7.5 -18t-7.5 -18t-18.5 -8zM455 423
q-11 0 -18.5 7.5t-7.5 18.5t7.5 18.5t18.5 7.5t18.5 -7.5t7.5 -18.5t-7.5 -18.5t-18.5 -7.5zM139 423q-11 0 -18.5 7.5t-7.5 18.5t7.5 18.5t18.5 7.5t18.5 -7.5t7.5 -18.5t-7.5 -18.5t-18.5 -7.5zM92 349q-10 0 -18 7.5t-8 18.5t8 18.5t18 7.5t18 -7.5t8 -18.5t-8 -18.5
t-18 -7.5zM502 349q-10 0 -18 7.5t-8 18.5t8 18.5t18 7.5t18 -7.5t8 -18.5t-8 -18.5t-18 -7.5zM74 265q-10 0 -18 7.5t-8 18.5t8 18.5t18 7.5t18 -7.5t8 -18.5t-8 -18.5t-18 -7.5zM520 265q-10 0 -18 7.5t-8 18.5t8 18.5t18 7.5t18 -7.5t8 -18.5t-8 -18.5t-18 -7.5zM92 181
q-10 0 -18 7.5t-8 18.5t8 18.5t18 7.5t18 -7.5t8 -18.5t-8 -18.5t-18 -7.5zM502 181q-10 0 -18 7.5t-8 18.5t8 18.5t18 7.5t18 -7.5t8 -18.5t-8 -18.5t-18 -7.5zM139 107q-11 0 -18.5 7.5t-7.5 18.5t7.5 18.5t18.5 7.5t18.5 -7.5t7.5 -18.5t-7.5 -18.5t-18.5 -7.5zM455 107
q-11 0 -18.5 7.5t-7.5 18.5t7.5 18.5t18.5 7.5t18.5 -7.5t7.5 -18.5t-7.5 -18.5t-18.5 -7.5zM213 60q-11 0 -18.5 8t-7.5 18t7.5 18t18.5 8t18.5 -8t7.5 -18t-7.5 -18t-18.5 -8zM381 60q-11 0 -18.5 8t-7.5 18t7.5 18t18.5 8t18.5 -8t7.5 -18t-7.5 -18t-18.5 -8zM297 42
q-11 0 -18.5 8t-7.5 18t7.5 18t18.5 8t18.5 -8t7.5 -18t-7.5 -18t-18.5 -8z" />
    <glyph glyph-name="saraUu-thai.small" horiz-adv-x="600" 
d="M94 0v714h411v-714h-411zM145 51h309v612h-309v-612z" />
    <glyph glyph-name="uni0E24.aalt" horiz-adv-x="616" 
d="M201 -10q-56 0 -92.5 27.5t-36.5 88.5v66q0 56 26 84t71 40l1 4l-111 37v27q0 44 28 82t82.5 60.5t131.5 22.5q71 0 125 -21t85 -64.5t31 -108.5v-457h-127v448q0 51 -32 75.5t-85 24.5q-52 0 -80 -20t-29 -48l98 -42l-10 -56q-37 -1 -58.5 -15.5t-21.5 -55.5v-70
q0 -38 40 -38q21 0 36 6l14 -79q-37 -18 -86 -18z" />
    <glyph glyph-name="uni0E26.aalt" horiz-adv-x="624" 
d="M104 -10q-25 0 -45.5 5t-37.5 14l12 73q7 -2 14.5 -3t14.5 -1q31 0 31 34v74q0 49 21.5 74.5t62.5 35.5l1 4l-111 37v27q0 44 27.5 82t81.5 60.5t132 22.5q71 0 125.5 -21t85.5 -64.5t31 -108.5v-457h-127v448q0 51 -32.5 75.5t-84.5 24.5t-80 -20t-29 -48l97 -41l-9 -57
q-32 0 -49.5 -19t-17.5 -60v-82q0 -61 -32.5 -85t-81.5 -24z" />
    <glyph glyph-name="doChada-thai.short" horiz-adv-x="624" 
d="M103 -122v13q0 51 44 77.5t115 26.5q51 0 92 -12t69 -30v374q0 52 -32.5 76t-84.5 24t-80 -20t-29 -49l97 -40l-9 -57q-32 -1 -49.5 -19.5t-17.5 -60.5v-79q0 -60 -32.5 -83.5t-81.5 -23.5q-25 0 -45.5 5t-37.5 13l12 74q15 -5 28 -5q32 0 32 35v69q0 50 21.5 75.5
t62.5 35.5l1 4l-111 38v25q0 44 27.5 82t81.5 60.5t132 22.5q71 0 125.5 -21t85.5 -63.5t31 -108.5v-458h-111q-22 21 -63.5 33.5t-77.5 12.5q-40 0 -56.5 -13.5t-16.5 -28.5v-4h-122z" />
    <glyph glyph-name="toPatak-thai.short" horiz-adv-x="624" 
d="M67 -122v8q0 51 36.5 73.5t85.5 22.5q44 0 73.5 -15.5t43.5 -37.5l60 49l57 -34v383q0 52 -32.5 76t-84.5 24t-80 -20t-29 -49l97 -40l-9 -57q-32 -1 -49.5 -19.5t-17.5 -60.5v-79q0 -60 -32.5 -83.5t-81.5 -23.5q-25 0 -45.5 5t-37.5 13l12 74q15 -5 28 -5q32 0 32 35
v69q0 50 21.5 75.5t62.5 35.5l1 4l-111 38v25q0 44 27.5 82t81.5 60.5t132 22.5q71 0 125.5 -21t85.5 -63.5t31 -108.5v-458h-119l-62 37l-46 -37h-39q-9 14 -26 25.5t-42 11.5q-22 0 -32.5 -10.5t-10.5 -23.5v-3h-106z" />
    <glyph glyph-name="yoYing-thai.less" horiz-adv-x="904" 
d="M611 -12q-113 0 -166 50t-53 156v139q0 55 -30 75.5t-73 20.5q-45 0 -71.5 -17.5t-28.5 -51.5l98 -42l-10 -57q-37 -1 -58.5 -18t-21.5 -59v-64q0 -39 40 -39q21 0 36 6l14 -79q-37 -18 -86 -18q-56 0 -92.5 27.5t-36.5 88.5v69q0 56 26 83t71 39l1 4l-111 38v25
q0 46 27.5 83.5t78.5 59.5t124 22q64 0 115.5 -19.5t82 -60t30.5 -104.5v-159q0 -52 25 -73.5t68 -21.5t68 21.5t25 73.5v332h127v-324q0 -106 -53 -156t-166 -50z" />
    <glyph glyph-name="thoThan-thai.less" horiz-adv-x="563" 
d="M127 0v221h-64v82h180v-205h9q56 0 86 39t30 123q0 92 -38 130t-120 38q-51 0 -93.5 -13t-78.5 -34v108q32 17 82 28.5t113 11.5q45 0 81.5 -8t61.5 -26q19 9 31 23.5t12 33.5h115q0 -39 -23.5 -70.5t-68.5 -49.5q27 -26 41 -69.5t14 -105.5q0 -121 -59.5 -189
t-199.5 -68h-111z" />
    <glyph glyph-name="loChula-thai.short" horiz-adv-x="686" 
d="M103 0l-68 518h130l24 -220q5 -42 7 -84.5t3 -94.5h4q8 31 21 67.5t32 83.5l42 105h81l45 -104q12 -30 27 -70.5t29 -86.5h5q4 50 9 86t11 73l10 63q6 38 -6.5 58t-54.5 20h-55v81h85q39 0 50 14.5t14 42.5h123q0 -41 -22 -70.5t-75 -37.5v-4q40 -13 51.5 -43.5
t5.5 -65.5l-57 -331h-133l-60 153q-12 31 -21.5 61t-17.5 64h-4q-8 -34 -17.5 -64t-21.5 -61l-62 -153h-134z" />
    <glyph glyph-name="macronbelowcomb.alt" 
d="M-120 -76v-91h-599v91h599z" />
    <glyph glyph-name="uni0E31.aalt" 
d="M-412 598q-68 0 -94.5 28t-26.5 63t18 68l96 -14q-2 -5 -3 -13.5t-1 -15.5q0 -14 8.5 -22t27.5 -8h135v-86h-160z" />
    <glyph glyph-name="glyph99" 
d="M-195 833v177h113v-177h-113z" />
    <glyph glyph-name="glyph100" 
d="M-389 598v221h119v-221h-119z" />
    <glyph glyph-name="glyph102" 
d="M-264 833v38q12 3 26.5 9t25.5 16t11 25q0 24 -23 24q-16 0 -31 -10l-18 53q18 13 43.5 17.5t41.5 4.5q34 0 56.5 -15t22.5 -48q0 -9 -2 -18.5t-8 -18.5h122v-77h-267z" />
    <glyph glyph-name="glyph103" 
d="M-518 598v47q15 4 33 11t31 19.5t13 30.5q0 30 -29 30q-9 0 -18.5 -3.5t-16.5 -6.5l-20 62q21 16 48 22t47 6q43 0 67 -21.5t24 -61.5q0 -13 -4 -25.5t-14 -23.5h105v-86h-266z" />
    <glyph glyph-name="glyph105" 
d="M-226 829q-46 0 -68 26t-22 63q0 38 25 65t78 27l48 -35l44 35q42 0 71.5 -17t29.5 -53q0 -24 -10 -39h72v-68h-171v49q13 2 22 11t9 23t-7.5 22t-18.5 10l-39 -25h-5l-40 25q-12 0 -19.5 -9t-7.5 -23q0 -30 31 -30q10 0 18 3l7 -51q-16 -9 -47 -9z" />
    <glyph glyph-name="glyph106" 
d="M-487 593q-49 0 -76 29.5t-27 78.5q0 52 27 80.5t73 32.5l50 -37l47 37q56 -4 80.5 -29t24.5 -62q0 -25 -11 -46h59v-79h-165v56q14 5 23.5 15.5t9.5 29.5q0 20 -10 30.5t-21 12.5l-34 -25h-5l-33 25q-11 -2 -21 -13t-10 -29q0 -16 9 -29t28 -13q5 0 10.5 0.5t12.5 2.5
l9 -57q-7 -5 -21 -8t-29 -3z" />
    <glyph glyph-name="glyph108" 
d="M-192 833v51h-61v75h61v51h103v-51h63v-75h-63v-51h-103z" />
    <glyph glyph-name="glyph110" 
d="M-228 806q-10 16 -15 36t-5 39q0 25 11.5 46t40.5 34.5t82 13.5h116v-80h-98q-47 0 -47 -36q0 -17 8 -33z" />
    <glyph glyph-name="glyph111" 
d="M-478 574q-8 13 -13 33t-5 40q0 38 25.5 66t92.5 28h126v-89h-90q-20 0 -31 -7t-11 -24q0 -15 8 -31z" />
    <glyph glyph-name="uni0E47.aalt" 
d="M-343 587q-53 0 -78 45l-37 -42q-58 0 -91.5 30t-33.5 86q0 59 33.5 88t77.5 29h219v-68h-200q-19 0 -32.5 -13t-13.5 -39q0 -19 9.5 -31.5t28.5 -12.5l38 45h22q2 -48 37 -48q14 0 23 10t9 27v14h80v-18q0 -52 -25 -77t-66 -25z" />
    <glyph glyph-name="uni0E34.aalt" 
d="M-614 604v54l78 39h284v-93h-362z" />
    <glyph glyph-name="uni0E35.aalt" 
d="M-614 598v50l78 38h176v76h108v-164h-362z" />
    <glyph glyph-name="uni0E36.aalt" 
d="M-614 598v50l78 38h113v6q0 38 25.5 62.5t70.5 24.5q46 0 72 -26t26 -66q0 -38 -24.5 -63.5t-71.5 -25.5h-289zM-327 647q20 0 30.5 11.5t10.5 29.5t-11 29.5t-31 11.5t-31 -11.5t-11 -29.5q0 -17 10.5 -29t32.5 -12z" />
    <glyph glyph-name="uni0E37.aalt" 
d="M-614 598v50l78 38h74v76h78v-76h54v76h77v-76h1v-88h-362z" />
    <glyph glyph-name="nikhahit_maiEk-thai" 
d="M-173 583q-55 0 -87 24.5t-32 70.5t32 71t87 25t87.5 -25t32.5 -71t-32.5 -70.5t-87.5 -24.5zM-173 636q23 0 35 11.5t12 30.5q0 42 -47 42q-46 0 -46 -42q0 -19 12 -30.5t34 -11.5zM-225 833v177h113v-177h-113z" />
    <glyph glyph-name="nikhahit_maiTho-thai" 
d="M-173 583q-55 0 -87 24.5t-32 70.5t32 71t87 25t87.5 -25t32.5 -71t-32.5 -70.5t-87.5 -24.5zM-173 636q23 0 35 11.5t12 30.5q0 42 -47 42q-46 0 -46 -42q0 -19 12 -30.5t34 -11.5zM-294 833v38q12 3 26.5 9t25.5 16t11 25q0 24 -23 24q-16 0 -31 -10l-18 53
q18 13 43.5 17.5t41.5 4.5q34 0 56.5 -15t22.5 -48q0 -9 -2 -18.5t-8 -18.5h122v-77h-267z" />
    <glyph glyph-name="nikhahit_maiTri-thai" 
d="M-173 583q-55 0 -87 24.5t-32 70.5t32 71t87 25t87.5 -25t32.5 -71t-32.5 -70.5t-87.5 -24.5zM-173 636q23 0 35 11.5t12 30.5q0 42 -47 42q-46 0 -46 -42q0 -19 12 -30.5t34 -11.5zM-256 829q-46 0 -68 26t-22 63q0 38 25 65t78 27l48 -35l44 35q42 0 71.5 -17t29.5 -53
q0 -24 -10 -39h72v-68h-171v49q13 2 22 11t9 23t-7.5 22t-18.5 10l-39 -25h-5l-40 25q-12 0 -19.5 -9t-7.5 -23q0 -30 31 -30q10 0 18 3l7 -51q-16 -9 -47 -9z" />
    <glyph glyph-name="nikhahit_maiChattawa-thai" 
d="M-173 583q-55 0 -87 24.5t-32 70.5t32 71t87 25t87.5 -25t32.5 -71t-32.5 -70.5t-87.5 -24.5zM-173 636q23 0 35 11.5t12 30.5q0 42 -47 42q-46 0 -46 -42q0 -19 12 -30.5t34 -11.5zM-222 833v51h-61v75h61v51h103v-51h63v-75h-63v-51h-103z" />
    <glyph glyph-name="uni0E3A.aalt" 
d="M-138 -257q-36 0 -56 15.5t-20 43.5q0 27 20 43t56 16q34 0 54 -16t20 -43q0 -28 -20 -43.5t-54 -15.5z" />
    <glyph glyph-name="uni0E38.aalt" 
d="M-184 -261v20q0 25 -22 25q-5 0 -10.5 -1t-9.5 -3l-7 68q14 5 36 9t42 4q43 0 62 -18.5t19 -50.5v-53h-110z" />
    <glyph glyph-name="uni0E39.aalt" 
d="M-222 -265q-78 0 -110.5 14t-32.5 37v6q0 21 -22 18l-6 46q13 4 28 5t25 1q40 0 58 -12t18 -33v-3q0 -12 9 -20t32 -8q25 0 34.5 8.5t9.5 21.5v43h105v-55q0 -37 -35 -53t-113 -16z" />
    <glyph glyph-name="maiChattawa-thai.narrow" 
d="M-430 598v71h-72v78h72v72h103v-72h72v-78h-72v-71h-103z" />
    <glyph glyph-name="nikhahit-thai.narrow" 
d="M-371 582q-55 0 -87 24.5t-32 70.5t32 71t87 25t87.5 -25t32.5 -71t-32.5 -70.5t-87.5 -24.5zM-371 635q23 0 35 11.5t12 30.5q0 42 -47 42q-46 0 -46 -42q0 -19 12 -30.5t34 -11.5z" />
    <glyph glyph-name="nikhahit_maiEk-thai.narrow" 
d="M-333 582q-55 0 -87 24.5t-32 70.5t32 71t87 25t87.5 -25t32.5 -71t-32.5 -70.5t-87.5 -24.5zM-333 635q23 0 35 11.5t12 30.5q0 42 -47 42q-46 0 -46 -42q0 -19 12 -30.5t34 -11.5zM-385 832v177h113v-177h-113z" />
    <glyph glyph-name="nikhahit_maiTho-thai.narrow" 
d="M-332 583q-55 0 -87 24.5t-32 70.5t32 71t87 25t87.5 -25t32.5 -71t-32.5 -70.5t-87.5 -24.5zM-332 636q23 0 35 11.5t12 30.5q0 42 -47 42q-46 0 -46 -42q0 -19 12 -30.5t34 -11.5zM-453 833v38q12 3 26.5 9t25.5 16t11 25q0 24 -23 24q-16 0 -31 -10l-18 53
q18 13 43.5 17.5t41.5 4.5q34 0 56.5 -15t22.5 -48q0 -9 -2 -18.5t-8 -18.5h122v-77h-267z" />
    <glyph glyph-name="nikhahit_maiTri-thai.narrow" 
d="M-333 582q-55 0 -87 24.5t-32 70.5t32 71t87 25t87.5 -25t32.5 -71t-32.5 -70.5t-87.5 -24.5zM-333 635q23 0 35 11.5t12 30.5q0 42 -47 42q-46 0 -46 -42q0 -19 12 -30.5t34 -11.5zM-416 828q-46 0 -68 26t-22 63q0 38 25 65t78 27l48 -35l44 35q42 0 71.5 -17t29.5 -53
q0 -24 -10 -39h72v-68h-171v49q13 2 22 11t9 23t-7.5 22t-18.5 10l-39 -25h-5l-40 25q-12 0 -19.5 -9t-7.5 -23q0 -30 31 -30q10 0 18 3l7 -51q-16 -9 -47 -9z" />
    <glyph glyph-name="nikhahit_maiChattawa-thai.narrow" 
d="M-332 583q-55 0 -87 24.5t-32 70.5t32 71t87 25t87.5 -25t32.5 -71t-32.5 -70.5t-87.5 -24.5zM-332 636q23 0 35 11.5t12 30.5q0 42 -47 42q-46 0 -46 -42q0 -19 12 -30.5t34 -11.5zM-381 833v51h-61v75h61v51h103v-51h63v-75h-63v-51h-103z" />
    </font>
</defs>
</svg>
