<?xml version="1.0" standalone="no"?>
<!DOCTYPE svg PUBLIC "-//W3C//DTD SVG 1.1//EN" "http://www.w3.org/Graphics/SVG/1.1/DTD/svg11.dtd" >
<svg xmlns="http://www.w3.org/2000/svg" xmlns:xlink="http://www.w3.org/1999/xlink" version="1.1">
<metadata>
Created by FontForge 20170731 at Wed Sep 20 01:01:00 2017
 By Aleksey,,,
Copyright 2016 Google Inc. All Rights Reserved.
</metadata>
<defs>
<font id="NotoSansThaiUI-Medium" horiz-adv-x="0" >
  <font-face 
    font-family="Noto Sans Thai UI Med"
    font-weight="500"
    font-stretch="normal"
    units-per-em="1000"
    panose-1="2 11 6 2 4 5 4 2 2 4"
    ascent="800"
    descent="-200"
    bbox="-704 -265 875 995"
    underline-thickness="50"
    underline-position="-175"
    unicode-range="U+000D-25CC"
  />
<missing-glyph horiz-adv-x="364" 
d="M33 0v666h265v-666h-265zM66 33h199v600h-199v-600z" />
    <glyph glyph-name="ru_lakkhangyao-thai" unicode="&#xe24;&#xe45;" horiz-adv-x="948" 
d="M424 -194v520q0 62 -37 88t-92 26q-58 0 -90 -21.5t-33 -54.5l106 -46l-8 -50q-38 -1 -62 -20t-24 -65v-73q0 -39 41 -39q21 0 37 6l13 -71q-19 -8 -38 -11.5t-39 -3.5q-50 0 -85 24t-35 84v77q0 58 27 85t70 38l1 4l-113 38v29q0 42 27 78t79 58t126 22q72 0 118.5 -23
t70.5 -63h3q20 40 67.5 63t115.5 23q98 0 149.5 -49t51.5 -136v-537h-107v525q0 59 -33 84t-82 25q-50 0 -84 -26t-34 -87v-521h-107z" />
    <glyph glyph-name="lu_lakkhangyao-thai" unicode="&#xe26;&#xe45;" horiz-adv-x="953" 
d="M428 -194v520q0 62 -37 88t-92 26q-58 0 -90 -21.5t-32 -54.5l106 -45l-9 -51q-35 -1 -55.5 -21.5t-20.5 -66.5v-86q0 -59 -29 -81t-73 -22q-43 0 -76 16l11 66q7 -1 15 -2.5t16 -1.5q31 0 31 35v80q0 53 22 79t64 36l1 4l-113 38v29q0 42 27.5 78t79.5 58t126 22
q71 0 118 -23t70 -63h3q20 40 67.5 63t115.5 23q98 0 149.5 -49t51.5 -136v-537h-107v525q0 59 -33 84t-83 25t-83.5 -26t-33.5 -87v-521h-107z" />
    <glyph glyph-name=".notdef" horiz-adv-x="364" 
d="M33 0v666h265v-666h-265zM66 33h199v600h-199v-600z" />
    <glyph glyph-name=".null" 
 />
    <glyph glyph-name="nonmarkingreturn" horiz-adv-x="333" 
 />
    <glyph glyph-name="NULL" 
 />
    <glyph glyph-name="NULL" 
 />
    <glyph glyph-name="CR" unicode="&#xd;" horiz-adv-x="260" 
 />
    <glyph glyph-name="space" unicode=" " horiz-adv-x="260" 
 />
    <glyph glyph-name="hyphen" unicode="-" horiz-adv-x="322" 
d="M37 223v90h248v-90h-248z" />
    <glyph glyph-name="uni00A0" unicode="&#xa0;" horiz-adv-x="260" 
 />
    <glyph glyph-name="uni02BC" unicode="&#x2bc;" horiz-adv-x="187" 
d="M165 714l7 -11q-13 -53 -35.5 -116.5t-45.5 -117.5h-79q14 57 27 125t20 120h106z" />
    <glyph glyph-name="uni02D7" unicode="&#x2d7;" horiz-adv-x="218" 
d="M206 248h-194v55h194v-55z" />
    <glyph glyph-name="tildecomb" unicode="&#x303;" 
d="M-120 741q-6 -64 -35 -99t-73 -35q-26 0 -51.5 13.5t-49 27.5t-44.5 14q-36 0 -48 -56h-58q6 64 34.5 99t75.5 35q27 0 52 -14t48 -27.5t44 -13.5q34 0 48 56h57z" />
    <glyph glyph-name="uni0331" unicode="&#x331;" 
d="M-120 -76v-80h-294v80h294z" />
    <glyph glyph-name="uni0E01" unicode="&#xe01;" horiz-adv-x="607" 
d="M73 0v170q0 60 27 89t71 40l1 4l-109 38v29q0 42 27.5 78t79.5 58t126 22q65 0 118 -20t84 -61t31 -106v-341h-107v332q0 57 -36 82.5t-92 25.5q-57 0 -89 -21.5t-33 -54.5l103 -46l-9 -51q-38 -1 -62 -24t-24 -69v-174h-107z" />
    <glyph glyph-name="uni0E02" unicode="&#xe02;" horiz-adv-x="560" 
d="M280 -11q-99 0 -152 44.5t-53 132.5v50q0 44 13 70.5t29 46.5q17 21 28.5 37.5t11.5 37.5q0 18 -10 26t-25 8q-11 0 -23.5 -3.5t-25.5 -8.5l-22 71q21 13 49.5 18t49.5 5q58 0 83 -28t25 -74q0 -32 -12 -54.5t-27 -44.5q-17 -23 -27.5 -44t-10.5 -55v-50q0 -57 29.5 -78
t69.5 -21q96 0 96 87v355h107v-359q0 -82 -51.5 -125.5t-151.5 -43.5z" />
    <glyph glyph-name="uni0E03" unicode="&#xe03;" horiz-adv-x="564" 
d="M281 -11q-102 0 -153.5 45.5t-51.5 133.5v48q0 51 19 82.5t48 60.5q14 13 25.5 26.5t13.5 27.5l-3 2q-11 -7 -24 -11t-30 -4q-36 0 -59 24t-23 68v25h86q0 -52 31 -52q10 0 21.5 3.5t21.5 11.5l18 37h58v-50q0 -29 -2.5 -49t-11.5 -38t-28 -42q-15 -18 -27 -33t-19.5 -34
t-7.5 -50v-45q0 -59 28.5 -80t69.5 -21q100 0 100 87v355h106v-359q0 -82 -53 -125.5t-153 -43.5z" />
    <glyph glyph-name="uni0E04" unicode="&#xe04;" horiz-adv-x="623" 
d="M78 0v321q0 100 56 153.5t178 53.5q123 0 178.5 -53.5t55.5 -153.5v-321h-107v321q0 119 -128 119q-127 0 -127 -119v-95l3 -1q21 37 51.5 48.5t84.5 11.5h31v-83h-31q-57 0 -87 -16t-41 -42t-11 -58v-86h-106z" />
    <glyph glyph-name="uni0E05" unicode="&#xe05;" horiz-adv-x="632" 
d="M78 0v397q0 66 36.5 98.5t98.5 32.5q37 0 64 -12.5t36 -40.5h5q10 28 36.5 40.5t63.5 12.5q63 0 99.5 -32.5t36.5 -98.5v-397h-107v381q0 34 -14.5 46.5t-37.5 12.5q-48 0 -52 -53h-57q-4 53 -53 53q-22 0 -36.5 -12.5t-14.5 -46.5v-155l3 -1q22 37 53.5 48.5t87.5 11.5
h31v-83h-31q-59 0 -89.5 -16t-41.5 -42t-11 -58v-86h-106z" />
    <glyph glyph-name="uni0E06" unicode="&#xe06;" horiz-adv-x="610" 
d="M349 -9q-68 0 -114 24.5t-63 66.5h-6l-8 -82h-84v211q0 53 18 85.5t50 62.5q20 19 30 30t11 24l-3 2q-11 -7 -24.5 -11t-29.5 -4q-36 0 -59 24t-23 68v25h86q0 -52 31 -52q10 0 21.5 3.5t21.5 11.5l18 37h60v-50q0 -27 -3 -46.5t-13 -38t-30 -44.5q-16 -20 -28.5 -35
t-20 -33.5t-7.5 -48.5v-8q0 -60 36.5 -95.5t100.5 -35.5q54 0 81 26.5t27 82.5v326h107v-342q0 -93 -48.5 -138.5t-134.5 -45.5z" />
    <glyph glyph-name="uni0E07" unicode="&#xe07;" horiz-adv-x="547" 
d="M169 0l-168 517h108l141 -428h10q21 0 41.5 10t34.5 26q27 29 40 72t13 86q0 72 -34 112t-94 40q-12 0 -22.5 -1t-18.5 -4l-24 84q22 5 41 7t33 2q51 0 90.5 -14t67.5 -40q34 -32 51.5 -80.5t17.5 -106.5q0 -75 -24.5 -132t-60.5 -91q-30 -27 -73 -43t-112 -16h-58z" />
    <glyph glyph-name="uni0E08" unicode="&#xe08;" horiz-adv-x="540" 
d="M138 0v225h-71v74h170v-215h12q61 0 93 41.5t32 134.5q0 98 -38 139.5t-125 41.5q-49 0 -92 -12.5t-81 -35.5v95q31 16 80.5 28t108.5 12q139 0 197.5 -68.5t58.5 -198.5q0 -125 -56.5 -193t-192.5 -68h-96z" />
    <glyph glyph-name="uni0E09" unicode="&#xe09;" horiz-adv-x="610" 
d="M260 -9q-85 0 -133 41t-48 130v133h105v-113q0 -100 105 -100q64 0 100 37t36 102v80q0 81 -41 110.5t-113 29.5q-49 0 -95 -12.5t-86 -35.5v95q29 16 82.5 28t116.5 12q129 0 186 -57t57 -165v-306h-85l-8 76h-6q-17 -37 -61.5 -61t-111.5 -24z" />
    <glyph glyph-name="uni0E0A" unicode="&#xe0a;" horiz-adv-x="564" 
d="M283 -11q-101 0 -154 44.5t-53 132.5v50q0 43 12.5 70t28.5 47q17 21 28.5 37.5t11.5 37.5q0 18 -10 26t-25 8q-11 0 -23.5 -3.5t-25.5 -8.5l-22 71q21 13 49.5 18t49.5 5q58 0 83 -28t25 -74q0 -32 -12 -54.5t-27 -44.5q-17 -23 -27 -44t-10 -55v-48q0 -58 29.5 -79.5
t71.5 -21.5q96 0 96 87v116q0 32 -16 50t-52 18h-5v62h6q38 0 54.5 17t20 42.5t3.5 49.5h107q0 -53 -14.5 -89t-57.5 -51v-4q39 -10 49.5 -37.5t10.5 -56.5v-121q0 -82 -51 -125.5t-151 -43.5z" />
    <glyph glyph-name="uni0E0B" unicode="&#xe0b;" horiz-adv-x="570" 
d="M284 -11q-100 0 -152.5 45.5t-52.5 133.5v48q0 51 17.5 82.5t46.5 60.5q14 13 25.5 26.5t13.5 27.5l-3 2q-11 -7 -24 -11t-30 -4q-36 0 -59 24t-23 68v25h86q0 -52 31 -52q10 0 21.5 3.5t21.5 11.5l18 37h56v-50q0 -29 -2 -49t-10.5 -38t-27.5 -42q-15 -18 -26.5 -32.5
t-18 -32t-6.5 -45.5v-52q0 -60 29 -80.5t69 -20.5q101 0 101 87v116q0 32 -16.5 50t-51.5 18h-3v62h4q38 0 54 17t20 42.5t4 49.5h106q0 -53 -14 -88t-58 -51v-4q37 -10 49.5 -36t12.5 -66v-114q0 -82 -53.5 -125.5t-154.5 -43.5z" />
    <glyph glyph-name="uni0E0C" unicode="&#xe0c;" horiz-adv-x="912" 
d="M198 -9q-50 0 -85 24t-35 84v79q0 57 27 83.5t70 37.5l1 4l-113 38v29q0 43 27 79t77.5 57.5t121.5 21.5q61 0 112 -19.5t81.5 -60t30.5 -103.5v-121q0 -64 34 -103t88 -39q42 0 67 23t25 75v337h107v-352q0 -91 -45 -132.5t-123 -41.5q-56 0 -99 24.5t-61 66.5h-6
l-7 -82h-86v334q0 60 -35.5 83.5t-84.5 23.5q-50 0 -81.5 -19.5t-33.5 -56.5l106 -46l-8 -51q-38 -1 -62 -20t-24 -65v-73q0 -39 42 -39q20 0 36 6l13 -71q-19 -8 -38 -11.5t-39 -3.5z" />
    <glyph glyph-name="uni0E0D" unicode="&#xe0d;" horiz-adv-x="917" 
d="M598 -172q-43 0 -85.5 8t-79.5 24v96q30 -18 72.5 -28.5t84.5 -10.5q62 0 100 27.5t38 99.5v26h-5q-19 -28 -57.5 -47.5t-94.5 -19.5q-72 0 -119.5 39t-47.5 130v164q0 40 -16.5 63t-43.5 32.5t-58 9.5q-49 0 -80.5 -19.5t-33.5 -56.5l106 -46l-8 -51q-38 -1 -62 -20
t-24 -65v-73q0 -39 41 -39q21 0 37 6l13 -71q-19 -8 -38 -11.5t-39 -3.5q-50 0 -85 24t-35 84v79q0 57 27 83.5t70 37.5l1 4l-113 38v29q0 44 27 80t77.5 57t119.5 21q61 0 111.5 -19t81 -59t30.5 -105v-153q0 -52 25.5 -75t66.5 -23q56 0 89.5 39t33.5 103v281h107v-463
q0 -114 -60 -170t-174 -56z" />
    <glyph glyph-name="uni0E0E" unicode="&#xe0e;" horiz-adv-x="613" 
d="M99 -194v16q0 64 41.5 98t118.5 34q52 0 96 -14.5t73 -35.5v428q0 57 -37 82.5t-92 25.5q-58 0 -90 -21.5t-32 -54.5l106 -45l-9 -51q-35 -1 -55.5 -21.5t-20.5 -66.5v-84q0 -59 -29 -81t-73 -22q-40 0 -76 17l11 66q15 -5 31 -5q31 0 31 36v77q0 53 22 79t64 36l1 4
l-113 38v29q0 42 27 78t79.5 58t126.5 22q66 0 119 -20t84.5 -61t31.5 -106v-535h-87q-16 17 -43 31.5t-59 23t-62 8.5q-41 0 -60 -16t-19 -38v-9h-106z" />
    <glyph glyph-name="uni0E0F" unicode="&#xe0f;" horiz-adv-x="613" 
d="M72 -194v28q0 56 35 84t84 28q44 0 70.5 -16t41.5 -42l62 50l63 -42v436q0 57 -37 82.5t-92 25.5q-58 0 -90 -21.5t-32 -54.5l106 -45l-9 -51q-35 -1 -55.5 -21.5t-20.5 -66.5v-84q0 -59 -29 -81t-73 -22q-40 0 -76 17l11 66q15 -5 31 -5q31 0 31 36v77q0 53 22 79t64 36
l1 4l-113 38v29q0 42 27 78t79.5 58t126.5 22q66 0 119 -20t84.5 -61t31.5 -106v-535h-93l-73 52l-58 -52h-26q-12 23 -29.5 40.5t-42.5 17.5q-26 0 -36.5 -17t-10.5 -33v-8h-94z" />
    <glyph glyph-name="uni0E10" unicode="&#xe10;" horiz-adv-x="554" 
d="M135 0v225h-70v74h170v-215h11q62 0 94 41.5t32 134.5q0 98 -38 139.5t-125 41.5q-49 0 -92 -12.5t-81 -35.5v95q31 16 80.5 28t108.5 12q47 0 83.5 -8.5t60.5 -27.5q22 8 37 22.5t15 36.5h100q0 -40 -25.5 -69.5t-69.5 -44.5q55 -54 55 -179q0 -123 -56.5 -190.5
t-192.5 -67.5h-97zM41 -194v26q0 56 33 84t78 28q40 0 64.5 -16t40.5 -41l57 51l68 -48v69h93v-153h-98l-63 51l-53 -51h-21q-11 23 -27.5 40.5t-41.5 17.5q-24 0 -33 -17t-9 -33v-8h-88z" />
    <glyph glyph-name="uni0E11" unicode="&#xe11;" horiz-adv-x="633" 
d="M94 0v201q0 53 7 86.5t36 63.5q19 21 28 31t12 16t5 15l-3 2q-11 -7 -24 -11t-30 -4q-36 0 -59 24t-23 68v25h85q0 -29 7.5 -40.5t24.5 -11.5q8 0 18 3t17 12l19 37h53v-70h4q29 43 66 61.5t79 18.5q74 0 106.5 -37t32.5 -96v-394h-107v361q0 76 -63 76q-31 0 -61 -20
t-68 -64q-21 -25 -33 -45t-17 -45t-5 -64v-199h-107z" />
    <glyph glyph-name="uni0E12" unicode="&#xe12;" horiz-adv-x="915" 
d="M271 -9q-83 0 -129 34.5t-64 96t-18 143.5q0 143 41 202.5t116 59.5q33 0 57.5 -12.5t35.5 -41.5h4q11 30 37.5 42t60.5 12q59 0 93.5 -33.5t34.5 -100.5v-169q0 -64 33.5 -103t89.5 -39q40 0 65 23t25 75v337h107v-352q0 -91 -45 -132.5t-118 -41.5q-65 0 -106 25.5
t-59 65.5h-5l-8 -82h-86v382q0 33 -12.5 45t-33.5 12q-22 0 -34 -12t-15 -40h-56q-4 31 -17 41.5t-30 10.5q-34 0 -51 -37t-17 -134q0 -62 9.5 -105t35.5 -65t75 -22q30 0 51 6l11 -79q-16 -7 -35.5 -9.5t-42.5 -2.5z" />
    <glyph glyph-name="uni0E13" unicode="&#xe13;" horiz-adv-x="917" 
d="M198 -9q-50 0 -85 24t-35 84v79q0 57 27 83.5t70 37.5l1 4l-113 38v29q0 44 27 80t77.5 57t119.5 21q61 0 111.5 -19t81 -59t30.5 -105v-165q0 -52 25 -75t67 -23q56 0 89.5 39t33.5 103v293h107v-517h-86l-8 82h-6q-17 -42 -59.5 -66.5t-98.5 -24.5q-79 0 -124.5 39.5
t-45.5 131.5v174q0 40 -16.5 63t-43.5 32.5t-58 9.5q-49 0 -80.5 -19.5t-33.5 -56.5l106 -46l-8 -51q-38 -1 -62 -20t-24 -65v-73q0 -39 42 -39q20 0 36 6l13 -71q-19 -8 -38 -11.5t-39 -3.5z" />
    <glyph glyph-name="uni0E14" unicode="&#xe14;" horiz-adv-x="621" 
d="M268 -9q-81 0 -127.5 34.5t-65.5 94.5t-19 134q0 108 32 167.5t89 83t132 23.5q125 0 180 -50.5t55 -135.5v-342h-107v332q0 52 -28.5 80t-97.5 28q-43 0 -76 -15t-52 -55t-19 -116q0 -51 11 -90.5t37.5 -62.5t73.5 -23q28 0 49 7l10 -82q-16 -7 -37 -9.5t-40 -2.5z" />
    <glyph glyph-name="uni0E15" unicode="&#xe15;" horiz-adv-x="641" 
d="M276 -9q-86 0 -132.5 35.5t-65 98t-18.5 143.5q0 137 42 198t122 61q35 0 60 -12.5t37 -41.5h4q11 30 38.5 42t63.5 12q66 0 101.5 -33.5t35.5 -100.5v-393h-107v382q0 33 -15 45t-39 12q-26 0 -38 -12t-15 -40h-57q-4 31 -19.5 41.5t-34.5 10.5q-36 0 -54 -40t-18 -132
q0 -61 10 -103.5t36.5 -65t77.5 -22.5q17 0 29 1.5t23 4.5l11 -79q-16 -7 -36 -9.5t-42 -2.5z" />
    <glyph glyph-name="uni0E16" unicode="&#xe16;" horiz-adv-x="609" 
d="M198 -9q-50 0 -85 24t-35 84v77q0 58 27 85t70 38l1 4l-113 38v29q0 42 27.5 78t79.5 58t126 22q66 0 119 -20t84.5 -61t31.5 -106v-341h-107v332q0 57 -37 82.5t-92 25.5q-58 0 -90 -21.5t-33 -54.5l106 -46l-8 -50q-38 -2 -62 -17.5t-24 -60.5v-80q0 -39 42 -39
q20 0 36 6l13 -71q-19 -8 -38 -11.5t-39 -3.5z" />
    <glyph glyph-name="uni0E17" unicode="&#xe17;" horiz-adv-x="619" 
d="M82 0v517h76l17 -82h5q17 41 61.5 66.5t109.5 25.5q91 0 141 -45.5t50 -141.5v-340h-107v326q0 109 -110 109q-65 0 -100.5 -43t-35.5 -113v-279h-107z" />
    <glyph glyph-name="uni0E18" unicode="&#xe18;" horiz-adv-x="548" 
d="M277 -11q-63 0 -113 10.5t-87 24.5v211h96v-150q14 -6 42.5 -10.5t59.5 -4.5q33 0 61 7t45.5 25t17.5 52t-18.5 51.5t-55 28t-89.5 24.5q-60 16 -99 32t-58.5 40t-19.5 65q0 133 218 133q68 0 116 -10t72 -21v-88q-27 12 -81 24t-116 12q-46 0 -74 -9.5t-28 -33.5
q0 -27 38 -39t103 -30q55 -15 99 -34t70.5 -52t26.5 -91q0 -50 -22 -87.5t-71.5 -58.5t-132.5 -21z" />
    <glyph glyph-name="uni0E19" unicode="&#xe19;" horiz-adv-x="623" 
d="M266 -9q-89 0 -138.5 46t-49.5 141v339h107v-326q0 -109 109 -109q65 0 100.5 40.5t35.5 115.5v279h107v-517h-85l-8 78h-6q-18 -38 -61 -62.5t-111 -24.5z" />
    <glyph glyph-name="uni0E1A" unicode="&#xe1a;" horiz-adv-x="613" 
d="M306 -11q-122 0 -175 53.5t-53 153.5v321h107v-325q0 -57 29.5 -86t91.5 -29q63 0 92.5 29t29.5 86v325h107v-321q0 -100 -53.5 -153.5t-175.5 -53.5z" />
    <glyph glyph-name="uni0E1B" unicode="&#xe1b;" horiz-adv-x="614" 
d="M306 -11q-122 0 -175 53.5t-53 153.5v321h107v-325q0 -57 29.5 -86t91.5 -29q63 0 92.5 29t29.5 86v511h107v-507q0 -100 -53.5 -153.5t-175.5 -53.5z" />
    <glyph glyph-name="uni0E1C" unicode="&#xe1c;" horiz-adv-x="658" 
d="M83 0v416q0 44 17 68t45.5 33.5t61.5 9.5q17 0 35 -4t32 -10l-14 -75q-9 3 -18.5 3.5t-15.5 0.5q-22 0 -31.5 -10t-9.5 -29v-124q0 -27 -0.5 -59t-4.5 -78h4q20 43 37 70.5t30 49.5l49 77h56l48 -77q23 -36 37.5 -62t29.5 -58h5q-4 46 -5 78t-1 59v238h103v-517h-98
l-145 231h-4l-145 -231h-98z" />
    <glyph glyph-name="uni0E1D" unicode="&#xe1d;" horiz-adv-x="661" 
d="M83 0v417q0 43 17 67t45.5 33.5t61.5 9.5q17 0 35 -3.5t32 -9.5l-14 -76q-9 3 -18.5 4.5t-15.5 1.5q-22 0 -31.5 -11t-9.5 -30v-123q0 -27 -0.5 -59t-4.5 -78h4q20 42 37 69.5t30 50.5l49 76h56l48 -76q23 -37 37.5 -63t29.5 -57h5q-4 46 -5 78t-1 59v424h103v-704h-98
l-145 231h-4l-145 -231h-98z" />
    <glyph glyph-name="uni0E1E" unicode="&#xe1e;" horiz-adv-x="704" 
d="M136 0l-98 517h107l36 -208q4 -25 8.5 -66.5t11.5 -98.5h3q13 57 25 98.5t20 69.5l63 205h79l64 -205q8 -28 19.5 -69.5t25.5 -98.5h3q6 57 10.5 98.5t9.5 66.5l36 208h107l-97 -517h-105l-83 253q-9 28 -15 55.5t-11 65.5h-4q-7 -38 -14 -65t-16 -56l-82 -253h-103z" />
    <glyph glyph-name="uni0E1F" unicode="&#xe1f;" horiz-adv-x="693" 
d="M132 0l-94 517h107l32 -208q1 -9 4.5 -35.5t8 -61t7.5 -68.5h5q8 41 19 83t25 85l64 205h78l63 -205q13 -43 24 -85t21 -83h3q6 55 10.5 97.5t7.5 67.5l54 394h104l-110 -703h-105l-82 253q-8 26 -14 54.5t-13 66.5h-4q-7 -38 -13 -65t-15 -56l-83 -253h-104z" />
    <glyph glyph-name="uni0E20" unicode="&#xe20;" horiz-adv-x="613" 
d="M96 -9q-43 0 -76 16l11 66q7 -1 15 -2.5t16 -1.5q31 0 31 35v80q0 53 22 79t64 36l1 4l-113 38v29q0 42 27 78t79.5 58t126.5 22q66 0 119 -20t84.5 -61t31.5 -106v-341h-107v332q0 57 -37 82.5t-92 25.5q-58 0 -90 -21.5t-32 -54.5l106 -45l-9 -51q-35 -1 -55.5 -21.5
t-20.5 -66.5v-86q0 -59 -29 -81t-73 -22z" />
    <glyph glyph-name="uni0E21" unicode="&#xe21;" horiz-adv-x="623" 
d="M359 -9q-66 0 -111.5 24.5t-62.5 66.5h-6l-8 -82h-85v517h107v-279q0 -75 36 -115.5t102 -40.5q108 0 108 109v326h107v-342q0 -93 -49 -138.5t-138 -45.5z" />
    <glyph glyph-name="uni0E22" unicode="&#xe22;" horiz-adv-x="602" 
d="M295 -10q-125 0 -177 44t-52 117q0 43 13.5 68.5t34.5 38.5t43 17v4q-21 6 -42.5 19.5t-36 36.5t-14.5 59q0 34 16.5 63.5t53 48.5t97.5 19q26 0 53 -4t42 -11l-18 -78q-10 3 -27 6t-34 3q-38 0 -56.5 -16.5t-18.5 -42.5q0 -30 16 -45t41.5 -20.5t52.5 -5.5h20v-72h-20
q-55 0 -81 -18t-26 -59q0 -23 10.5 -43t36.5 -32.5t74 -12.5q70 0 96 27t26 71v345h107v-340q0 -97 -55.5 -142t-174.5 -45z" />
    <glyph glyph-name="uni0E23" unicode="&#xe23;" horiz-adv-x="495" 
d="M241 -11q-59 0 -112 11.5t-91 29.5l31 86q31 -14 76 -27t96 -13q49 0 79.5 15.5t30.5 46.5q0 28 -29 47t-88 37q-60 18 -102 39t-63.5 50.5t-21.5 74.5q0 66 54 104t163 38q50 0 93 -8.5t67 -21.5v-88q-26 11 -70 21.5t-90 10.5q-59 0 -84.5 -15t-25.5 -38
q0 -28 30 -44.5t103 -40.5q49 -16 87.5 -35t61 -48.5t22.5 -75.5q0 -41 -20.5 -76.5t-68 -57.5t-128.5 -22z" />
    <glyph glyph-name="uni0E24" unicode="&#xe24;" horiz-adv-x="609" 
d="M198 -9q-50 0 -85 24t-35 84v77q0 58 27 85t70 38l1 4l-113 38v29q0 42 27.5 78t79.5 58t126 22q66 0 119 -20t84.5 -61t31.5 -106v-535h-107v526q0 57 -37 82.5t-92 25.5q-58 0 -90 -21.5t-33 -54.5l106 -46l-8 -50q-38 -2 -62 -17.5t-24 -60.5v-80q0 -39 42 -39
q20 0 36 6l13 -71q-19 -8 -38 -11.5t-39 -3.5z" />
    <glyph glyph-name="uni0E25" unicode="&#xe25;" horiz-adv-x="579" 
d="M226 -9q-87 0 -133.5 38t-46.5 110q0 77 59 120.5t193 51.5l98 7v23q0 55 -28 78t-93 23q-51 0 -98 -13t-86 -35v94q29 14 79.5 27t115.5 13q104 0 160 -43t56 -143v-342h-106v234l-85 -6q-89 -7 -123.5 -27.5t-34.5 -58.5t26 -55t71 -17q15 0 29 2t26 5l13 -73
q-19 -7 -42.5 -10t-49.5 -3z" />
    <glyph glyph-name="uni0E26" unicode="&#xe26;" horiz-adv-x="613" 
d="M96 -9q-43 0 -76 16l11 66q7 -1 15 -2.5t16 -1.5q31 0 31 35v80q0 53 22 79t64 36l1 4l-113 38v29q0 42 27 78t79.5 58t126.5 22q66 0 119 -20t84.5 -61t31.5 -106v-535h-107v526q0 57 -37 82.5t-92 25.5q-58 0 -90 -21.5t-32 -54.5l106 -45l-9 -51q-35 -1 -55.5 -21.5
t-20.5 -66.5v-86q0 -59 -29 -81t-73 -22z" />
    <glyph glyph-name="uni0E27" unicode="&#xe27;" horiz-adv-x="498" 
d="M198 -11q-42 0 -81 9t-80 30l32 79q22 -12 51 -21t64 -9q68 0 107 46.5t39 137.5q0 87 -40 133t-122 46q-32 0 -65.5 -7t-58.5 -21v89q29 14 65.5 20.5t73.5 6.5q136 0 196.5 -72.5t60.5 -194.5q0 -129 -61.5 -200.5t-180.5 -71.5z" />
    <glyph glyph-name="uni0E28" unicode="&#xe28;" horiz-adv-x="637" 
d="M78 0v321q0 100 56 153.5t178 53.5q42 0 76 -7.5t59 -24.5q18 8 30 22t12 33h100q0 -36 -21.5 -64t-58.5 -44q20 -21 28.5 -52.5t8.5 -70.5v-320h-107v321q0 119 -127 119q-128 0 -128 -119v-95l3 -1q22 37 52 48.5t85 11.5h30v-83h-30q-58 0 -88 -16t-41 -42t-11 -58
v-86h-106z" />
    <glyph glyph-name="uni0E29" unicode="&#xe29;" horiz-adv-x="650" 
d="M314 -11q-128 0 -182 54.5t-54 155.5v318h106v-321q0 -60 31 -90t100 -30q67 0 97.5 29t30.5 91v14h-67q-44 0 -69 13t-35.5 33.5t-10.5 42.5q0 15 4.5 32t12.5 27l77 -14q-6 -10 -6 -27q0 -13 7.5 -22.5t24.5 -9.5h62v232h107v-232h62v-75h-62v-11q0 -101 -54 -155.5
t-182 -54.5z" />
    <glyph glyph-name="uni0E2A" unicode="&#xe2a;" horiz-adv-x="581" 
d="M226 -9q-87 0 -133.5 38t-46.5 110q0 77 59 120.5t193 51.5l98 7v23q0 55 -28 78t-93 23q-51 0 -98 -13t-86 -35v94q29 14 79.5 27t114.5 13q40 0 72 -6.5t53 -22.5q15 9 25 22t10 30h100q0 -35 -19.5 -62t-53.5 -43q16 -18 23 -44.5t7 -59.5v-342h-106v234l-85 -6
q-89 -7 -123.5 -27.5t-34.5 -58.5t26 -55t71 -17q15 0 29 2t26 5l13 -73q-19 -7 -42.5 -10t-49.5 -3z" />
    <glyph glyph-name="uni0E2B" unicode="&#xe2b;" horiz-adv-x="597" 
d="M86 0v517h106v-212h4l211 212h122v-4l-153 -152q76 -8 116 -55t40 -118v-188h-107v177q0 50 -30 77.5t-96 30.5l-107 -106v-179h-106z" />
    <glyph glyph-name="uni0E2C" unicode="&#xe2c;" horiz-adv-x="680" 
d="M122 0l-84 517h107l30 -231q4 -26 8.5 -67t5.5 -94h4q15 51 26 83t24 65l59 150h72l61 -150q13 -31 24 -64t25 -84h5q0 38 4 80.5t11 79.5l20 100q11 61 -14.5 87.5t-89.5 26.5h-51v73h81q70 0 95 26.5t25 70.5v5h106v-5q0 -54 -25 -92.5t-84 -48.5v-3q29 -12 43.5 -33.5
t18 -47t-0.5 -48.5l-71 -396h-108l-68 185q-14 37 -23 67.5t-18 74.5h-4q-9 -47 -18 -78t-21 -65l-71 -184h-104z" />
    <glyph glyph-name="uni0E2D" unicode="&#xe2d;" horiz-adv-x="580" 
d="M279 -11q-113 0 -168 54.5t-55 167.5q0 19 1.5 43t4.5 45h219v-75h-118v-17q0 -77 28.5 -105.5t85.5 -28.5q41 0 71.5 15t47 53.5t16.5 110.5q0 96 -35.5 142t-124.5 46q-47 0 -92.5 -12t-82.5 -32v95q31 15 82 26t109 11q90 0 146 -33.5t82 -95t26 -144.5
q0 -127 -55.5 -196.5t-187.5 -69.5z" />
    <glyph glyph-name="uni0E2E" unicode="&#xe2e;" horiz-adv-x="571" 
d="M279 -11q-112 0 -167.5 54.5t-55.5 167.5q0 19 1.5 43t4.5 45h219v-75h-118v-17q0 -77 28.5 -105.5t85.5 -28.5q41 0 71.5 15t47 53.5t16.5 109.5q0 98 -36.5 143.5t-123.5 45.5q-48 0 -93 -11.5t-82 -32.5v95q31 15 82 26t108 11q40 0 73.5 -8t59.5 -26q19 9 32 23
t13 34h100q0 -37 -22.5 -65.5t-59.5 -43.5q31 -31 45 -79.5t14 -110.5q0 -82 -24 -141t-77.5 -90.5t-141.5 -31.5z" />
    <glyph glyph-name="uni0E2F" unicode="&#xe2f;" horiz-adv-x="526" 
d="M328 0v245q-42 -40 -126 -40q-80 0 -132.5 42t-52.5 127q0 70 41.5 111.5t114.5 41.5q14 0 32.5 -2.5t38.5 -9.5l-13 -73q-12 3 -21 4t-16 1q-30 0 -51.5 -18t-21.5 -56q0 -41 26 -62.5t74 -21.5q55 0 81 26t26 84v118h107v-517h-107z" />
    <glyph glyph-name="uni0E30" unicode="&#xe30;" horiz-adv-x="344" 
d="M156 338q-64 0 -90.5 28t-26.5 62q0 33 17 62l86 -12q-2 -6 -4.5 -14.5t-2.5 -17.5q0 -14 7.5 -22t26.5 -8h134v-78h-147zM156 58q-64 0 -90.5 28t-26.5 62q0 33 17 62l86 -12q-2 -6 -4.5 -14.5t-2.5 -17.5q0 -14 7.5 -22t26.5 -8h134v-78h-147z" />
    <glyph glyph-name="uni0E31" unicode="&#xe31;" 
d="M-219 605q-65 0 -91 26.5t-26 59.5q0 16 4.5 33.5t12.5 31.5l85 -14q-6 -12 -6 -30q0 -13 8 -22t28 -9h242v-76h-257z" />
    <glyph glyph-name="uni0E32" unicode="&#xe32;" horiz-adv-x="415" 
d="M230 0v357q0 43 -22 63.5t-72 20.5q-35 0 -65 -9t-58 -23v90q21 10 58.5 19.5t89.5 9.5q79 0 127.5 -34t48.5 -120v-374h-107z" />
    <glyph glyph-name="uni0E33" unicode="&#xe33;" horiz-adv-x="415" 
d="M230 0v357q0 43 -22 63.5t-72 20.5q-35 0 -65 -9t-58 -23v90q21 10 58.5 19.5t89.5 9.5q79 0 127.5 -34t48.5 -120v-374h-107zM-166 581q-52 0 -82.5 24t-30.5 69q0 44 30.5 68.5t82.5 24.5t83.5 -24.5t31.5 -68.5q0 -45 -31.5 -69t-83.5 -24zM-166 632q48 0 48 42
t-48 42q-47 0 -47 -42t47 -42z" />
    <glyph glyph-name="uni0E34" unicode="&#xe34;" 
d="M-521 605v46l81 35h354v-81h-435z" />
    <glyph glyph-name="uni0E35" unicode="&#xe35;" 
d="M-521 605v46l81 35h257v77h97v-158h-435z" />
    <glyph glyph-name="uni0E36" unicode="&#xe36;" 
d="M-521 605v46l81 35h178v6q0 37 25 60.5t69 23.5q46 0 72 -24.5t26 -62.5q0 -36 -24 -60t-70 -24h-357zM-166 651q20 0 31 11.5t11 27.5q0 17 -11.5 28t-31.5 11t-31 -10.5t-11 -27.5t10.5 -28.5t32.5 -11.5z" />
    <glyph glyph-name="uni0E37" unicode="&#xe37;" 
d="M-520 605v46l81 35h126v77h80v-77h68v77h79v-158h-434z" />
    <glyph glyph-name="uni0E38" unicode="&#xe38;" 
d="M-180 -261v101q0 25 -22 25q-5 0 -10.5 -1.5t-10.5 -2.5l-7 64q15 5 34 8t35 3q39 0 56.5 -17.5t17.5 -47.5v-132h-93z" />
    <glyph glyph-name="uni0E39" unicode="&#xe39;" 
d="M-223 -265q-69 0 -103.5 25t-34.5 70v17q0 17 -8.5 20.5t-23.5 -0.5l-7 62q14 5 30.5 6t25.5 1q38 0 54.5 -16t16.5 -45v-31q0 -19 11 -30.5t37 -11.5q27 0 37.5 11.5t10.5 30.5v89h91v-97q0 -101 -137 -101z" />
    <glyph glyph-name="uni0E3A" unicode="&#xe3a;" 
d="M-142 -200q-71 0 -71 69t71 69q34 0 52.5 -18t18.5 -51t-18.5 -51t-52.5 -18z" />
    <glyph glyph-name="uni0E3F" unicode="&#xe3f;" horiz-adv-x="583" 
d="M75 36v641h174v83h64v-84q101 -6 150.5 -43.5t49.5 -114.5q0 -56 -32.5 -94t-90.5 -48v-4q61 -10 102 -45t41 -108q0 -88 -60 -135.5t-160 -47.5v-94h-64v94h-174zM168 413h81v178h-81v-178zM413 505q0 74 -100 84v-175q56 5 78 28.5t22 62.5zM168 122h81v205h-81v-205z
M430 228q0 39 -26 66.5t-91 31.5v-204q65 4 91 33.5t26 72.5z" />
    <glyph glyph-name="uni0E40" unicode="&#xe40;" horiz-adv-x="309" 
d="M211 -9q-49 0 -83.5 24t-34.5 84v418h107v-405q0 -20 9 -29.5t31 -9.5q8 0 18 2t19 5l12 -74q-19 -8 -39 -11.5t-39 -3.5z" />
    <glyph glyph-name="uni0E41" unicode="&#xe41;" horiz-adv-x="590" 
d="M211 -9q-49 0 -83.5 24t-34.5 84v418h107v-405q0 -20 9 -29.5t31 -9.5q8 0 18 2t19 5l12 -74q-19 -8 -39 -11.5t-39 -3.5zM492 -9q-49 0 -83.5 24t-34.5 84v418h107v-405q0 -20 9 -29.5t31 -9.5q8 0 18 2t19 5l12 -74q-19 -8 -39 -11.5t-39 -3.5z" />
    <glyph glyph-name="uni0E42" unicode="&#xe42;" horiz-adv-x="320" 
d="M226 -9q-50 0 -84 24t-34 84v496q0 59 -26.5 84t-70.5 25v45l82 37h263v-82h-192l-1 -3q23 -15 37.5 -45t14.5 -78v-466q0 -20 9 -29.5t31 -9.5q8 0 18 2t19 5l12 -74q-20 -8 -39 -11.5t-39 -3.5z" />
    <glyph glyph-name="uni0E43" unicode="&#xe43;" horiz-adv-x="303" 
d="M204 -9q-50 0 -84 24t-34 84v361q0 25 4 41.5t15 32t32 38.5q23 26 35.5 43.5t12.5 39.5q0 52 -70 52q-30 0 -54.5 -7.5t-40.5 -17.5v85q14 7 45 15.5t74 8.5q70 0 112 -29t42 -89q0 -37 -15.5 -65t-34.5 -51q-17 -21 -28 -35t-16.5 -28t-5.5 -37v-345q0 -39 39 -39
q10 0 19.5 2t17.5 5l13 -74q-19 -8 -38.5 -11.5t-39.5 -3.5z" />
    <glyph glyph-name="uni0E44" unicode="&#xe44;" horiz-adv-x="317" 
d="M227 -9q-49 0 -83.5 24t-34.5 84v479q0 56 15.5 82t35.5 41l-1 3h-168l24 82h293v-82q-38 0 -65 -23.5t-27 -85.5v-483q0 -20 9 -29.5t31 -9.5q8 0 18 2t19 5l12 -74q-19 -8 -39 -11.5t-39 -3.5z" />
    <glyph glyph-name="uni0E45" unicode="&#xe45;" horiz-adv-x="415" 
d="M230 -201v558q0 43 -22 63.5t-72 20.5q-35 0 -65 -9t-58 -23v90q21 10 58.5 19.5t89.5 9.5q79 0 127.5 -34t48.5 -120v-575h-107z" />
    <glyph glyph-name="uni0E46" unicode="&#xe46;" horiz-adv-x="607" 
d="M424 -194v590q0 50 -43 50t-43 -50v-37h-74v37q0 50 -43 50q-24 0 -35.5 -19t-11.5 -65q0 -52 14 -71t42 -19q9 0 18.5 2t19.5 5l19 -73q-16 -8 -34.5 -13.5t-41.5 -5.5q-70 0 -104 44.5t-34 128.5q0 91 36 129.5t96 38.5q35 0 61.5 -12t38.5 -37h3q12 25 38 37t63 12
q33 0 60.5 -11t44 -38t16.5 -76v-597h-106z" />
    <glyph glyph-name="uni0E47" unicode="&#xe47;" 
d="M-195 591q-58 0 -81 46l-50 -43q-58 0 -94 29t-36 85q0 58 35.5 86t81.5 28h239v-64h-222q-22 0 -37.5 -13t-15.5 -41q0 -20 10.5 -33t33.5 -13l53 48h19q4 -22 15.5 -36.5t32.5 -14.5q18 0 27 11t9 28v13h76v-15q0 -51 -26.5 -76t-69.5 -25z" />
    <glyph glyph-name="uni0E48" unicode="&#xe48;" 
d="M-191 605v215h102v-215h-102z" />
    <glyph glyph-name="uni0E49" unicode="&#xe49;" 
d="M-372 605v45q18 4 38 11.5t33.5 20t13.5 30.5q0 13 -7.5 21t-22.5 8q-10 0 -19.5 -3.5t-17.5 -6.5l-20 58q20 17 46 22t43 5q41 0 64.5 -22t23.5 -58q0 -29 -19 -53h159v-78h-315z" />
    <glyph glyph-name="uni0E4A" unicode="&#xe4a;" 
d="M-324 600q-51 0 -78.5 28t-27.5 77t27.5 77t76.5 32l57 -37l56 37q59 -4 83 -30t24 -61q0 -27 -14 -46h84v-72h-187v48q13 6 24 17t11 32q0 22 -11.5 32t-20.5 12l-46 -27h-5l-45 27q-9 -2 -19 -11t-10 -32q0 -22 11 -33.5t28 -11.5q4 0 10 0.5t12 3.5l11 -52
q-17 -10 -51 -10z" />
    <glyph glyph-name="uni0E4B" unicode="&#xe4b;" 
d="M-244 605v71h-75v71h75v73h89v-73h73v-71h-73v-71h-89z" />
    <glyph glyph-name="uni0E4C" unicode="&#xe4c;" 
d="M-257 578q-7 11 -11.5 30t-4.5 38q0 34 22.5 60.5t86.5 26.5h139v-78h-108q-43 0 -43 -32q0 -7 2.5 -15t6.5 -16z" />
    <glyph glyph-name="uni0E4D" unicode="&#xe4d;" 
d="M-166 581q-52 0 -82.5 24t-30.5 69q0 44 30.5 68.5t82.5 24.5t83.5 -24.5t31.5 -68.5q0 -45 -31.5 -69t-83.5 -24zM-166 632q48 0 48 42t-48 42q-47 0 -47 -42t47 -42z" />
    <glyph glyph-name="uni0E4E" unicode="&#xe4e;" 
d="M-261 578q-6 9 -10.5 24t-4.5 29q0 35 23.5 53t55.5 18q17 0 29 -5q-2 9 -2 17q0 32 25 48t57 16q12 0 27.5 -2.5t28.5 -8.5v-56q-9 3 -18.5 4t-16.5 1q-43 0 -43 -34q0 -15 7 -26l-31 -22q-9 8 -19 9.5t-15 1.5q-18 0 -26 -9t-8 -21q0 -7 2 -13t5 -12z" />
    <glyph glyph-name="uni0E4F" unicode="&#xe4f;" horiz-adv-x="609" 
d="M305 -11q-125 0 -185 64t-60 175q0 116 60 177t185 61t185 -61t60 -177q0 -111 -60 -175t-185 -64zM305 64q76 0 114 42t38 122q0 85 -38 124t-114 39q-77 0 -115 -39t-38 -124q0 -80 38 -122t115 -42zM305 122q-49 0 -72.5 29t-23.5 77q0 51 23.5 78t72.5 27
q95 0 95 -105q0 -48 -23 -77t-72 -29z" />
    <glyph glyph-name="uni0E50" unicode="&#xe50;" horiz-adv-x="569" 
d="M284 -11q-111 0 -170 64t-59 175q0 116 59 177t170 61q112 0 171 -61t59 -177q0 -111 -59 -175t-171 -64zM284 74q60 0 92 39t32 115q0 80 -32 116.5t-92 36.5q-61 0 -92 -36.5t-31 -116.5q0 -154 123 -154z" />
    <glyph glyph-name="uni0E51" unicode="&#xe51;" horiz-adv-x="541" 
d="M270 -11q-23 0 -45 3.5t-36 8.5v78q9 -3 25.5 -5.5t34.5 -2.5q69 0 100.5 41.5t31.5 122.5t-30 114t-91 33q-53 0 -81.5 -23t-28.5 -70q0 -37 17 -57.5t45 -20.5q13 0 26 5l16 -75q-11 -8 -28.5 -12.5t-37.5 -4.5q-67 0 -102.5 44.5t-35.5 117.5q0 88 53.5 133.5
t156.5 45.5q121 0 174 -61t53 -168q0 -70 -22 -126t-70 -88.5t-125 -32.5z" />
    <glyph glyph-name="uni0E52" unicode="&#xe52;" horiz-adv-x="622" 
d="M317 -11q-137 0 -198.5 60.5t-61.5 167.5v367h102v-360q0 -42 14.5 -76t49.5 -54t95 -20q61 0 92.5 20t43 54.5t11.5 77.5v112q0 26 -7.5 37.5t-20.5 11.5q-18 0 -24.5 -14t-7.5 -37h-49q-2 25 -8.5 38t-24.5 13q-29 0 -29 -60q0 -26 7 -43.5t32 -17.5q5 0 13 1.5t15 5.5
l18 -64q-26 -16 -57 -16q-62 0 -89.5 39.5t-27.5 99.5q0 62 25 96t74 34q26 0 47 -11.5t32 -37.5h3q11 26 31.5 37.5t47.5 11.5q25 0 48 -10.5t37.5 -35.5t14.5 -69v-129q0 -72 -24 -123t-78.5 -78.5t-145.5 -27.5z" />
    <glyph glyph-name="uni0E53" unicode="&#xe53;" horiz-adv-x="561" 
d="M209 -10q-56 0 -90 32t-49 88t-15 127q0 116 35.5 172t104.5 56q29 0 52 -11t36 -41h3q10 29 36 40.5t57 11.5q55 0 87.5 -31t32.5 -101v-333h-103v326q0 34 -13 44t-28 10q-18 0 -30 -11t-15 -44h-54q-4 32 -15.5 43.5t-25.5 11.5q-56 0 -56 -141q0 -83 18.5 -125.5
t59.5 -42.5q7 0 16 1.5t18 5.5l12 -76q-31 -12 -74 -12z" />
    <glyph glyph-name="uni0E54" unicode="&#xe54;" horiz-adv-x="538" 
d="M258 0q-102 0 -152.5 53.5t-50.5 168.5q0 64 18.5 118t61 87t115.5 33h39q56 0 72.5 18t16.5 66v40h98v-54q0 -75 -36 -113.5t-118 -38.5h-44q-66 0 -92.5 -42t-26.5 -115q0 -74 26 -106.5t83 -32.5h46q-23 29 -23 82q0 62 29.5 93.5t82.5 31.5q40 0 65 -14l-22 -64
q-5 2 -11.5 2.5t-11.5 0.5q-20 0 -30.5 -16t-10.5 -45q0 -73 65 -73h42v-80h-231z" />
    <glyph glyph-name="uni0E55" unicode="&#xe55;" horiz-adv-x="544" 
d="M261 0q-107 0 -156.5 55t-49.5 171q0 95 33.5 150t97.5 72q-13 10 -21 26t-8 37q0 37 25.5 60t70.5 23q47 0 71.5 -24t24.5 -59q0 -17 -5 -30t-13 -23q41 5 52 25t11 68v33h89v-54q0 -75 -36.5 -113.5t-119.5 -38.5h-44q-70 0 -97 -42t-27 -115q0 -74 26 -106.5t84 -32.5
h46q-21 32 -21 82q0 61 29 92.5t82 31.5q38 0 66 -13l-23 -65q-5 2 -11.5 3t-11.5 1q-19 0 -30 -17t-11 -45q0 -72 66 -72h41v-80h-230zM254 468q20 0 30.5 11t10.5 28q0 15 -10.5 26.5t-30.5 11.5t-30 -11.5t-10 -26.5q0 -17 10 -28t30 -11z" />
    <glyph glyph-name="uni0E56" unicode="&#xe56;" horiz-adv-x="522" 
d="M250 -11q-58 0 -104 18.5t-77 62.5l67 59q21 -25 45.5 -41t64.5 -16q63 0 89.5 39.5t26.5 117.5q0 83 -27.5 118t-80.5 35q-40 0 -66 -18t-28 -55h-73l-69 275h94l42 -164q20 24 50 34.5t68 10.5q101 0 148 -65t47 -173q0 -115 -53.5 -176.5t-163.5 -61.5z" />
    <glyph glyph-name="uni0E57" unicode="&#xe57;" horiz-adv-x="729" 
d="M213 -10q-59 0 -93.5 31.5t-49.5 88t-15 132.5q0 124 35.5 173.5t99.5 49.5q29 0 50 -11t33 -41h4q12 31 37.5 41.5t54.5 10.5q49 0 79 -25.5t30 -85.5v-272q40 0 62.5 23t22.5 85v394h101v-392q0 -56 -17.5 -93.5t-47 -59t-65.5 -30.5t-72 -9h-83v331q0 28 -10.5 38.5
t-26.5 10.5q-21 0 -30 -12.5t-12 -42.5h-52q-3 31 -12 43t-26 12q-30 0 -40.5 -34t-10.5 -101q0 -90 17.5 -132t59.5 -42q8 0 17 1.5t18 5.5l12 -76q-13 -5 -31.5 -8.5t-38.5 -3.5z" />
    <glyph glyph-name="uni0E58" unicode="&#xe58;" horiz-adv-x="566" 
d="M383 -11q-43 0 -71 17.5t-38 54.5l-54 -68q-76 0 -120.5 55.5t-44.5 170.5q0 66 18 120.5t61.5 87.5t120.5 33h45q54 0 70 17.5t16 65.5v41h100v-54q0 -75 -35.5 -113.5t-118.5 -38.5h-62q-62 0 -88 -41.5t-26 -112.5t19 -99.5t42 -33.5l53 60h45q0 -41 13.5 -58
t39.5 -17t41 17t15 52q0 34 -12.5 50.5t-25.5 26.5l61 63q38 -22 55 -57.5t17 -84.5q0 -72 -37 -113t-99 -41z" />
    <glyph glyph-name="uni0E59" unicode="&#xe59;" horiz-adv-x="517" 
d="M212 -10q-58 0 -92 31t-49.5 87t-15.5 130q0 123 38.5 175t113.5 52q32 0 52.5 -9.5t35.5 -30.5q9 18 26.5 29t42.5 11h7q20 0 29 11t9 38v70h95v-79q0 -53 -22 -82t-70 -29h-15q-29 0 -41 -17.5t2 -52.5l131 -324h-102l-132 342q-7 20 -15 30.5t-25 10.5q-15 0 -28 -12
t-20.5 -43t-7.5 -89q0 -82 18 -125t60 -43q7 0 16 1.5t18 5.5l12 -76q-13 -6 -33 -9t-38 -3z" />
    <glyph glyph-name="uni0E5A" unicode="&#xe5a;" horiz-adv-x="785" 
d="M328 -1v250q-21 -23 -53.5 -33.5t-70.5 -10.5q-82 0 -134.5 42t-52.5 127q0 70 41.5 111.5t115.5 41.5q14 0 32 -2.5t38 -9.5l-13 -73q-12 3 -21 4t-14 1q-32 0 -53.5 -18t-21.5 -56q0 -84 102 -84q105 0 105 104v124h107v-216q18 -7 43 -7q51 0 79.5 28.5t28.5 81.5v113
h107v-518h-107v257q-19 -22 -47 -32.5t-59 -10.5q-24 0 -45 6v-220h-107z" />
    <glyph glyph-name="uni0E5B" unicode="&#xe5b;" horiz-adv-x="882" 
d="M240 70q-92 0 -141.5 50t-49.5 138q0 45 15.5 81.5t48.5 58.5t88 22q65 0 100.5 -30.5t35.5 -85.5q0 -26 -7.5 -48t-17.5 -38l-70 31q4 7 8 18.5t4 24.5q0 26 -15 37.5t-37 11.5q-31 0 -43 -23.5t-12 -54.5q0 -61 28.5 -86.5t74.5 -25.5q50 0 81 24.5t44.5 66.5t12.5 96
h68l49 -119l30 110h57l38 -101l28 90h50l6 -17q9 -25 16 -44t20.5 -30.5t41.5 -11.5q11 0 19 2t14 4v-70q-8 -5 -19 -8t-26 -3q-70 0 -103 77l-21 -84h-49l-40 109l-30 -119h-58l-39 104q-8 -35 -29.5 -71t-62 -61t-108.5 -25z" />
    <glyph glyph-name="uni200B" unicode="&#x200b;" 
 />
    <glyph glyph-name="uni200C" unicode="&#x200c;" 
d="M-21 -133v761h42v-761h-42z" />
    <glyph glyph-name="uni200D" unicode="&#x200d;" 
d="M-21 -133v668l-62 -62l-26 27l82 82l-82 81l26 27l83 -83l83 83l26 -27l-82 -81l82 -82l-26 -27l-62 62v-668h-42z" />
    <glyph glyph-name="uni2010" unicode="&#x2010;" horiz-adv-x="322" 
d="M37 223v90h248v-90h-248z" />
    <glyph glyph-name="uni25CC" unicode="&#x25cc;" horiz-adv-x="594" 
d="M297 488q-11 0 -18.5 8t-7.5 18t7.5 18t18.5 8t18.5 -8t7.5 -18t-7.5 -18t-18.5 -8zM213 470q-11 0 -18.5 8t-7.5 18t7.5 18t18.5 8t18.5 -8t7.5 -18t-7.5 -18t-18.5 -8zM381 470q-11 0 -18.5 8t-7.5 18t7.5 18t18.5 8t18.5 -8t7.5 -18t-7.5 -18t-18.5 -8zM455 423
q-11 0 -18.5 7.5t-7.5 18.5t7.5 18.5t18.5 7.5t18.5 -7.5t7.5 -18.5t-7.5 -18.5t-18.5 -7.5zM139 423q-11 0 -18.5 7.5t-7.5 18.5t7.5 18.5t18.5 7.5t18.5 -7.5t7.5 -18.5t-7.5 -18.5t-18.5 -7.5zM92 349q-10 0 -18 7.5t-8 18.5t8 18.5t18 7.5t18 -7.5t8 -18.5t-8 -18.5
t-18 -7.5zM502 349q-10 0 -18 7.5t-8 18.5t8 18.5t18 7.5t18 -7.5t8 -18.5t-8 -18.5t-18 -7.5zM74 265q-10 0 -18 7.5t-8 18.5t8 18.5t18 7.5t18 -7.5t8 -18.5t-8 -18.5t-18 -7.5zM520 265q-10 0 -18 7.5t-8 18.5t8 18.5t18 7.5t18 -7.5t8 -18.5t-8 -18.5t-18 -7.5zM92 181
q-10 0 -18 7.5t-8 18.5t8 18.5t18 7.5t18 -7.5t8 -18.5t-8 -18.5t-18 -7.5zM502 181q-10 0 -18 7.5t-8 18.5t8 18.5t18 7.5t18 -7.5t8 -18.5t-8 -18.5t-18 -7.5zM139 107q-11 0 -18.5 7.5t-7.5 18.5t7.5 18.5t18.5 7.5t18.5 -7.5t7.5 -18.5t-7.5 -18.5t-18.5 -7.5zM455 107
q-11 0 -18.5 7.5t-7.5 18.5t7.5 18.5t18.5 7.5t18.5 -7.5t7.5 -18.5t-7.5 -18.5t-18.5 -7.5zM213 60q-11 0 -18.5 8t-7.5 18t7.5 18t18.5 8t18.5 -8t7.5 -18t-7.5 -18t-18.5 -8zM381 60q-11 0 -18.5 8t-7.5 18t7.5 18t18.5 8t18.5 -8t7.5 -18t-7.5 -18t-18.5 -8zM297 42
q-11 0 -18.5 8t-7.5 18t7.5 18t18.5 8t18.5 -8t7.5 -18t-7.5 -18t-18.5 -8z" />
    <glyph glyph-name="saraUu-thai.small" horiz-adv-x="600" 
d="M94 0v714h411v-714h-411zM145 51h309v612h-309v-612z" />
    <glyph glyph-name="uni0E24.aalt" horiz-adv-x="609" 
d="M198 -9q-50 0 -85 24t-35 84v77q0 58 27 85t70 38l1 4l-113 38v29q0 42 27.5 78t79.5 58t126 22q66 0 119 -20t84.5 -61t31.5 -106v-465h-107v456q0 57 -37 82.5t-92 25.5q-58 0 -90 -21.5t-33 -54.5l106 -46l-8 -50q-38 -2 -62 -17.5t-24 -60.5v-80q0 -39 42 -39
q20 0 36 6l13 -71q-19 -8 -38 -11.5t-39 -3.5z" />
    <glyph glyph-name="uni0E26.aalt" horiz-adv-x="613" 
d="M96 -9q-43 0 -76 16l11 66q7 -1 15 -2.5t16 -1.5q31 0 31 35v80q0 53 22 79t64 36l1 4l-113 38v29q0 42 27 78t79.5 58t126.5 22q66 0 119 -20t84.5 -61t31.5 -106v-465h-107v456q0 57 -37 82.5t-92 25.5q-58 0 -90 -21.5t-32 -54.5l106 -45l-9 -51q-35 -1 -55.5 -21.5
t-20.5 -66.5v-86q0 -59 -29 -81t-73 -22z" />
    <glyph glyph-name="doChada-thai.short" horiz-adv-x="613" 
d="M114 -124v9q0 53 41 80.5t111 27.5q51 0 92 -13t70 -32v385q0 56 -37 82t-93 26q-57 0 -89 -22t-32 -55l106 -45l-9 -51q-35 0 -55.5 -20.5t-20.5 -66.5v-85q0 -59 -29.5 -81t-73.5 -22q-39 0 -75 17l11 66q15 -5 31 -5q31 0 31 36v77q0 53 22 79.5t64 36.5l1 3l-113 39
v28q0 42 27 78t79.5 58t126.5 22q66 0 119 -20t84.5 -61t31.5 -105v-466h-94q-22 23 -64 37t-81 14q-42 0 -59.5 -15t-17.5 -32v-4h-105z" />
    <glyph glyph-name="toPatak-thai.short" horiz-adv-x="613" 
d="M72 -124v8q0 52 35.5 75.5t82.5 23.5q44 0 73 -16.5t41 -36.5l62 49l62 -37v391q0 56 -37 82t-93 26q-57 0 -89 -22t-32 -55l106 -45l-9 -51q-35 0 -55.5 -20.5t-20.5 -66.5v-85q0 -59 -29.5 -81t-73.5 -22q-39 0 -75 17l11 66q15 -5 31 -5q31 0 31 36v77q0 53 22 79.5
t64 36.5l1 3l-113 39v28q0 42 27 78t79.5 58t126.5 22q66 0 119 -20t84.5 -61t31.5 -105v-466h-98l-69 39l-49 -39h-37q-10 19 -27.5 30.5t-42.5 11.5q-24 0 -35 -11.5t-11 -27.5v-3h-94z" />
    <glyph glyph-name="yoYing-thai.less" horiz-adv-x="897" 
d="M609 -11q-109 0 -160 48.5t-51 149.5v150q0 60 -34 82.5t-81 22.5q-49 0 -79 -19.5t-32 -57.5l106 -46l-8 -51q-38 -1 -62 -20t-24 -65v-72q0 -22 10 -31t32 -9q20 0 36 6l13 -71q-19 -8 -38 -11.5t-39 -3.5q-50 0 -85 24t-35 84v79q0 57 27 83.5t70 38.5l1 3l-113 39v28
q0 44 26.5 80t76 57t118.5 21q59 0 109 -18.5t80.5 -58t30.5 -104.5v-165q0 -57 27.5 -81t76.5 -24t76.5 24t27.5 81v336h107v-331q0 -101 -51 -149.5t-159 -48.5z" />
    <glyph glyph-name="thoThan-thai.less" horiz-adv-x="554" 
d="M135 0v225h-70v75h170v-216h11q62 0 94 41.5t32 134.5q0 98 -38 139.5t-125 41.5q-49 0 -92 -12.5t-81 -35.5v95q31 17 80.5 28.5t108.5 11.5q46 0 82.5 -8.5t61.5 -27.5q22 8 37 22.5t15 37.5h100q0 -40 -26 -70t-70 -44q56 -54 56 -180q0 -123 -56.5 -190.5
t-192.5 -67.5h-97z" />
    <glyph glyph-name="loChula-thai.short" horiz-adv-x="666" 
d="M109 0l-71 518h109l27 -223q6 -46 9 -87.5t5 -93.5h4q8 31 21.5 68t34.5 89l44 112h75l47 -111q12 -28 28.5 -72t32.5 -93h5q5 57 11 95.5t12 77.5l10 59q6 40 -6 61.5t-57 21.5h-56v72h89q38 0 48.5 15t13.5 43h105q1 -39 -20 -68.5t-73 -36.5v-4q38 -11 49 -40t5 -63
l-60 -340h-109l-69 169q-13 33 -23 64.5t-17 63.5h-4q-7 -32 -17 -63.5t-24 -63.5l-69 -170h-110z" />
    <glyph glyph-name="macronbelowcomb.alt" 
d="M-120 -76v-80h-584v80h584z" />
    <glyph glyph-name="uni0E31.aalt" 
d="M-397 602q-65 0 -91 26.5t-26 59.5q0 16 4 34t12 31l85 -13q-2 -5 -3 -14t-1 -17q0 -13 8 -22t27 -9h144v-76h-159z" />
    <glyph glyph-name="glyph99" 
d="M-183 824v170h98v-170h-98z" />
    <glyph glyph-name="glyph100" 
d="M-365 602v215h102v-215h-102z" />
    <glyph glyph-name="glyph102" 
d="M-261 824v37q19 5 41.5 16t22.5 33q0 24 -23 24q-17 0 -32 -10l-18 49q18 13 41.5 17t38.5 4q30 0 51.5 -14.5t21.5 -46.5q0 -8 -2 -18t-7 -19h124v-72h-259z" />
    <glyph glyph-name="glyph103" 
d="M-506 601v46q17 4 36 11.5t32.5 19.5t13.5 30q0 30 -29 30q-11 0 -21 -3.5t-17 -6.5l-20 58q21 16 46.5 21.5t43.5 5.5q41 0 64.5 -22t23.5 -60q0 -14 -4.5 -27.5t-15.5 -24.5h113v-78h-266z" />
    <glyph glyph-name="glyph105" 
d="M-217 820q-43 0 -64 25.5t-21 60.5q0 36 24 62t73 26l49 -34l45 34q37 0 66.5 -16.5t29.5 -51.5q0 -24 -12 -40h70v-62h-161v44q14 2 24 12t10 25q0 28 -29 33l-41 -27h-5l-43 27q-30 -2 -30 -33q0 -14 8 -23t24 -9q12 0 19 3l8 -46q-15 -10 -44 -10z" />
    <glyph glyph-name="glyph106" 
d="M-470 597q-50 0 -76.5 28t-26.5 77q0 50 26.5 77t73.5 32l47 -37l47 37q54 -5 78 -30t24 -61q0 -26 -11 -46h65v-72h-166v48q16 6 26.5 17t10.5 32q0 23 -11 34t-24 13l-36 -27h-5l-36 27q-13 -2 -23.5 -14t-10.5 -32q0 -17 10 -31t31 -14q4 0 11 0.5t14 3.5l11 -52
q-17 -10 -49 -10z" />
    <glyph glyph-name="glyph108" 
d="M-179 824v51h-60v68h60v51h88v-51h60v-68h-60v-51h-88z" />
    <glyph glyph-name="glyph110" 
d="M-225 796q-9 14 -13.5 32.5t-4.5 36.5q0 23 10 43t36.5 32.5t73.5 12.5h120v-74h-100q-46 0 -46 -34q0 -17 8 -33z" />
    <glyph glyph-name="glyph111" 
d="M-463 575q-7 11 -12 30t-5 38q0 35 23.5 61t87.5 26h131v-78h-102q-43 0 -43 -32q0 -15 8 -31z" />
    <glyph glyph-name="uni0E47.aalt" 
d="M-329 589q-54 0 -78 45l-36 -42q-58 0 -91 29t-33 84q0 58 33.5 86t77.5 28h216v-64h-200q-22 0 -36 -12.5t-14 -40.5q0 -20 10 -33.5t33 -13.5l39 48h24q2 -51 38 -51q16 0 26 11t10 28v13h71v-15q0 -51 -24.5 -75.5t-65.5 -24.5z" />
    <glyph glyph-name="uni0E34.aalt" 
d="M-593 605v46l75 35h278v-81h-353z" />
    <glyph glyph-name="uni0E35.aalt" 
d="M-593 602v44l75 34h184v78h94v-156h-353z" />
    <glyph glyph-name="uni0E36.aalt" 
d="M-593 602v44l75 34h114q-1 4 -1 10q0 38 25.5 62t69.5 24q45 0 71 -25t26 -63t-23.5 -62t-69.5 -24h-287zM-309 648q20 0 30.5 11.5t10.5 28.5q0 19 -11 30t-31 11q-21 0 -32 -11t-11 -29q0 -17 10.5 -29t33.5 -12z" />
    <glyph glyph-name="uni0E37.aalt" 
d="M-593 602v44l75 34h72v78h74v-78h58v78h75v-78h1v-78h-355z" />
    <glyph glyph-name="nikhahit_maiEk-thai" 
d="M-166 582q-52 0 -82.5 24t-30.5 69q0 44 30.5 68.5t82.5 24.5t83.5 -24.5t31.5 -68.5q0 -45 -31.5 -69t-83.5 -24zM-166 633q48 0 48 42t-48 42q-47 0 -47 -42t47 -42zM-212 825v170h98v-170h-98z" />
    <glyph glyph-name="nikhahit_maiTho-thai" 
d="M-166 582q-52 0 -82.5 24t-30.5 69q0 44 30.5 68.5t82.5 24.5t83.5 -24.5t31.5 -68.5q0 -45 -31.5 -69t-83.5 -24zM-166 633q48 0 48 42t-48 42q-47 0 -47 -42t47 -42zM-290 825v37q19 5 41.5 16t22.5 33q0 24 -23 24q-17 0 -32 -10l-18 49q18 13 41.5 17t38.5 4
q30 0 51.5 -14.5t21.5 -46.5q0 -8 -2 -18t-7 -19h124v-72h-259z" />
    <glyph glyph-name="nikhahit_maiTri-thai" 
d="M-166 582q-52 0 -82.5 24t-30.5 69q0 44 30.5 68.5t82.5 24.5t83.5 -24.5t31.5 -68.5q0 -45 -31.5 -69t-83.5 -24zM-166 633q48 0 48 42t-48 42q-47 0 -47 -42t47 -42zM-246 821q-43 0 -64 25.5t-21 60.5q0 36 24 62t73 26l49 -34l45 34q37 0 66.5 -16.5t29.5 -51.5
q0 -24 -12 -40h70v-62h-161v44q14 2 24 12t10 25q0 28 -29 33l-41 -27h-5l-43 27q-30 -2 -30 -33q0 -14 8 -23t24 -9q12 0 19 3l8 -46q-15 -10 -44 -10z" />
    <glyph glyph-name="nikhahit_maiChattawa-thai" 
d="M-166 582q-52 0 -82.5 24t-30.5 69q0 44 30.5 68.5t82.5 24.5t83.5 -24.5t31.5 -68.5q0 -45 -31.5 -69t-83.5 -24zM-166 633q48 0 48 42t-48 42q-47 0 -47 -42t47 -42zM-208 825v51h-60v68h60v51h88v-51h60v-68h-60v-51h-88z" />
    <glyph glyph-name="uni0E3A.aalt" 
d="M-135 -256q-32 0 -51.5 15t-19.5 42q0 28 19.5 42.5t51.5 14.5q33 0 52.5 -14.5t19.5 -42.5q0 -27 -19.5 -42t-52.5 -15z" />
    <glyph glyph-name="uni0E38.aalt" 
d="M-171 -261v23q0 25 -22 25q-5 0 -10.5 -1.5t-10.5 -2.5l-7 64q15 5 34 8t35 3q39 0 56.5 -17.5t17.5 -47.5v-54h-93z" />
    <glyph glyph-name="uni0E39.aalt" 
d="M-219 -265q-76 0 -104.5 15t-28.5 37v6q0 19 -23 14l-5 48q12 3 24.5 4t21.5 1q37 0 53.5 -11.5t16.5 -31.5v-4q0 -13 10 -21t36 -8q28 0 39 9t11 24v40h91v-48q0 -39 -33.5 -56.5t-108.5 -17.5z" />
    <glyph glyph-name="maiChattawa-thai.narrow" 
d="M-405 602v71h-74v71h74v73h88v-73h75v-71h-75v-71h-88z" />
    <glyph glyph-name="nikhahit-thai.narrow" 
d="M-353 581q-52 0 -82.5 24t-30.5 69q0 44 30.5 68.5t82.5 24.5t83.5 -24.5t31.5 -68.5q0 -45 -31.5 -69t-83.5 -24zM-353 632q48 0 48 42t-48 42q-47 0 -47 -42t47 -42z" />
    <glyph glyph-name="nikhahit_maiEk-thai.narrow" 
d="M-326 582q-52 0 -82.5 24t-30.5 69q0 44 30.5 68.5t82.5 24.5t83.5 -24.5t31.5 -68.5q0 -45 -31.5 -69t-83.5 -24zM-326 633q48 0 48 42t-48 42q-47 0 -47 -42t47 -42zM-372 825v170h98v-170h-98z" />
    <glyph glyph-name="nikhahit_maiTho-thai.narrow" 
d="M-325 582q-52 0 -82.5 24t-30.5 69q0 44 30.5 68.5t82.5 24.5t83.5 -24.5t31.5 -68.5q0 -45 -31.5 -69t-83.5 -24zM-325 633q48 0 48 42t-48 42q-47 0 -47 -42t47 -42zM-449 825v37q19 5 41.5 16t22.5 33q0 24 -23 24q-17 0 -32 -10l-18 49q18 13 41.5 17t38.5 4
q30 0 51.5 -14.5t21.5 -46.5q0 -8 -2 -18t-7 -19h124v-72h-259z" />
    <glyph glyph-name="nikhahit_maiTri-thai.narrow" 
d="M-326 582q-52 0 -82.5 24t-30.5 69q0 44 30.5 68.5t82.5 24.5t83.5 -24.5t31.5 -68.5q0 -45 -31.5 -69t-83.5 -24zM-326 633q48 0 48 42t-48 42q-47 0 -47 -42t47 -42zM-406 821q-43 0 -64 25.5t-21 60.5q0 36 24 62t73 26l49 -34l45 34q37 0 66.5 -16.5t29.5 -51.5
q0 -24 -12 -40h70v-62h-161v44q14 2 24 12t10 25q0 28 -29 33l-41 -27h-5l-43 27q-30 -2 -30 -33q0 -14 8 -23t24 -9q12 0 19 3l8 -46q-15 -10 -44 -10z" />
    <glyph glyph-name="nikhahit_maiChattawa-thai.narrow" 
d="M-325 582q-52 0 -82.5 24t-30.5 69q0 44 30.5 68.5t82.5 24.5t83.5 -24.5t31.5 -68.5q0 -45 -31.5 -69t-83.5 -24zM-325 633q48 0 48 42t-48 42q-47 0 -47 -42t47 -42zM-367 825v51h-60v68h60v51h88v-51h60v-68h-60v-51h-88z" />
    </font>
</defs>
</svg>
