<?xml version="1.0" standalone="no"?>
<!DOCTYPE svg PUBLIC "-//W3C//DTD SVG 1.1//EN" "http://www.w3.org/Graphics/SVG/1.1/DTD/svg11.dtd" >
<svg xmlns="http://www.w3.org/2000/svg" xmlns:xlink="http://www.w3.org/1999/xlink" version="1.1">
<metadata>
Created by FontForge 20170731 at Wed Sep 20 01:01:00 2017
 By Aleksey,,,
Copyright 2016 Google Inc. All Rights Reserved.
</metadata>
<defs>
<font id="NotoSansThaiUI-Light" horiz-adv-x="0" >
  <font-face 
    font-family="Noto Sans Thai UI Light"
    font-weight="300"
    font-stretch="normal"
    units-per-em="1000"
    panose-1="2 11 4 2 4 5 4 2 2 4"
    ascent="800"
    descent="-200"
    bbox="-676 -263 841 964"
    underline-thickness="50"
    underline-position="-175"
    unicode-range="U+000D-25CC"
  />
<missing-glyph horiz-adv-x="364" 
d="M33 0v666h265v-666h-265zM66 33h199v600h-199v-600z" />
    <glyph glyph-name="ru_lakkhangyao-thai" unicode="&#xe24;&#xe45;" horiz-adv-x="926" 
d="M444 -186v526q0 68 -45 102t-115 34t-112 -29t-42 -73l114 -49l-6 -38q-39 -2 -66.5 -23.5t-27.5 -71.5v-110q0 -44 44 -44q23 0 42 7l10 -42q-15 -7 -31.5 -9.5t-30.5 -2.5q-36 0 -63.5 18.5t-27.5 64.5v116q0 57 28.5 83.5t70.5 36.5v3l-114 41v24q0 38 25 72t73.5 55
t117.5 21q75 0 121.5 -27.5t65.5 -72.5h3q18 47 65 73.5t112 26.5q86 0 135.5 -45t49.5 -127v-540h-58v532q0 68 -38 99t-99 31q-64 0 -103.5 -33t-39.5 -100v-529h-58z" />
    <glyph glyph-name="lu_lakkhangyao-thai" unicode="&#xe26;&#xe45;" horiz-adv-x="928" 
d="M446 -186v526q0 68 -45.5 102t-115.5 34t-111.5 -29t-41.5 -73l114 -49l-8 -38q-38 -2 -62 -24.5t-24 -72.5v-118q0 -46 -20.5 -63.5t-51.5 -17.5q-14 0 -28 2.5t-27 8.5l8 41q7 -2 15 -4t16 -2q18 0 24.5 9.5t6.5 31.5v114q0 56 24.5 82t66.5 36l2 3l-116 41v24
q0 38 25.5 72t74 55t116.5 21q76 0 122 -27.5t66 -72.5h4q17 47 63.5 73.5t112.5 26.5q86 0 135.5 -45t49.5 -127v-540h-57v532q0 68 -39 99t-99 31q-64 0 -103.5 -33t-39.5 -100v-529h-57z" />
    <glyph glyph-name=".notdef" horiz-adv-x="364" 
d="M33 0v666h265v-666h-265zM66 33h199v600h-199v-600z" />
    <glyph glyph-name=".null" 
 />
    <glyph glyph-name="nonmarkingreturn" horiz-adv-x="333" 
 />
    <glyph glyph-name="NULL" 
 />
    <glyph glyph-name="NULL" 
 />
    <glyph glyph-name="CR" unicode="&#xd;" horiz-adv-x="260" 
 />
    <glyph glyph-name="space" unicode=" " horiz-adv-x="260" 
 />
    <glyph glyph-name="hyphen" unicode="-" horiz-adv-x="322" 
d="M40 244v52h242v-52h-242z" />
    <glyph glyph-name="uni00A0" unicode="&#xa0;" horiz-adv-x="260" 
 />
    <glyph glyph-name="uni02BC" unicode="&#x2bc;" horiz-adv-x="151" 
d="M122 714l6 -10q-10 -57 -31 -119.5t-43 -115.5h-41q11 37 22 80t19 86t12 79h56z" />
    <glyph glyph-name="uni02D7" unicode="&#x2d7;" horiz-adv-x="218" 
d="M206 254h-194v44h194v-44z" />
    <glyph glyph-name="tildecomb" unicode="&#x303;" 
d="M-120 726q-4 -54 -29.5 -84t-65.5 -30q-22 0 -40 10t-34.5 23t-32.5 23t-34 10q-20 0 -35 -14t-19 -52h-38q5 54 30 83.5t66 29.5q22 0 40 -10t34.5 -23t32.5 -23t33 -10q20 0 35 14.5t21 52.5h36z" />
    <glyph glyph-name="uni0331" unicode="&#x331;" 
d="M-120 -89v-47h-262v47h262z" />
    <glyph glyph-name="uni0E01" unicode="&#xe01;" horiz-adv-x="590" 
d="M82 0v188q0 58 29.5 85t72.5 37v3l-112 41v24q0 38 25.5 72t74 55t116.5 21q60 0 109 -19t77.5 -58t28.5 -99v-350h-57v342q0 70 -45 102t-114 32q-73 0 -114.5 -29t-41.5 -73l111 -49l-7 -38q-38 -2 -67 -25t-29 -73v-189h-57z" />
    <glyph glyph-name="uni0E02" unicode="&#xe02;" horiz-adv-x="540" 
d="M270 -10q-87 0 -137.5 41t-50.5 125v68q0 46 14.5 73t35.5 51t33.5 42t12.5 42q0 25 -14 34t-32 9q-16 0 -32 -4.5t-26 -10.5l-14 44q16 9 38.5 14t43.5 5q42 0 67 -21.5t25 -63.5q0 -34 -15 -58t-35 -47q-20 -25 -32 -47.5t-12 -59.5v-66q0 -68 36.5 -94.5t93.5 -26.5
q64 0 95 28t31 79v371h58v-374q0 -73 -47.5 -113t-136.5 -40z" />
    <glyph glyph-name="uni0E03" unicode="&#xe03;" horiz-adv-x="540" 
d="M265 -10q-88 0 -136.5 41t-48.5 125v69q0 49 21 79.5t47 57.5q22 24 32 38t12 34l-4 2q-10 -8 -25 -14.5t-35 -6.5q-34 0 -56 20.5t-22 61.5v20h51q0 -35 10.5 -49t33.5 -14q13 0 26 4t25 16l14 43h34v-51q0 -29 -3.5 -47.5t-14 -35.5t-30.5 -39q-24 -28 -41 -52.5
t-17 -68.5v-63q0 -69 36 -95t92 -26q64 0 97 28t33 79v371h58v-374q0 -73 -49 -113t-140 -40z" />
    <glyph glyph-name="uni0E04" unicode="&#xe04;" horiz-adv-x="608" 
d="M86 0v338q0 90 55 139t163 49t163 -49t55 -139v-338h-58v337q0 69 -42 104t-118 35t-118 -35t-42 -104v-121h3q21 34 56 50t94 16h43v-48h-42q-81 0 -117.5 -34t-36.5 -88v-112h-58z" />
    <glyph glyph-name="uni0E05" unicode="&#xe05;" horiz-adv-x="614" 
d="M86 0v402q0 63 33 93.5t89 30.5q37 0 63 -14t34 -40h4q8 26 34.5 40t62.5 14q56 0 89 -30.5t33 -93.5v-402h-58v398q0 44 -20 61.5t-52 17.5q-64 0 -72 -61h-40q-6 61 -72 61q-30 0 -50.5 -17.5t-20.5 -61.5v-182h3q21 34 57 50t96 16h43v-48h-42q-82 0 -119 -34t-37 -88
v-112h-58z" />
    <glyph glyph-name="uni0E06" unicode="&#xe06;" horiz-adv-x="592" 
d="M322 -9q-70 0 -117.5 27t-68.5 72h-4l-5 -90h-48v221q0 49 20 81.5t48 59.5q26 26 36.5 40t10.5 32l-2 2q-10 -8 -25.5 -14.5t-36.5 -6.5q-33 0 -55 20.5t-22 61.5v20h51q0 -35 10.5 -49t33.5 -14q12 0 25 4t26 16l13 43h35v-51q0 -27 -4.5 -45.5t-15.5 -35.5t-31 -41
q-18 -20 -31.5 -37t-21 -37t-7.5 -50v-18q0 -71 47.5 -116.5t127.5 -45.5q65 0 101 33t36 97v347h58v-353q0 -89 -51 -131t-133 -42z" />
    <glyph glyph-name="uni0E07" unicode="&#xe07;" horiz-adv-x="530" 
d="M178 0l-169 517h58l155 -467h14q30 0 56.5 11t48.5 29q36 32 53.5 84t17.5 110q0 89 -40.5 138.5t-116.5 49.5q-13 0 -26 -1.5t-21 -4.5l-14 48q16 4 33 6t31 2q98 0 152 -57q32 -32 46 -80t14 -104q0 -76 -23.5 -134.5t-64.5 -92.5q-28 -26 -68.5 -40t-96.5 -14h-39z
" />
    <glyph glyph-name="uni0E08" unicode="&#xe08;" horiz-adv-x="525" 
d="M158 0v245h-74v45h130v-242h14q52 0 90 20t59 66t21 126q0 118 -42 167t-140 49q-92 0 -172 -46v54q28 16 76 29t104 13q128 0 181 -67t53 -199q0 -134 -58 -197t-186 -63h-56z" />
    <glyph glyph-name="uni0E09" unicode="&#xe09;" horiz-adv-x="599" 
d="M268 -9q-80 0 -131 42t-51 129v133h58v-127q0 -60 35 -94t103 -34q80 0 126.5 45.5t46.5 120.5v104q0 93 -46.5 129.5t-134.5 36.5q-47 0 -92.5 -11t-86.5 -35v56q28 15 78 27.5t111 12.5q112 0 170 -51t58 -159v-316h-48l-4 84h-4q-22 -44 -69.5 -68.5t-118.5 -24.5z
" />
    <glyph glyph-name="uni0E0A" unicode="&#xe0a;" horiz-adv-x="540" 
d="M269 -10q-89 0 -139 41t-50 125v68q0 46 15 73.5t35 50.5q21 23 33.5 42t12.5 42q0 25 -13.5 34t-34.5 9q-14 0 -29 -4.5t-25 -8.5l-14 42q16 9 38.5 14t42.5 5q41 0 66 -21.5t25 -63.5q0 -34 -15 -58t-35 -47q-20 -25 -32 -47.5t-12 -59.5v-66q0 -68 36.5 -94.5
t94.5 -26.5q63 0 94 28t31 79v141q0 38 -22 57.5t-59 19.5h-10v39h11q38 0 57.5 17t26 43t6.5 54h57q0 -52 -15.5 -85t-57.5 -48v-2q40 -12 52 -38t12 -56v-145q0 -73 -47 -113t-136 -40z" />
    <glyph glyph-name="uni0E0B" unicode="&#xe0b;" horiz-adv-x="546" 
d="M270 -10q-88 0 -137 41t-49 125v69q0 49 19 79.5t45 57.5q22 22 32 37t12 35l-4 2q-10 -8 -25 -14.5t-35 -6.5q-34 0 -56 20.5t-22 61.5v20h51q0 -36 10.5 -49.5t34.5 -13.5q13 0 26 5t24 15l14 43h34v-51q0 -29 -3.5 -48t-14 -35.5t-30.5 -38.5q-26 -29 -40 -52.5
t-14 -63.5v-68q0 -69 36 -95t92 -26q64 0 97 28t33 79v141q0 38 -22 57.5t-60 19.5h-10v39h12q38 0 57 17t25.5 43t6.5 54h57q0 -52 -16 -84t-58 -47v-4q38 -12 52 -37t14 -61v-141q0 -73 -49.5 -113t-138.5 -40z" />
    <glyph glyph-name="uni0E0C" unicode="&#xe0c;" horiz-adv-x="898" 
d="M193 -8q-43 0 -74.5 21t-31.5 75v102q0 57 28.5 83.5t70.5 36.5v3l-114 41v24q0 40 25 73.5t71 54t110 20.5q55 0 101.5 -18.5t74.5 -57.5t28 -100v-148q0 -47 20 -83.5t55 -57.5t80 -21q55 0 86 30t31 90v357h58v-363q0 -86 -46 -124.5t-119 -38.5q-58 0 -101 25t-64 70
h-4l-4 -86h-49v342q0 74 -43 104t-105 30q-65 0 -105.5 -28t-41.5 -74l114 -49l-6 -38q-39 -2 -66.5 -23.5t-27.5 -71.5v-100q0 -27 15.5 -40t42.5 -13q13 0 25.5 2.5t22.5 5.5l9 -42q-33 -13 -66 -13z" />
    <glyph glyph-name="uni0E0D" unicode="&#xe0d;" horiz-adv-x="904" 
d="M601 -153q-84 0 -155 31v58q32 -18 73 -28t81 -10q43 0 77 12.5t54 43t20 86.5v42h-4q-22 -34 -62.5 -58t-101.5 -24q-72 0 -117 39t-45 123v182q0 49 -19.5 78t-52.5 41.5t-74 12.5q-64 0 -104 -27t-41 -75l114 -49l-6 -38q-39 -2 -66.5 -23.5t-27.5 -71.5v-100
q0 -27 15.5 -40t42.5 -13q13 0 25.5 2.5t22.5 5.5l9 -42q-33 -13 -66 -13q-43 0 -74.5 21t-31.5 75v102q0 57 28.5 83.5t70.5 36.5v3l-114 41v24q0 41 25 74.5t70.5 53.5t108.5 20q55 0 101 -18t73.5 -57t27.5 -101v-181q0 -59 31.5 -88.5t84.5 -29.5q69 0 112.5 44.5
t43.5 115.5v306h58v-476q0 -102 -55.5 -148t-151.5 -46z" />
    <glyph glyph-name="uni0E0E" unicode="&#xe0e;" horiz-adv-x="590" 
d="M104 -186v16q0 48 36 79.5t110 31.5q55 0 105.5 -18t90.5 -49v468q0 70 -44.5 102t-114.5 32q-73 0 -114 -29t-41 -73l114 -49l-8 -38q-38 -2 -62 -24.5t-24 -72.5v-117q0 -46 -21 -63.5t-52 -17.5q-29 0 -54 12l8 42q16 -7 31 -7q18 0 24.5 10t6.5 31v112q0 56 24.5 82
t66.5 36l2 3l-116 41v24q0 38 25.5 72t74 55t116.5 21q61 0 110 -19t77.5 -58t28.5 -99v-536h-46q-20 18 -51 36t-68 30t-76 12q-52 0 -76.5 -20t-24.5 -49v-9h-58z" />
    <glyph glyph-name="uni0E0F" unicode="&#xe0f;" horiz-adv-x="590" 
d="M78 -186v20q0 46 29.5 72t74.5 26q44 0 72 -19.5t44 -46.5l73 62l75 -58v472q0 70 -44.5 102t-114.5 32q-73 0 -114 -29t-41 -73l114 -49l-8 -38q-38 -2 -62 -24.5t-24 -72.5v-117q0 -46 -21 -63.5t-52 -17.5q-29 0 -54 12l8 42q16 -7 31 -7q18 0 24.5 10t6.5 31v112
q0 56 24.5 82t66.5 36l2 3l-116 41v24q0 38 25.5 72t74 55t116.5 21q61 0 110 -19t77.5 -58t28.5 -99v-536h-52l-80 64l-72 -64h-16q-16 29 -38.5 50t-55.5 21q-30 0 -43.5 -18.5t-13.5 -42.5v-10h-55z" />
    <glyph glyph-name="uni0E10" unicode="&#xe10;" horiz-adv-x="540" 
d="M154 0v245h-74v45h130v-242h14q52 0 90 20t59 66t21 126q0 118 -42 167t-140 49q-92 0 -172 -46v54q28 16 76 29t104 13q102 0 151 -44q27 8 47 24t20 45h58q0 -39 -27 -65t-67 -36q28 -31 40 -79.5t12 -111.5q0 -133 -58 -196t-186 -63h-56zM54 -186v20q0 46 27 72
t69 26q40 0 64.5 -20t40.5 -46l68 62l71 -59v77h53v-132h-53l-71 62l-65 -62h-15q-15 28 -36 49.5t-49 21.5q-29 0 -40.5 -18.5t-11.5 -42.5v-10h-52z" />
    <glyph glyph-name="uni0E11" unicode="&#xe11;" horiz-adv-x="618" 
d="M100 0v218q0 55 10.5 84.5t32.5 54.5q29 32 38 45.5t11 31.5l-4 2q-10 -8 -25 -14.5t-35 -6.5q-34 0 -56 20.5t-22 61.5v20h52q0 -36 10 -49.5t32 -13.5q14 0 26 4.5t22 15.5l14 43h32v-69h5q30 38 66.5 58t84.5 20q69 0 103 -34.5t34 -91.5v-400h-57v386q0 46 -24.5 68
t-63.5 22q-46 0 -84 -28t-87 -84q-23 -26 -35 -46t-17 -44t-5 -64v-210h-58z" />
    <glyph glyph-name="uni0E12" unicode="&#xe12;" horiz-adv-x="894" 
d="M268 -9q-78 0 -121.5 32.5t-61 93.5t-17.5 148q0 99 17.5 156t48.5 81t72 24q39 0 61 -15t31 -40h4q20 55 92 55q114 0 114 -128v-196q0 -48 19.5 -84.5t54 -57t78.5 -20.5q57 0 88 30t31 90v357h57v-363q0 -86 -45.5 -124.5t-114.5 -38.5q-66 0 -108 27.5t-61 67.5h-4
l-4 -86h-49v398q0 44 -15 61t-50 17q-31 0 -46 -15t-21 -46h-38q-5 34 -21.5 47.5t-44.5 13.5q-42 0 -65 -45.5t-23 -162.5q0 -77 12.5 -128t45 -76t92.5 -25q15 0 27 2t23 5l6 -44q-12 -6 -28.5 -8.5t-35.5 -2.5z" />
    <glyph glyph-name="uni0E13" unicode="&#xe13;" horiz-adv-x="904" 
d="M193 -8q-43 0 -74.5 21t-31.5 75v102q0 57 28.5 83.5t70.5 36.5v3l-114 41v24q0 41 25 74.5t70.5 53.5t108.5 20q55 0 101 -18t73.5 -57t27.5 -101v-190q0 -60 31.5 -90t90.5 -30q42 0 76 20.5t54 57t20 84.5v315h58v-517h-49l-4 86h-5q-20 -44 -63 -69.5t-99 -25.5
q-75 0 -121 38.5t-46 123.5v191q0 49 -19.5 78t-53 41.5t-74.5 12.5q-63 0 -103 -27t-41 -75l114 -49l-6 -38q-39 -2 -66.5 -23.5t-27.5 -71.5v-100q0 -27 15.5 -40t43.5 -13q12 0 24.5 2.5t22.5 5.5l9 -42q-33 -13 -66 -13z" />
    <glyph glyph-name="uni0E14" unicode="&#xe14;" horiz-adv-x="611" 
d="M267 -9q-76 0 -120 33t-62.5 92.5t-18.5 138.5q0 109 31 167.5t85 81t123 22.5q109 0 164 -45.5t55 -128.5v-352h-56v346q0 62 -38 96t-122 34q-54 0 -95.5 -18t-65 -66t-23.5 -138q0 -62 13 -110.5t46 -76.5t94 -28q28 0 49 8l8 -46q-14 -6 -32 -8t-35 -2z" />
    <glyph glyph-name="uni0E15" unicode="&#xe15;" horiz-adv-x="629" 
d="M274 -9q-80 0 -125 34t-63 95.5t-18 146.5q0 95 18.5 152t52 82t79.5 25q40 0 64 -15t33 -40h4q20 55 98 55q125 0 125 -128v-398h-57v398q0 44 -20 61t-57 17q-34 0 -50.5 -15t-21.5 -46h-40q-4 34 -24 47.5t-48 13.5q-48 0 -73 -48.5t-25 -159.5q0 -75 13 -126t47 -77
t95 -26q17 0 31 2t26 5l6 -44q-12 -6 -31.5 -8.5t-38.5 -2.5z" />
    <glyph glyph-name="uni0E16" unicode="&#xe16;" horiz-adv-x="589" 
d="M193 -8q-43 0 -74.5 21t-31.5 75v102q0 57 28.5 83.5t70.5 36.5v3l-114 41v24q0 38 25 72t73 55t117 21q61 0 109.5 -19t77 -58t28.5 -99v-350h-57v342q0 70 -44.5 102t-114.5 32q-72 0 -114 -29t-42 -73l114 -49l-6 -38q-39 -2 -66.5 -21.5t-27.5 -69.5v-104
q0 -27 15.5 -40t43.5 -13q12 0 24.5 2.5t22.5 5.5l9 -42q-33 -13 -66 -13z" />
    <glyph glyph-name="uni0E17" unicode="&#xe17;" horiz-adv-x="608" 
d="M94 0v517h42l10 -88h4q21 47 69 72t114 25q83 0 135.5 -42.5t52.5 -131.5v-352h-57v348q0 63 -37 95.5t-105 32.5q-80 0 -125 -47t-45 -121v-308h-58z" />
    <glyph glyph-name="uni0E18" unicode="&#xe18;" horiz-adv-x="533" 
d="M268 -10q-56 0 -103.5 9.5t-80.5 22.5v218h54v-182q18 -8 55.5 -14t76.5 -6q41 0 75.5 9.5t55.5 33t21 66.5t-22.5 65.5t-63.5 36t-96 29.5q-60 18 -98 35t-55.5 39t-17.5 57q0 58 47.5 87.5t147.5 29.5q67 0 114 -11t70 -21v-52q-26 12 -78 24t-113 12q-55 0 -93 -14
t-38 -50t41 -53.5t113 -38.5q57 -17 102 -35.5t71 -50.5t26 -88q0 -80 -53.5 -119t-157.5 -39z" />
    <glyph glyph-name="uni0E19" unicode="&#xe19;" horiz-adv-x="610" 
d="M273 -9q-82 0 -134.5 42t-52.5 131v353h58v-347q0 -64 37 -97t105 -33q79 0 124.5 46t45.5 122v309h58v-517h-50l-3 85h-5q-22 -44 -67.5 -69t-115.5 -25z" />
    <glyph glyph-name="uni0E1A" unicode="&#xe1a;" horiz-adv-x="598" 
d="M298 -10q-111 0 -161.5 50.5t-50.5 136.5v340h58v-340q0 -67 38.5 -102.5t115.5 -35.5q79 0 117.5 35.5t38.5 102.5v340h58v-340q0 -86 -51 -136.5t-163 -50.5z" />
    <glyph glyph-name="uni0E1B" unicode="&#xe1b;" horiz-adv-x="600" 
d="M298 -10q-111 0 -161.5 50.5t-50.5 136.5v340h58v-340q0 -67 38.5 -102.5t115.5 -35.5q79 0 117.5 35.5t38.5 102.5v526h58v-526q0 -86 -51 -136.5t-163 -50.5z" />
    <glyph glyph-name="uni0E1C" unicode="&#xe1c;" horiz-adv-x="644" 
d="M92 0v431q0 37 15 57.5t39 29t50 8.5q15 0 32.5 -4t27.5 -8l-8 -43q-9 2 -21.5 4t-22.5 2q-27 0 -41.5 -11.5t-14.5 -41.5v-198q0 -28 -0.5 -63t-3.5 -75h4q18 38 36.5 68.5t34.5 55.5l83 130h36l83 -130q25 -38 41 -66.5t30 -57.5h4q-3 40 -3.5 75t-0.5 63v291h56v-517
h-50l-176 279h-4l-176 -279h-50z" />
    <glyph glyph-name="uni0E1D" unicode="&#xe1d;" horiz-adv-x="646" 
d="M92 0v431q0 37 15 57.5t39 29t50 8.5q15 0 32.5 -3.5t27.5 -8.5l-8 -43q-9 2 -21.5 4.5t-22.5 2.5q-27 0 -41.5 -12t-14.5 -42v-197q0 -29 -0.5 -63.5t-3.5 -75.5h4q18 38 36.5 68.5t34.5 55.5l83 130h36l83 -130q25 -38 41 -66.5t30 -57.5h4q-3 41 -3.5 75.5t-0.5 63.5
v476h57v-703h-51l-176 279h-4l-176 -279h-50z" />
    <glyph glyph-name="uni0E1E" unicode="&#xe1e;" horiz-adv-x="688" 
d="M145 0l-98 517h59l50 -275q4 -24 10 -66t14 -94h4q14 52 28.5 98.5t23.5 74.5l86 262h44l86 -262q9 -28 23.5 -74.5t28.5 -98.5h4q6 52 12 94t11 66l51 275h60l-98 -517h-60l-108 314q-8 24 -15.5 51t-14.5 59h-4q-7 -32 -15 -59t-16 -51l-107 -314h-59z" />
    <glyph glyph-name="uni0E1F" unicode="&#xe1f;" horiz-adv-x="681" 
d="M145 0l-98 517h59l50 -275q2 -12 6 -37.5t9 -58t9 -64.5h4q10 42 25 89t27 84l86 262h44l86 -262q12 -37 26 -84t26 -89h4q5 50 11 92.5t9 67.5l69 461h57l-111 -703h-60l-107 314q-8 22 -15 50l-15 60h-4q-8 -32 -15 -59t-15 -51l-108 -314h-59z" />
    <glyph glyph-name="uni0E20" unicode="&#xe20;" horiz-adv-x="590" 
d="M80 -8q-28 0 -55 11l8 42q7 -2 15 -4t16 -2q18 0 24.5 9.5t6.5 30.5v113q0 56 24.5 82t66.5 36l2 3l-116 41v24q0 38 25.5 72t74 55t116.5 21q61 0 110 -19t77.5 -58t28.5 -99v-350h-58v342q0 70 -44.5 102t-113.5 32q-74 0 -115 -29t-41 -73l114 -49l-8 -38
q-38 -2 -62 -24.5t-24 -72.5v-117q0 -47 -20.5 -64t-51.5 -17z" />
    <glyph glyph-name="uni0E21" unicode="&#xe21;" horiz-adv-x="610" 
d="M338 -9q-69 0 -116 26.5t-69 72.5h-4l-4 -90h-49v517h58v-309q0 -74 47 -121t125 -47q68 0 104 33t36 97v347h58v-353q0 -89 -52 -131t-134 -42z" />
    <glyph glyph-name="uni0E22" unicode="&#xe22;" horiz-adv-x="588" 
d="M290 -9q-112 0 -162.5 44t-50.5 115q0 44 13.5 70t34 39t41.5 18v4q-19 7 -40.5 19.5t-36.5 36t-15 63.5q0 52 38 88t112 36q24 0 47.5 -3.5t38.5 -9.5l-10 -45q-11 3 -29.5 6.5t-38.5 3.5q-45 0 -72.5 -21t-27.5 -61q0 -38 19.5 -58t49 -27.5t59.5 -7.5h30v-43h-30
q-60 0 -92 -25.5t-32 -76.5q0 -56 38 -86.5t116 -30.5q75 0 114.5 30.5t39.5 98.5v349h58v-345q0 -94 -54 -137.5t-158 -43.5z" />
    <glyph glyph-name="uni0E23" unicode="&#xe23;" horiz-adv-x="480" 
d="M234 -10q-57 0 -105.5 11.5t-82.5 25.5l18 48q32 -13 78 -24.5t96 -11.5q62 0 101 23t39 68t-38 68.5t-100 43.5q-60 19 -102 38.5t-64.5 47t-22.5 70.5q0 57 48 92.5t146 35.5q49 0 93 -9t67 -21v-50q-25 11 -70 21.5t-92 10.5q-68 0 -101.5 -22t-33.5 -56
q0 -42 42.5 -64t117.5 -47q46 -15 84 -33.5t60.5 -47t22.5 -74.5q0 -62 -47.5 -103t-153.5 -41z" />
    <glyph glyph-name="uni0E24" unicode="&#xe24;" horiz-adv-x="589" 
d="M193 -8q-43 0 -74.5 21t-31.5 75v102q0 57 28.5 83.5t70.5 36.5v3l-114 41v24q0 38 25 72t73 55t117 21q61 0 109.5 -19t77 -58t28.5 -99v-536h-57v528q0 70 -44.5 102t-114.5 32q-72 0 -114 -29t-42 -73l114 -49l-6 -38q-39 -2 -66.5 -21.5t-27.5 -69.5v-104
q0 -27 15.5 -40t43.5 -13q12 0 24.5 2.5t22.5 5.5l9 -42q-33 -13 -66 -13z" />
    <glyph glyph-name="uni0E25" unicode="&#xe25;" horiz-adv-x="566" 
d="M229 -9q-89 0 -132 39t-43 104q0 79 59 120.5t191 49.5l118 6v45q0 61 -35 91.5t-111 30.5q-50 0 -95 -12t-85 -33v56q28 14 76.5 26t110.5 12q196 0 196 -168v-358h-57v261l-107 -6q-109 -7 -156 -34.5t-47 -84.5q0 -50 33.5 -74t90.5 -24q17 0 31.5 2t28.5 6l9 -44
q-14 -6 -35 -8.5t-41 -2.5z" />
    <glyph glyph-name="uni0E26" unicode="&#xe26;" horiz-adv-x="590" 
d="M80 -8q-28 0 -55 11l8 42q7 -2 15 -4t16 -2q18 0 24.5 9.5t6.5 30.5v113q0 56 24.5 82t66.5 36l2 3l-116 41v24q0 38 25.5 72t74 55t116.5 21q61 0 110 -19t77.5 -58t28.5 -99v-536h-58v528q0 70 -44.5 102t-113.5 32q-74 0 -115 -29t-41 -73l114 -49l-8 -38
q-38 -2 -62 -24.5t-24 -72.5v-117q0 -47 -20.5 -64t-51.5 -17z" />
    <glyph glyph-name="uni0E27" unicode="&#xe27;" horiz-adv-x="488" 
d="M194 -10q-40 0 -76 8t-74 28l20 45q24 -13 54 -22.5t67 -9.5q80 0 127.5 54.5t47.5 166.5q0 110 -47.5 163t-148.5 53q-31 0 -63.5 -6t-58.5 -20v50q28 14 63 20t69 6q130 0 188 -69.5t58 -196.5q0 -130 -59 -200t-167 -70z" />
    <glyph glyph-name="uni0E28" unicode="&#xe28;" horiz-adv-x="622" 
d="M86 0v338q0 92 55 140t163 48q46 0 82.5 -10t60.5 -31q25 8 42 24t17 42h57q0 -36 -23 -60.5t-58 -36.5q21 -19 30.5 -49t9.5 -67v-338h-58v337q0 69 -42 104t-118 35t-118 -35t-42 -104v-121h3q22 34 56.5 50t93.5 16h43v-48h-42q-81 0 -117.5 -34t-36.5 -88v-112h-58z
" />
    <glyph glyph-name="uni0E29" unicode="&#xe29;" horiz-adv-x="634" 
d="M306 -10q-117 0 -168.5 53t-51.5 138v336h58v-335q0 -70 39.5 -106.5t122.5 -36.5t122.5 36.5t39.5 106.5v46h-106q-50 0 -70 19t-20 48q0 13 3 25.5t9 20.5l47 -10q-6 -12 -6 -25q0 -15 9.5 -24.5t31.5 -9.5h102v245h58v-245h64v-44h-64v-47q0 -85 -51.5 -138
t-168.5 -53z" />
    <glyph glyph-name="uni0E2A" unicode="&#xe2a;" horiz-adv-x="566" 
d="M226 -9q-87 0 -129.5 39t-42.5 106q0 78 60.5 119t189.5 49l118 6v45q0 61 -35 91.5t-111 30.5q-50 0 -95 -12t-85 -33v56q28 14 76 26t108 12q94 0 135 -38q21 9 35 24t14 39h58q0 -34 -20.5 -58t-52.5 -37q16 -17 23 -42t7 -56v-358h-57v261l-107 -6q-107 -7 -155 -34
t-48 -84q0 -50 33.5 -74.5t90.5 -24.5q31 0 60 8l10 -44q-15 -6 -35.5 -8.5t-44.5 -2.5z" />
    <glyph glyph-name="uni0E2B" unicode="&#xe2b;" horiz-adv-x="581" 
d="M96 0v517h58v-255h3l273 255h70v-3l-168 -157q89 -4 131.5 -50.5t42.5 -126.5v-180h-58v178q0 65 -36.5 100.5t-125.5 36.5l-132 -123v-192h-58z" />
    <glyph glyph-name="uni0E2C" unicode="&#xe2c;" horiz-adv-x="656" 
d="M131 0l-84 517h58l43 -285q4 -28 9.5 -68t8.5 -89h4q11 34 20 59t18.5 49.5t21.5 54.5l75 187h47l76 -187q12 -30 21.5 -54t18.5 -49.5t20 -59.5h4q2 40 7.5 80.5t12.5 75.5l26 154q12 68 -16 99.5t-100 31.5h-46v44h84q68 0 96 27.5t28 78.5v8h58v-8q0 -56 -24.5 -89.5
t-80.5 -46.5v-3q41 -18 52.5 -55t4.5 -78l-68 -394h-58l-100 252q-12 28 -21 53.5t-17 58.5h-4q-8 -34 -16.5 -60.5t-18.5 -52.5l-102 -251h-58z" />
    <glyph glyph-name="uni0E2D" unicode="&#xe2d;" horiz-adv-x="569" 
d="M272 -10q-106 0 -156 53.5t-50 168.5q0 16 1 38t3 40h194v-46h-141v-33q0 -92 35.5 -132.5t113.5 -40.5q54 0 92 20t58 67.5t20 130.5q0 106 -41 163t-143 57q-48 0 -93 -11t-83 -31v56q29 14 77.5 25t104.5 11q85 0 137 -32.5t75.5 -93t23.5 -144.5q0 -130 -52 -198
t-176 -68z" />
    <glyph glyph-name="uni0E2E" unicode="&#xe2e;" horiz-adv-x="555" 
d="M272 -10q-106 0 -156 53.5t-50 168.5q0 16 1 38t3 40h194v-46h-141v-33q0 -92 35.5 -132.5t113.5 -40.5q54 0 92 20t58 67.5t20 130.5q0 106 -41 163t-143 57q-97 0 -176 -42v56q29 14 77 25t105 11q45 0 81.5 -10t63.5 -31q23 8 40 24t17 42h58q0 -36 -23 -60.5
t-58 -36.5q31 -32 44 -83t13 -117q0 -128 -52 -196t-176 -68z" />
    <glyph glyph-name="uni0E2F" unicode="&#xe2f;" horiz-adv-x="516" 
d="M349 -1v283q-40 -59 -146 -59q-84 0 -131 42.5t-47 120.5q0 66 39 103t104 37q14 0 29.5 -2t32.5 -9l-10 -44q-11 4 -22.5 5.5t-20.5 1.5q-40 0 -67 -22.5t-27 -73.5q0 -54 32.5 -83t96.5 -29q72 0 104.5 34t32.5 101v112h57v-518h-57z" />
    <glyph glyph-name="uni0E30" unicode="&#xe30;" horiz-adv-x="336" 
d="M134 355q-48 0 -69 21t-21 48q0 13 4 27t9 23l49 -8q-2 -6 -4.5 -15t-2.5 -17q0 -15 8 -23.5t29 -8.5h156v-47h-158zM134 75q-48 0 -69 21t-21 48q0 13 4 27t9 23l49 -8q-2 -6 -4.5 -15t-2.5 -17q0 -15 8 -23.5t29 -8.5h156v-47h-158z" />
    <glyph glyph-name="uni0E31" unicode="&#xe31;" 
d="M-232 606q-48 0 -68.5 20t-20.5 48q0 12 3.5 26.5t9.5 23.5l49 -8q-2 -5 -4.5 -14.5t-2.5 -17.5q0 -14 8.5 -23t29.5 -9h266v-46h-270z" />
    <glyph glyph-name="uni0E32" unicode="&#xe32;" horiz-adv-x="407" 
d="M263 0v375q0 51 -26 76t-85 25q-33 0 -67.5 -9.5t-64.5 -24.5v54q22 10 59 20t85 10q76 0 116 -34t40 -106v-386h-57z" />
    <glyph glyph-name="uni0E33" unicode="&#xe33;" horiz-adv-x="407" 
d="M263 0v375q0 51 -26 76t-85 25q-33 0 -67.5 -9.5t-64.5 -24.5v54q22 10 59 20t85 10q76 0 116 -34t40 -106v-386h-57zM-157 580q-43 0 -70 22t-27 64t27 64t70 22t70.5 -22t27.5 -64t-27.5 -64t-70.5 -22zM-157 615q26 0 41 14t15 37t-15 37t-41 14t-40.5 -14t-14.5 -37
t14.5 -37t40.5 -14z" />
    <glyph glyph-name="uni0E34" unicode="&#xe34;" 
d="M-506 606v26l50 21h360v-47h-410z" />
    <glyph glyph-name="uni0E35" unicode="&#xe35;" 
d="M-506 606v26l50 21h305v89h55v-136h-410z" />
    <glyph glyph-name="uni0E36" unicode="&#xe36;" 
d="M-506 606v26l50 21h214q-6 13 -6 26q0 35 22.5 54t57.5 19q37 0 59.5 -20t22.5 -54q0 -33 -22 -52.5t-59 -19.5h-339zM-166 639q19 0 30.5 11t11.5 28q0 18 -12 29t-31 11t-30.5 -11t-11.5 -28t11.5 -28.5t31.5 -11.5z" />
    <glyph glyph-name="uni0E37" unicode="&#xe37;" 
d="M-506 606v26l50 21h197v82h49v-82h66v82h48v-129h-410z" />
    <glyph glyph-name="uni0E38" unicode="&#xe38;" 
d="M-150 -261v123q0 24 -20 24q-5 0 -11 -1t-11 -3l-4 41q12 5 24.5 6.5t21.5 1.5q26 0 39.5 -13t13.5 -35v-144h-53z" />
    <glyph glyph-name="uni0E39" unicode="&#xe39;" 
d="M-208 -263q-56 0 -84.5 25t-28.5 69v36q0 26 -33 17l-6 42q10 3 21 4t17 1q52 0 52 -49v-48q0 -24 14.5 -39.5t46.5 -15.5t46.5 15.5t14.5 39.5v94h52v-94q0 -46 -28 -71.5t-84 -25.5z" />
    <glyph glyph-name="uni0E3A" unicode="&#xe3a;" 
d="M-129 -170q-51 0 -51 50t51 50t51 -50t-51 -50z" />
    <glyph glyph-name="uni0E3F" unicode="&#xe3f;" horiz-adv-x="577" 
d="M90 38v637h167v85h43v-86q103 -4 152.5 -41t49.5 -111q0 -58 -32 -97t-94 -50v-3q70 -11 108 -48.5t38 -105.5q0 -93 -61.5 -136.5t-160.5 -43.5v-96h-43v96h-167zM146 396h111v229h-111v-229zM442 516q0 53 -34 78.5t-108 29.5v-228q76 4 109 34.5t33 85.5zM146 87h111
v260h-111v-260zM462 220q0 121 -162 127v-260q81 2 121.5 36t40.5 97z" />
    <glyph glyph-name="uni0E40" unicode="&#xe40;" horiz-adv-x="278" 
d="M192 -9q-34 0 -62 18.5t-28 64.5v443h57v-435q0 -44 45 -44q10 0 21.5 2.5t19.5 5.5l9 -43q-15 -7 -31.5 -9.5t-30.5 -2.5z" />
    <glyph glyph-name="uni0E41" unicode="&#xe41;" horiz-adv-x="538" 
d="M192 -9q-34 0 -62 18.5t-28 64.5v443h57v-435q0 -44 45 -44q10 0 21.5 2.5t19.5 5.5l9 -43q-15 -7 -31.5 -9.5t-30.5 -2.5zM452 -9q-34 0 -62 18.5t-28 64.5v443h57v-435q0 -44 45 -44q10 0 21.5 2.5t19.5 5.5l9 -43q-15 -7 -31.5 -9.5t-30.5 -2.5z" />
    <glyph glyph-name="uni0E42" unicode="&#xe42;" horiz-adv-x="286" 
d="M203 -9q-35 0 -62.5 18.5t-27.5 64.5v546q0 53 -26 79.5t-72 26.5v25l53 23h254v-48h-202l-1 -4q24 -15 37.5 -42.5t13.5 -73.5v-524q0 -44 45 -44q10 0 21.5 2.5t19.5 5.5l9 -43q-15 -7 -31.5 -9.5t-30.5 -2.5z" />
    <glyph glyph-name="uni0E43" unicode="&#xe43;" horiz-adv-x="274" 
d="M182 -9q-35 0 -63 18.5t-28 64.5v380q0 26 6 43t19.5 34t33.5 42q24 29 36.5 48.5t12.5 44.5q0 32 -20.5 47t-54.5 15q-30 0 -56.5 -7.5t-42.5 -16.5v52q13 6 42 13.5t63 7.5q57 0 91.5 -26t34.5 -77q0 -36 -15.5 -63t-37.5 -53q-19 -24 -31 -39.5t-18 -30t-6 -36.5v-370
q0 -44 44 -44q12 0 23 2.5t19 5.5l10 -43q-15 -7 -31.5 -9.5t-30.5 -2.5z" />
    <glyph glyph-name="uni0E44" unicode="&#xe44;" horiz-adv-x="276" 
d="M192 -9q-34 0 -62 18.5t-28 64.5v532q0 54 13 77.5t35 39.5l-1 3h-156l15 48h241v-46q-42 -2 -66 -26.5t-24 -81.5v-538q0 -44 45 -44q10 0 21.5 2.5t19.5 5.5l9 -43q-15 -7 -31.5 -9.5t-30.5 -2.5z" />
    <glyph glyph-name="uni0E45" unicode="&#xe45;" horiz-adv-x="407" 
d="M263 -190v565q0 51 -26 76t-85 25q-33 0 -67.5 -9.5t-64.5 -24.5v54q22 10 59 20t85 10q76 0 116 -34t40 -106v-576h-57z" />
    <glyph glyph-name="uni0E46" unicode="&#xe46;" horiz-adv-x="589" 
d="M446 -186v594q0 37 -17 53.5t-46 16.5q-63 0 -63 -70v-40h-50v40q0 34 -16.5 52t-45.5 18q-33 0 -50.5 -25t-17.5 -81q0 -66 18 -91t55 -25q19 0 41 8l12 -44q-16 -7 -31 -9.5t-31 -2.5q-63 0 -91.5 41t-28.5 121q0 84 32 120t84 36q33 0 59.5 -14.5t36.5 -41.5h2
q22 56 98 56q44 0 75 -25t31 -83v-604h-56z" />
    <glyph glyph-name="uni0E47" unicode="&#xe47;" 
d="M-186 593q-31 0 -52 13.5t-34 38.5l-54 -49q-52 0 -83.5 27.5t-31.5 78.5q0 52 31.5 79.5t75.5 27.5h232v-43h-221q-29 0 -49 -16.5t-20 -51.5q0 -27 15 -43.5t44 -16.5l61 54h18q6 -26 21 -41.5t41 -15.5q21 0 33 12t12 32v13h45v-14q0 -43 -24 -64t-60 -21z" />
    <glyph glyph-name="uni0E48" unicode="&#xe48;" 
d="M-154 606v200h57v-200h-57z" />
    <glyph glyph-name="uni0E49" unicode="&#xe49;" 
d="M-354 606v30q39 8 70.5 27t31.5 51q0 18 -10.5 29t-31.5 11q-12 0 -24 -5t-22 -9l-14 38q20 14 40 18t34 4q38 0 59 -20.5t21 -54.5q0 -22 -11 -41t-26 -32h173v-46h-290z" />
    <glyph glyph-name="uni0E4A" unicode="&#xe4a;" 
d="M-321 600q-43 0 -68.5 25.5t-25.5 71.5t25 71.5t67 29.5l55 -36l54 36q46 -8 70 -32t24 -60q0 -35 -24 -58h90v-42h-162v28q20 7 33 22.5t13 38.5q0 29 -15 42t-31 17l-48 -30h-8l-48 30q-16 -2 -30.5 -14t-14.5 -44q0 -28 15 -43t39 -15q12 0 24 5l9 -34q-14 -9 -43 -9z
" />
    <glyph glyph-name="uni0E4B" unicode="&#xe4b;" 
d="M-226 606v76h-82v44h82v80h50v-80h82v-44h-82v-76h-50z" />
    <glyph glyph-name="uni0E4C" unicode="&#xe4c;" 
d="M-247 590q-13 21 -13 52q0 28 19 47.5t65 19.5h129v-47h-115q-44 0 -44 -32q0 -16 10 -31z" />
    <glyph glyph-name="uni0E4D" unicode="&#xe4d;" 
d="M-157 580q-43 0 -70 22t-27 64t27 64t70 22t70.5 -22t27.5 -64t-27.5 -64t-70.5 -22zM-157 615q26 0 41 14t15 37t-15 37t-41 14t-40.5 -14t-14.5 -37t14.5 -37t40.5 -14z" />
    <glyph glyph-name="uni0E4E" unicode="&#xe4e;" 
d="M-248 580q-5 8 -8.5 20.5t-3.5 23.5q0 32 21 47t47 15q20 0 34 -8q-4 11 -4 22q0 27 20.5 40.5t47.5 13.5q10 0 23 -2t23 -6v-36q-10 2 -19 3t-15 1q-40 0 -40 -34q0 -6 2 -13t6 -13l-26 -19q-19 14 -38 14q-20 0 -29.5 -10t-9.5 -25q0 -6 2.5 -13t6.5 -14z" />
    <glyph glyph-name="uni0E4F" unicode="&#xe4f;" horiz-adv-x="581" 
d="M290 -5q-112 0 -168.5 61.5t-56.5 171.5q0 232 225 232q226 0 226 -232q0 -110 -56.5 -171.5t-169.5 -61.5zM290 42q84 0 127 48t43 138q0 94 -43 139t-127 45t-126.5 -45t-42.5 -139q0 -90 42.5 -138t126.5 -48zM290 128q-44 0 -65 27.5t-21 72.5q0 98 86 98t86 -98
q0 -45 -21 -72.5t-65 -27.5z" />
    <glyph glyph-name="uni0E50" unicode="&#xe50;" horiz-adv-x="566" 
d="M283 -10q-107 0 -163 63.5t-56 174.5q0 116 56 176t163 60t163 -60t56 -176q0 -111 -56 -174.5t-163 -63.5zM283 39q78 0 119.5 49.5t41.5 139.5q0 94 -41.5 140.5t-119.5 46.5q-79 0 -120 -46.5t-41 -140.5q0 -90 41 -139.5t120 -49.5z" />
    <glyph glyph-name="uni0E51" unicode="&#xe51;" horiz-adv-x="542" 
d="M270 -10q-45 0 -72 10v48q10 -4 26.5 -7t36.5 -3q85 0 122 53t37 143q0 98 -41 139.5t-118 41.5q-68 0 -107 -31.5t-39 -93.5q0 -49 24 -76.5t65 -27.5q19 0 32 4l8 -44q-10 -6 -23 -8.5t-27 -2.5q-64 0 -100 42.5t-36 112.5q0 86 55 130t149 44q110 0 163 -58t53 -170
q0 -71 -21.5 -126.5t-67.5 -87.5t-119 -32z" />
    <glyph glyph-name="uni0E52" unicode="&#xe52;" horiz-adv-x="616" 
d="M317 -10q-127 0 -186 59.5t-59 155.5v379h55v-374q0 -48 18.5 -87t60.5 -61.5t111 -22.5t107.5 22.5t54 61.5t15.5 87v141q0 35 -13 50t-35 15q-27 0 -37.5 -19t-12.5 -49h-38q-2 32 -13.5 50t-37.5 18q-49 0 -49 -80q0 -39 13 -60.5t45 -21.5q8 0 17 2.5t17 5.5l11 -41
q-25 -13 -51 -13q-56 0 -81 36t-25 94q0 64 26 94t68 30q29 0 49.5 -14t28.5 -40h3q8 27 29.5 40.5t49.5 13.5q36 0 64 -23t28 -81v-153q0 -64 -23 -112.5t-74 -75.5t-136 -27z" />
    <glyph glyph-name="uni0E53" unicode="&#xe53;" horiz-adv-x="555" 
d="M210 -10q-78 0 -112 67t-34 185q0 80 17 129t46.5 71t66.5 22q30 0 53.5 -13t32.5 -44h4q9 31 34.5 44t57.5 13q47 0 78.5 -28t31.5 -90v-346h-57v346q0 40 -18.5 55t-44.5 15q-22 0 -41.5 -13.5t-24.5 -52.5h-38q-4 39 -22 52.5t-38 13.5q-33 0 -57 -39t-24 -133
q0 -104 24 -155.5t79 -51.5q18 0 37 7l7 -44q-23 -10 -58 -10z" />
    <glyph glyph-name="uni0E54" unicode="&#xe54;" horiz-adv-x="546" 
d="M260 0q-98 0 -147 53t-49 173q0 111 45 172.5t141 61.5h62q58 0 76 20t18 66v38h56v-42q0 -64 -31 -97.5t-103 -33.5h-66q-71 0 -106 -44.5t-35 -141.5q0 -96 35 -136.5t110 -40.5h81q-41 38 -41 106q0 62 27.5 91t70.5 29q26 0 48 -10l-16 -40q-6 2 -13 3t-11 1
q-24 0 -39 -19.5t-15 -58.5q0 -48 23 -76t57 -28h48v-46h-226z" />
    <glyph glyph-name="uni0E55" unicode="&#xe55;" horiz-adv-x="546" 
d="M260 0q-100 0 -148 54.5t-48 176.5q0 105 38.5 156t97.5 65q-12 9 -20 24t-8 35q0 36 23.5 56.5t62.5 20.5q40 0 63 -21.5t23 -55.5q0 -33 -21 -53q51 3 69 22.5t18 68.5v35h52v-41q0 -68 -34 -100.5t-113 -32.5h-57q-137 0 -137 -182q0 -98 34.5 -139t110.5 -41h79
q-39 41 -39 106q0 62 28 90.5t70 28.5q28 0 48 -9l-16 -41q-6 2 -13 3t-11 1q-24 0 -39 -19.5t-15 -59.5q0 -46 23 -74t57 -28h48v-46h-226zM258 462q24 0 36 13.5t12 32.5q0 20 -12 33t-36 13t-35.5 -13t-11.5 -33q0 -19 11.5 -32.5t35.5 -13.5z" />
    <glyph glyph-name="uni0E56" unicode="&#xe56;" horiz-adv-x="528" 
d="M261 -10q-55 0 -97 17t-74 55l38 36q24 -27 54.5 -43.5t77.5 -16.5q75 0 111 47t36 145q0 96 -35 141t-106 45q-48 0 -80 -20t-46 -63h-37l-69 251h54l50 -177q23 31 58 44t76 13q97 0 144.5 -61t47.5 -177q0 -122 -52.5 -179t-150.5 -57z" />
    <glyph glyph-name="uni0E57" unicode="&#xe57;" horiz-adv-x="714" 
d="M213 -10q-80 0 -114.5 66.5t-34.5 189.5q0 88 18 135t47 65t60 18t51.5 -13t30.5 -44h3q10 32 35 44.5t55 12.5q42 0 71 -24.5t29 -80.5v-310q52 0 85 26.5t33 94.5v414h56v-416q0 -63 -25.5 -99.5t-67.5 -52.5t-91 -16h-46v350q0 34 -15 50t-41 16t-41 -15t-20 -51h-38
q-5 36 -19.5 51t-37.5 15q-33 0 -54 -37t-21 -131q0 -110 23.5 -160.5t79.5 -50.5q19 0 37 8l7 -45q-23 -10 -55 -10z" />
    <glyph glyph-name="uni0E58" unicode="&#xe58;" horiz-adv-x="566" 
d="M384 -10q-47 0 -74 23.5t-36 66.5l-68 -85q-58 0 -100 54.5t-42 173.5q0 71 19 124.5t62.5 82.5t116.5 29h62q40 0 61 6.5t28 25.5t7 55v38h55v-44q0 -70 -30.5 -100t-101.5 -30h-73q-84 0 -117 -48t-33 -136q0 -90 24.5 -130.5t51.5 -45.5l74 88h36q2 -52 20 -75.5
t53 -23.5q38 0 56 25.5t18 66.5q0 44 -17 66.5t-37 35.5l35 41q36 -21 55 -55t19 -85q0 -65 -32 -104.5t-92 -39.5z" />
    <glyph glyph-name="uni0E59" unicode="&#xe59;" horiz-adv-x="500" 
d="M212 -10q-80 0 -114 67t-34 181q0 84 16.5 133.5t47.5 71t74 21.5q32 0 51.5 -11t32.5 -34q7 22 23.5 33.5t45.5 11.5h28q25 0 34 12t9 40v68h54v-72q0 -45 -19 -68.5t-62 -23.5h-33q-30 0 -42.5 -20t4.5 -60l142 -340h-60l-148 363q-10 25 -23.5 39t-37.5 14
q-36 0 -58 -39t-22 -139q0 -91 22.5 -146t79.5 -55q8 0 18 1.5t19 5.5l6 -45q-24 -9 -54 -9z" />
    <glyph glyph-name="uni0E5A" unicode="&#xe5a;" horiz-adv-x="754" 
d="M349 -1v287q-20 -33 -57 -48t-88 -15q-86 0 -132.5 42.5t-46.5 120.5q0 66 39 103t104 37q14 0 29.5 -2t32.5 -9l-10 -44q-11 4 -22.5 5.5t-19.5 1.5q-41 0 -68 -22.5t-27 -73.5q0 -54 32.5 -83t97.5 -29q71 0 103.5 34t32.5 96v117h57v-229q9 -4 22 -6.5t28 -2.5
q60 0 96 30.5t36 98.5v109h58v-518h-58v294q-19 -32 -53 -46.5t-74 -14.5q-29 0 -55 9v-242h-57z" />
    <glyph glyph-name="uni0E5B" unicode="&#xe5b;" horiz-adv-x="826" 
d="M226 75q-82 0 -130 46.5t-48 131.5q0 43 14.5 79t45.5 57t80 21q60 0 93 -30.5t33 -81.5q0 -22 -6 -42t-16 -34l-42 22q6 9 10 21t4 27q0 34 -21 53t-55 19q-45 0 -65 -31t-20 -77q0 -68 35 -101t92 -33q52 0 87 27t52 72.5t17 100.5h38l64 -130l36 122h32l46 -114
l36 106h28l8 -24q15 -43 29.5 -64.5t50.5 -21.5q20 0 32 6v-40q-8 -3 -17 -5.5t-21 -2.5q-69 0 -99 83l-31 -98h-28l-48 119l-36 -129h-30l-56 119q-5 -27 -16.5 -57t-34 -56.5t-57.5 -43t-86 -16.5z" />
    <glyph glyph-name="uni200B" unicode="&#x200b;" 
 />
    <glyph glyph-name="uni200C" unicode="&#x200c;" 
d="M-21 -133v761h42v-761h-42z" />
    <glyph glyph-name="uni200D" unicode="&#x200d;" 
d="M-21 -133v668l-62 -62l-26 27l82 82l-82 81l26 27l83 -83l83 83l26 -27l-82 -81l82 -82l-26 -27l-62 62v-668h-42z" />
    <glyph glyph-name="uni2010" unicode="&#x2010;" horiz-adv-x="322" 
d="M40 244v52h242v-52h-242z" />
    <glyph glyph-name="uni25CC" unicode="&#x25cc;" horiz-adv-x="594" 
d="M297 488q-11 0 -18.5 8t-7.5 18t7.5 18t18.5 8t18.5 -8t7.5 -18t-7.5 -18t-18.5 -8zM213 470q-11 0 -18.5 8t-7.5 18t7.5 18t18.5 8t18.5 -8t7.5 -18t-7.5 -18t-18.5 -8zM381 470q-11 0 -18.5 8t-7.5 18t7.5 18t18.5 8t18.5 -8t7.5 -18t-7.5 -18t-18.5 -8zM455 423
q-11 0 -18.5 7.5t-7.5 18.5t7.5 18.5t18.5 7.5t18.5 -7.5t7.5 -18.5t-7.5 -18.5t-18.5 -7.5zM139 423q-11 0 -18.5 7.5t-7.5 18.5t7.5 18.5t18.5 7.5t18.5 -7.5t7.5 -18.5t-7.5 -18.5t-18.5 -7.5zM92 349q-10 0 -18 7.5t-8 18.5t8 18.5t18 7.5t18 -7.5t8 -18.5t-8 -18.5
t-18 -7.5zM502 349q-10 0 -18 7.5t-8 18.5t8 18.5t18 7.5t18 -7.5t8 -18.5t-8 -18.5t-18 -7.5zM74 265q-10 0 -18 7.5t-8 18.5t8 18.5t18 7.5t18 -7.5t8 -18.5t-8 -18.5t-18 -7.5zM520 265q-10 0 -18 7.5t-8 18.5t8 18.5t18 7.5t18 -7.5t8 -18.5t-8 -18.5t-18 -7.5zM92 181
q-10 0 -18 7.5t-8 18.5t8 18.5t18 7.5t18 -7.5t8 -18.5t-8 -18.5t-18 -7.5zM502 181q-10 0 -18 7.5t-8 18.5t8 18.5t18 7.5t18 -7.5t8 -18.5t-8 -18.5t-18 -7.5zM139 107q-11 0 -18.5 7.5t-7.5 18.5t7.5 18.5t18.5 7.5t18.5 -7.5t7.5 -18.5t-7.5 -18.5t-18.5 -7.5zM455 107
q-11 0 -18.5 7.5t-7.5 18.5t7.5 18.5t18.5 7.5t18.5 -7.5t7.5 -18.5t-7.5 -18.5t-18.5 -7.5zM213 60q-11 0 -18.5 8t-7.5 18t7.5 18t18.5 8t18.5 -8t7.5 -18t-7.5 -18t-18.5 -8zM381 60q-11 0 -18.5 8t-7.5 18t7.5 18t18.5 8t18.5 -8t7.5 -18t-7.5 -18t-18.5 -8zM297 42
q-11 0 -18.5 8t-7.5 18t7.5 18t18.5 8t18.5 -8t7.5 -18t-7.5 -18t-18.5 -8z" />
    <glyph glyph-name="saraUu-thai.small" horiz-adv-x="600" 
d="M94 0v714h411v-714h-411zM145 51h309v612h-309v-612z" />
    <glyph glyph-name="uni0E24.aalt" horiz-adv-x="589" 
d="M193 -8q-43 0 -74.5 21t-31.5 75v102q0 57 28.5 83.5t70.5 36.5v3l-114 41v24q0 38 25 72t73 55t117 21q61 0 109.5 -19t77 -58t28.5 -99v-465h-57v457q0 70 -44.5 102t-114.5 32q-72 0 -114 -29t-42 -73l114 -49l-6 -38q-39 -2 -66.5 -21.5t-27.5 -69.5v-104
q0 -27 15.5 -40t43.5 -13q12 0 24.5 2.5t22.5 5.5l9 -42q-33 -13 -66 -13z" />
    <glyph glyph-name="uni0E26.aalt" horiz-adv-x="590" 
d="M80 -8q-28 0 -55 11l8 42q7 -2 15 -4t16 -2q18 0 24.5 9.5t6.5 30.5v113q0 56 24.5 82t66.5 36l2 3l-116 41v24q0 38 25.5 72t74 55t116.5 21q61 0 110 -19t77.5 -58t28.5 -99v-465h-58v457q0 70 -44.5 102t-113.5 32q-74 0 -115 -29t-41 -73l114 -49l-8 -38
q-38 -2 -62 -24.5t-24 -72.5v-117q0 -47 -20.5 -64t-51.5 -17z" />
    <glyph glyph-name="doChada-thai.short" horiz-adv-x="590" 
d="M129 -115v5q0 44 32 71.5t102 27.5q95 0 183 -57v410q0 70 -45 102t-115 32q-72 0 -113 -29t-41 -73l114 -49l-8 -38q-38 -2 -62 -24.5t-24 -72.5v-117q0 -46 -21 -63.5t-52 -17.5q-29 0 -54 12l8 42q16 -7 31 -7q18 0 24.5 10t6.5 31v112q0 56 24.5 82t66.5 36l2 3
l-116 41v24q0 38 25.5 72t74 55t116.5 21q61 0 110 -19t77.5 -58t28.5 -99v-465h-51q-46 33 -92 47.5t-84 14.5q-52 0 -70.5 -19t-18.5 -39v-4h-59z" />
    <glyph glyph-name="toPatak-thai.short" horiz-adv-x="590" 
d="M83 -115v11q0 43 29.5 64.5t73.5 21.5t73 -17.5t43 -38.5l69 50l75 -44v410q0 70 -45 102t-115 32q-72 0 -113 -29t-41 -73l114 -49l-8 -38q-38 -2 -62 -24.5t-24 -72.5v-117q0 -46 -21 -63.5t-53 -17.5q-28 0 -53 12l8 42q16 -7 31 -7q18 0 24.5 10t6.5 31v112
q0 56 24.5 82t66.5 36l2 3l-116 41v24q0 38 25.5 72t74 55t116.5 21q61 0 110 -19t77.5 -58t28.5 -99v-465h-52l-80 47l-63 -47h-21q-15 23 -37.5 38t-54.5 15q-30 0 -44 -13.5t-14 -33.5v-6h-55z" />
    <glyph glyph-name="yoYing-thai.less" horiz-adv-x="886" 
d="M607 -10q-190 0 -190 174v180q0 74 -41.5 103.5t-103.5 29.5q-63 0 -102 -27.5t-40 -75.5l114 -49l-6 -38q-39 -2 -66.5 -23.5t-27.5 -71.5v-99q0 -28 15.5 -41t43.5 -13q12 0 24.5 2.5t22.5 5.5l9 -42q-33 -13 -66 -13q-43 0 -74.5 21t-31.5 75v102q0 57 28.5 83.5
t70.5 36.5v3l-114 41v24q0 41 24 74.5t69.5 53.5t108.5 20q54 0 99.5 -18t73 -56.5t27.5 -100.5v-187q0 -64 36 -94.5t97 -30.5q60 0 97.5 30.5t37.5 94.5v353h57v-353q0 -86 -49 -130t-143 -44z" />
    <glyph glyph-name="thoThan-thai.less" horiz-adv-x="540" 
d="M154 0v245h-74v45h130v-242h14q52 0 90 20t59 66t21 126q0 118 -42 167t-140 49q-92 0 -172 -46v54q28 16 76 29t104 13q102 0 151 -44q27 8 47 24t20 45h58q0 -39 -27 -64.5t-67 -36.5q28 -31 40 -79.5t12 -111.5q0 -133 -58 -196t-186 -63h-56z" />
    <glyph glyph-name="loChula-thai.short" horiz-adv-x="642" 
d="M120 0l-73 517h58l39 -277q5 -39 9.5 -77.5t8.5 -85.5h4q12 33 25.5 66.5t34.5 82.5l69 160h46l73 -160q15 -33 30.5 -71.5t32.5 -84.5h5q4 52 11 92t13 76l16 102q9 56 -8.5 79.5t-78.5 23.5h-48v43h85q50 0 69 15t20 50h57q1 -41 -21.5 -65t-64.5 -30v-4
q32 -12 41.5 -39t2.5 -67l-59 -346h-59l-98 224q-12 28 -22 55t-17 52h-4q-7 -25 -17 -52t-22 -55l-98 -224h-60z" />
    <glyph glyph-name="macronbelowcomb.alt" 
d="M-120 -89v-47h-556v47h556z" />
    <glyph glyph-name="uni0E31.aalt" 
d="M-388 606q-48 0 -69 20t-21 48q0 12 4 26.5t8 23.5l50 -8q-3 -5 -4.5 -14.5t-1.5 -17.5q0 -14 8.5 -23t29.5 -9h174v-46h-178z" />
    <glyph glyph-name="glyph99" 
d="M-151 806v153h55v-153h-55z" />
    <glyph glyph-name="glyph100" 
d="M-332 606v200h58v-200h-58z" />
    <glyph glyph-name="glyph102" 
d="M-230 806v26q34 6 55 22t21 38q0 28 -29 28q-10 0 -19.5 -4t-17.5 -8l-14 34q16 10 34 13.5t31 3.5q26 0 44.5 -14.5t18.5 -42.5q0 -14 -4.5 -27t-16.5 -23h122v-46h-225z" />
    <glyph glyph-name="glyph103" 
d="M-456 606v30q38 8 69 27t31 51q0 18 -10 29t-31 11q-11 0 -23.5 -5l-22.5 -9l-15 38q20 14 40.5 18t34.5 4q37 0 59 -21t22 -55q0 -47 -42 -72h133v-46h-245z" />
    <glyph glyph-name="glyph105" 
d="M-194 802q-36 0 -57 22.5t-21 56.5q0 35 22 56.5t60 23.5l49 -35l47 35q33 -4 55.5 -21t22.5 -47q0 -32 -21 -49h81v-38h-144v27q18 5 29 18t11 31t-10 28.5t-24 13.5l-44 -32h-6l-46 32q-15 -2 -26.5 -12t-11.5 -31q0 -19 10.5 -31t31.5 -12q4 0 10 0.5t10 2.5l8 -32
q-14 -7 -36 -7z" />
    <glyph glyph-name="glyph106" 
d="M-434 600q-42 0 -66 25.5t-24 71.5t23.5 71.5t62.5 29.5l48 -36l48 36q41 -7 64.5 -30.5t23.5 -61.5q0 -34 -20 -57h74v-43h-144v28q19 7 31.5 22t12.5 40q0 27 -14 41.5t-32 18.5l-40 -30h-8l-40 30q-16 -2 -30.5 -16t-14.5 -43q0 -26 13.5 -42.5t37.5 -16.5q13 0 26 5
l8 -34q-14 -9 -40 -9z" />
    <glyph glyph-name="glyph108" 
d="M-150 806v56h-58v42h58v56h50v-56h58v-42h-58v-56h-50z" />
    <glyph glyph-name="glyph110" 
d="M-207 789q-7 10 -10 23.5t-3 27.5q0 28 19 48t65 20h124v-46h-110q-44 0 -44 -33q0 -7 2.5 -15t6.5 -16z" />
    <glyph glyph-name="glyph111" 
d="M-424 576q-6 9 -9 23t-3 29q0 27 18.5 46.5t64.5 19.5h143v-46h-128q-44 0 -44 -33q0 -15 8 -31z" />
    <glyph glyph-name="uni0E47.aalt" 
d="M-288 590q-28 0 -48 13.5t-32 38.5l-41 -48q-53 0 -83 27t-30 79t31 79t73 27h208v-42h-198q-28 0 -46.5 -16.5t-18.5 -51.5q0 -27 14.5 -43.5t42.5 -16.5l47 54h20q11 -58 53 -58t42 45v13h44v-14q0 -44 -22.5 -65t-55.5 -21z" />
    <glyph glyph-name="uni0E34.aalt" 
d="M-543 606v26l50 21h282v-47h-332z" />
    <glyph glyph-name="uni0E35.aalt" 
d="M-543 606v26l50 20h228v75h54v-121h-332z" />
    <glyph glyph-name="uni0E36.aalt" 
d="M-542 606v26l50 20h146q-6 13 -6 28q0 35 23 54.5t58 19.5q37 0 59.5 -20t22.5 -55q0 -34 -22.5 -53.5t-58.5 -19.5h-272zM-270 639q19 0 30.5 11t11.5 30q0 18 -12 29t-31 11t-31 -11t-12 -29t11.5 -29.5t32.5 -11.5z" />
    <glyph glyph-name="uni0E37.aalt" 
d="M-543 606v26l50 20h127v82h48v-82h60v82h48v-128h-333z" />
    <glyph glyph-name="nikhahit_maiEk-thai" 
d="M-157 578q-43 0 -70 22t-27 64t27 64t70 22t70.5 -22t27.5 -64t-27.5 -64t-70.5 -22zM-157 613q26 0 41 14t15 37t-15 37t-41 14t-40.5 -14t-14.5 -37t14.5 -37t40.5 -14zM-183 809v153h55v-153h-55z" />
    <glyph glyph-name="nikhahit_maiTho-thai" 
d="M-157 578q-43 0 -70 22t-27 64t27 64t70 22t70.5 -22t27.5 -64t-27.5 -64t-70.5 -22zM-157 613q26 0 41 14t15 37t-15 37t-41 14t-40.5 -14t-14.5 -37t14.5 -37t40.5 -14zM-262 809v26q34 6 55 22t21 38q0 28 -29 28q-10 0 -19.5 -4t-17.5 -8l-14 34q16 10 34 13.5
t31 3.5q26 0 44.5 -14.5t18.5 -42.5q0 -14 -4.5 -27t-16.5 -23h122v-46h-225z" />
    <glyph glyph-name="nikhahit_maiTri-thai" 
d="M-157 578q-43 0 -70 22t-27 64t27 64t70 22t70.5 -22t27.5 -64t-27.5 -64t-70.5 -22zM-157 613q26 0 41 14t15 37t-15 37t-41 14t-40.5 -14t-14.5 -37t14.5 -37t40.5 -14zM-226 805q-36 0 -57 22.5t-21 56.5q0 35 22 56.5t60 23.5l49 -35l47 35q33 -4 55.5 -21t22.5 -47
q0 -32 -21 -49h81v-38h-144v27q18 5 29 18t11 31t-10 28.5t-24 13.5l-44 -32h-6l-46 32q-15 -2 -26.5 -12t-11.5 -31q0 -19 10.5 -31t31.5 -12q4 0 10 0.5t10 2.5l8 -32q-14 -7 -36 -7z" />
    <glyph glyph-name="nikhahit_maiChattawa-thai" 
d="M-157 578q-43 0 -70 22t-27 64t27 64t70 22t70.5 -22t27.5 -64t-27.5 -64t-70.5 -22zM-157 613q26 0 41 14t15 37t-15 37t-41 14t-40.5 -14t-14.5 -37t14.5 -37t40.5 -14zM-182 809v56h-58v42h58v56h50v-56h58v-42h-58v-56h-50z" />
    <glyph glyph-name="uni0E3A.aalt" 
d="M-120 -232q-23 0 -37 11.5t-14 33.5q0 23 14 34t37 11q24 0 38 -11t14 -34q0 -22 -14 -33.5t-38 -11.5z" />
    <glyph glyph-name="uni0E38.aalt" 
d="M-139 -254v43q0 25 -21 25q-4 0 -10 -1t-11 -3l-5 40q12 4 24.5 6t21.5 2q54 0 54 -48v-64h-53z" />
    <glyph glyph-name="uni0E39.aalt" 
d="M-200 -254q-58 0 -82 16t-24 41v6q0 18 -22 13l-4 36q15 3 28 3q50 0 50 -39v-6q0 -19 13.5 -26.5t42.5 -7.5q32 0 46 8t14 28v40h52v-42q0 -70 -114 -70z" />
    <glyph glyph-name="maiChattawa-thai.narrow" 
d="M-360 606v76h-80v44h80v80h51v-80h81v-44h-81v-76h-51z" />
    <glyph glyph-name="nikhahit-thai.narrow" 
d="M-329 577q-43 0 -70 22t-27 64t27 64t70 22t70.5 -22t27.5 -64t-27.5 -64t-70.5 -22zM-329 612q26 0 41 14t15 37t-15 37t-41 14t-40.5 -14t-14.5 -37t14.5 -37t40.5 -14z" />
    <glyph glyph-name="nikhahit_maiEk-thai.narrow" 
d="M-317 575q-43 0 -70 22t-27 64t27 64t70 22t70.5 -22t27.5 -64t-27.5 -64t-70.5 -22zM-317 610q26 0 41 14t15 37t-15 37t-41 14t-40.5 -14t-14.5 -37t14.5 -37t40.5 -14zM-343 806v153h55v-153h-55z" />
    <glyph glyph-name="nikhahit_maiTho-thai.narrow" 
d="M-316 575q-43 0 -70 22t-27 64t27 64t70 22t70.5 -22t27.5 -64t-27.5 -64t-70.5 -22zM-316 610q26 0 41 14t15 37t-15 37t-41 14t-40.5 -14t-14.5 -37t14.5 -37t40.5 -14zM-421 806v26q34 6 55 22t21 38q0 28 -29 28q-10 0 -19.5 -4t-17.5 -8l-14 34q16 10 34 13.5
t31 3.5q26 0 44.5 -14.5t18.5 -42.5q0 -14 -4.5 -27t-16.5 -23h122v-46h-225z" />
    <glyph glyph-name="nikhahit_maiTri-thai.narrow" 
d="M-317 575q-43 0 -70 22t-27 64t27 64t70 22t70.5 -22t27.5 -64t-27.5 -64t-70.5 -22zM-317 610q26 0 41 14t15 37t-15 37t-41 14t-40.5 -14t-14.5 -37t14.5 -37t40.5 -14zM-386 802q-36 0 -57 22.5t-21 56.5q0 35 22 56.5t60 23.5l49 -35l47 35q33 -4 55.5 -21t22.5 -47
q0 -32 -21 -49h81v-38h-144v27q18 5 29 18t11 31t-10 28.5t-24 13.5l-44 -32h-6l-46 32q-15 -2 -26.5 -12t-11.5 -31q0 -19 10.5 -31t31.5 -12q4 0 10 0.5t10 2.5l8 -32q-14 -7 -36 -7z" />
    <glyph glyph-name="nikhahit_maiChattawa-thai.narrow" 
d="M-316 575q-43 0 -70 22t-27 64t27 64t70 22t70.5 -22t27.5 -64t-27.5 -64t-70.5 -22zM-316 610q26 0 41 14t15 37t-15 37t-41 14t-40.5 -14t-14.5 -37t14.5 -37t40.5 -14zM-341 806v56h-58v42h58v56h50v-56h58v-42h-58v-56h-50z" />
    </font>
</defs>
</svg>
