<?xml version="1.0" standalone="no"?>
<!DOCTYPE svg PUBLIC "-//W3C//DTD SVG 1.1//EN" "http://www.w3.org/Graphics/SVG/1.1/DTD/svg11.dtd" >
<svg xmlns="http://www.w3.org/2000/svg" xmlns:xlink="http://www.w3.org/1999/xlink" version="1.1">
<metadata>
Created by FontForge 20170731 at Wed Sep 20 01:00:59 2017
 By Aleksey,,,
Copyright 2016 Google Inc. All Rights Reserved.
</metadata>
<defs>
<font id="NotoSansThaiUI-Bold" horiz-adv-x="0" >
  <font-face 
    font-family="Noto Sans Thai UI"
    font-weight="700"
    font-stretch="normal"
    units-per-em="1000"
    panose-1="2 11 8 2 4 5 4 2 2 4"
    ascent="800"
    descent="-200"
    bbox="-736 -265 906 1028"
    underline-thickness="50"
    underline-position="-175"
    unicode-range="U+000D-25CC"
  />
<missing-glyph horiz-adv-x="364" 
d="M33 0v666h265v-666h-265zM66 33h199v600h-199v-600z" />
    <glyph glyph-name="ru_lakkhangyao-thai" unicode="&#xe24;&#xe45;" horiz-adv-x="964" 
d="M405 -202v519q0 47 -26.5 70t-75.5 23q-47 0 -70 -17.5t-24 -42.5l87 -36l-10 -62q-37 -2 -56 -16t-19 -52v-54q0 -38 40 -38q20 0 35 6l14 -88q-19 -9 -43 -14.5t-51 -5.5q-64 0 -102.5 31.5t-38.5 93.5v52q0 55 25.5 84t72.5 42l1 4l-109 36v24q0 47 28.5 86.5t82.5 63
t130 23.5q72 0 119.5 -22t72.5 -62h4q22 40 70 62t117 22q109 0 162 -54t53 -142v-536h-150v517q0 49 -25 72t-69 23q-45 0 -70 -24t-25 -73v-515h-150z" />
    <glyph glyph-name="lu_lakkhangyao-thai" unicode="&#xe26;&#xe45;" horiz-adv-x="976" 
d="M417 -202v519q0 47 -26.5 70t-75.5 23q-47 0 -70 -17.5t-24 -42.5l87 -35l-11 -63q-29 -1 -43 -17.5t-14 -53.5v-77q0 -62 -35.5 -88t-90.5 -26q-28 0 -51 6t-41 15l14 82q12 -4 26 -4q32 0 32 32v67q0 86 81 105l1 4l-109 36v24q0 47 28 86.5t83 63t135 23.5
q69 0 117 -22t70 -62h3q23 40 71 62t116 22q110 0 163 -54t53 -142v-536h-150v517q0 49 -25.5 72t-69.5 23t-69 -24t-25 -73v-515h-150z" />
    <glyph glyph-name=".notdef" horiz-adv-x="364" 
d="M33 0v666h265v-666h-265zM66 33h199v600h-199v-600z" />
    <glyph glyph-name=".null" 
 />
    <glyph glyph-name="nonmarkingreturn" horiz-adv-x="333" 
 />
    <glyph glyph-name="NULL" 
 />
    <glyph glyph-name="NULL" 
 />
    <glyph glyph-name="CR" unicode="&#xd;" horiz-adv-x="260" 
 />
    <glyph glyph-name="space" unicode=" " horiz-adv-x="260" 
 />
    <glyph glyph-name="hyphen" unicode="-" horiz-adv-x="322" 
d="M30 207v122h262v-122h-262z" />
    <glyph glyph-name="uni00A0" unicode="&#xa0;" horiz-adv-x="260" 
 />
    <glyph glyph-name="uni02BC" unicode="&#x2bc;" horiz-adv-x="217" 
d="M202 714l7 -11q-13 -53 -35.5 -116t-45.5 -118h-114q14 59 26.5 126t19.5 119h142z" />
    <glyph glyph-name="uni02D7" unicode="&#x2d7;" horiz-adv-x="218" 
d="M206 244h-194v62h194v-62z" />
    <glyph glyph-name="tildecomb" unicode="&#x303;" 
d="M-120 757q-6 -77 -39 -114t-80 -37q-27 0 -52.5 12.5t-50 25.5t-47.5 13q-11 0 -22.5 -13t-16.5 -39h-76q6 78 38 114.5t82 36.5q24 0 49.5 -13t50.5 -25.5t48 -12.5q11 0 22.5 13t16.5 39h77z" />
    <glyph glyph-name="uni0331" unicode="&#x331;" 
d="M-120 -76v-103h-322v103h322z" />
    <glyph glyph-name="uni0E01" unicode="&#xe01;" horiz-adv-x="624" 
d="M65 0v154q0 60 24.5 93t71.5 46l1 4l-107 36v24q0 47 29 86.5t85.5 63t137.5 23.5q113 0 180 -51t67 -151v-328h-150v319q0 45 -26.5 68t-74.5 23q-47 0 -70 -17.5t-24 -42.5l89 -37l-11 -64q-36 -2 -54 -24.5t-18 -59.5v-165h-150z" />
    <glyph glyph-name="uni0E02" unicode="&#xe02;" horiz-adv-x="592" 
d="M295 -13q-112 0 -169 47.5t-57 139.5v35q0 37 11 61.5t27 45.5t26.5 37.5t10.5 34.5q0 16 -9 23t-22 7q-17 0 -44 -11l-24 93q28 14 60.5 19.5t57.5 5.5q66 0 93.5 -30t27.5 -82q0 -28 -9 -50.5t-23 -45.5q-14 -22 -24 -40.5t-10 -53.5v-36q0 -43 20.5 -63t57.5 -20
q77 0 77 81v332h149v-336q0 -97 -58 -145.5t-169 -48.5z" />
    <glyph glyph-name="uni0E03" unicode="&#xe03;" horiz-adv-x="601" 
d="M301 -13q-118 0 -174.5 50t-56.5 140v28q0 42 16.5 74t48.5 64q10 10 21.5 22.5t12.5 25.5l-3 1q-10 -4 -20.5 -7t-22.5 -3q-37 0 -60.5 26t-23.5 73v36h107q0 -26 6.5 -37t22.5 -11q7 0 17 2.5t19 9.5l17 36h79v-66q0 -31 -4 -50.5t-12.5 -35t-23.5 -35.5
q-13 -18 -23.5 -31.5t-17 -31t-6.5 -46.5v-32q0 -43 21.5 -64t59.5 -21q42 0 61.5 21.5t19.5 59.5v332h149v-336q0 -97 -58.5 -145.5t-171.5 -48.5z" />
    <glyph glyph-name="uni0E04" unicode="&#xe04;" horiz-adv-x="646" 
d="M70 0v303q0 110 61 168.5t193 58.5q133 0 192.5 -58.5t59.5 -168.5v-303h-149v305q0 49 -24.5 77t-80.5 28q-55 0 -79.5 -28t-24.5 -77v-78l3 -1q19 37 45 48.5t73 11.5h23v-111h-23q-50 0 -76 -16t-35.5 -42.5t-9.5 -57.5v-59h-148z" />
    <glyph glyph-name="uni0E05" unicode="&#xe05;" horiz-adv-x="658" 
d="M70 0v398q0 67 39 99.5t104 32.5q43 0 73 -15t40 -46h5q11 31 41 46t73 15q65 0 104 -32.5t39 -99.5v-398h-149v358q0 28 -11.5 39.5t-28.5 11.5q-39 0 -42 -46h-58q-4 46 -42 46q-17 0 -28.5 -11.5t-11.5 -39.5v-131l3 -1q20 37 47 48.5t79 11.5h24v-111h-24
q-54 0 -81.5 -16t-37 -42.5t-9.5 -57.5v-59h-148z" />
    <glyph glyph-name="uni0E06" unicode="&#xe06;" horiz-adv-x="639" 
d="M388 -10q-70 0 -115.5 26t-62.5 65h-9l-16 -81h-111v197q0 46 14.5 80.5t48.5 65.5q14 13 24.5 25t11.5 23l-3 1q-10 -4 -20.5 -7t-22.5 -3q-37 0 -60.5 26t-23.5 73v36h107q0 -26 7 -37t22 -11q8 0 18 2.5t19 9.5l16 36h84v-66q0 -40 -8.5 -64t-33.5 -57
q-14 -20 -25.5 -34t-18 -29.5t-6.5 -39.5v-7q0 -45 29 -72t80 -27q41 0 63.5 21.5t22.5 75.5v299h150v-334q0 -92 -46.5 -142.5t-134.5 -50.5z" />
    <glyph glyph-name="uni0E07" unicode="&#xe07;" horiz-adv-x="571" 
d="M164 0l-159 517h151l121 -396h6q31 0 54 29q20 26 30 60.5t10 69.5q0 60 -25.5 92.5t-70.5 32.5q-19 0 -30 -4l-28 114q23 7 43 8.5t34 1.5q53 0 92 -13.5t67 -39.5q70 -65 70 -189q0 -77 -25.5 -134t-61.5 -90q-30 -27 -75.5 -43t-124.5 -16h-78z" />
    <glyph glyph-name="uni0E08" unicode="&#xe08;" horiz-adv-x="559" 
d="M115 0v215h-57v90h192v-191h7q49 0 76.5 36.5t27.5 108.5q0 85 -39 118.5t-114 33.5q-52 0 -94 -13.5t-75 -32.5v124q33 16 83 28.5t115 12.5q145 0 210.5 -66t65.5 -201q0 -127 -61.5 -195t-209.5 -68h-127z" />
    <glyph glyph-name="uni0E09" unicode="&#xe09;" horiz-adv-x="623" 
d="M247 -10q-83 0 -127.5 39t-44.5 127v139h144v-93q0 -44 20.5 -63t58.5 -19q49 0 77 29t28 83v73q0 59 -36 82.5t-98 23.5q-53 0 -99 -14.5t-81 -31.5v124q32 16 89.5 28.5t124.5 12.5q133 0 191.5 -57.5t58.5 -165.5v-307h-114l-16 77h-8q-19 -35 -60.5 -61t-107.5 -26z
" />
    <glyph glyph-name="uni0E0A" unicode="&#xe0a;" horiz-adv-x="599" 
d="M303 -13q-114 0 -172.5 48t-58.5 139v34q0 37 9.5 62t25.5 46t26.5 37.5t10.5 34.5q0 16 -9 23t-22 7q-17 0 -44 -11l-24 93q28 14 60.5 19.5t57.5 5.5q66 0 93.5 -30t27.5 -82q0 -28 -9 -50.5t-23 -45.5q-14 -22 -23 -40.5t-9 -53.5v-34q0 -43 21.5 -64t61.5 -21
q43 0 61.5 22t18.5 59v85q0 28 -13.5 44t-45.5 16h-5v78h6q31 0 46 15.5t19.5 40.5t4.5 53h149q0 -59 -16 -97t-56 -51v-4q35 -9 47.5 -34t12.5 -60v-90q0 -97 -58 -145.5t-171 -48.5z" />
    <glyph glyph-name="uni0E0B" unicode="&#xe0b;" horiz-adv-x="603" 
d="M304 -13q-116 0 -174 50t-58 140v28q0 42 15.5 74t47.5 64q10 10 21.5 22.5t12.5 25.5l-3 1q-10 -4 -20.5 -7t-22.5 -3q-37 0 -60.5 26t-23.5 73v36h107q0 -26 7 -37t22 -11q8 0 18 2.5t19 9.5l16 36h74v-66q0 -31 -3 -50.5t-10.5 -35t-21.5 -35.5q-12 -18 -22.5 -31.5
t-16.5 -30.5t-6 -44v-35q0 -44 21.5 -64.5t60.5 -20.5q44 0 64 22t20 59v85q0 28 -13 44t-42 16h-3v78h4q30 0 44 15.5t18 40.5t4 53h148q0 -59 -16 -96.5t-56 -51.5v-4q34 -9 47 -33.5t13 -63.5v-87q0 -194 -232 -194z" />
    <glyph glyph-name="uni0E0C" unicode="&#xe0c;" horiz-adv-x="927" 
d="M206 -10q-64 0 -102.5 31.5t-38.5 93.5v57q0 54 25.5 81t72.5 40l1 4l-109 36v24q0 48 28.5 87t83.5 62.5t135 23.5q111 0 175.5 -49t64.5 -143v-97q0 -55 26.5 -87.5t67.5 -32.5q31 0 51 18.5t20 62.5v315h150v-349q0 -88 -40 -133t-123 -45q-62 0 -102.5 26t-58.5 65
h-8l-16 -81h-115v323q0 48 -25.5 68.5t-68.5 20.5q-41 0 -65 -15t-26 -44l87 -38l-10 -63q-37 -2 -56 -16t-19 -52v-54q0 -38 40 -38q20 0 35 6l14 -88q-19 -9 -43 -14.5t-51 -5.5z" />
    <glyph glyph-name="uni0E0D" unicode="&#xe0d;" horiz-adv-x="937" 
d="M597 -188q-45 0 -90 8t-83 24v125q26 -14 66.5 -26t85.5 -12q64 0 100.5 27.5t36.5 84.5v28h-7q-19 -25 -54.5 -44t-91.5 -19q-75 0 -121 39t-46 124v157q0 46 -27 65t-67 19q-38 0 -63 -15t-27 -44l87 -38l-10 -63q-37 -2 -56 -16t-19 -52v-54q0 -38 40 -38q20 0 35 6
l14 -88q-19 -9 -43 -14.5t-51 -5.5q-64 0 -102.5 31.5t-38.5 93.5v57q0 54 25.5 81t72.5 40l1 4l-109 36v24q0 49 28.5 88t83.5 62t134 23q110 0 174.5 -49t64.5 -143v-120q0 -44 21 -63t52 -19q43 0 69 33t26 88v260h150v-451q0 -129 -66.5 -191.5t-194.5 -62.5z" />
    <glyph glyph-name="uni0E0E" unicode="&#xe0e;" horiz-adv-x="637" 
d="M91 -202v17q0 80 43.5 116.5t120.5 36.5q49 0 91.5 -13t70.5 -33v397q0 45 -26.5 68t-75.5 23q-47 0 -70 -17.5t-24 -42.5l87 -35l-11 -63q-29 -1 -43 -17.5t-14 -53.5v-71q0 -62 -35.5 -87.5t-90.5 -25.5q-28 0 -51 6t-41 15l14 81q12 -4 26 -4q32 0 32 33v60
q0 86 81 105l1 4l-109 36v24q0 47 28 86.5t83.5 63t138.5 23.5q115 0 182.5 -51t67.5 -151v-530h-130q-22 27 -63 41t-76 14t-50.5 -12.5t-15.5 -33.5v-9h-141z" />
    <glyph glyph-name="uni0E0F" unicode="&#xe0f;" horiz-adv-x="637" 
d="M61 -202v35q0 67 37 98t89 31q41 0 69.5 -15.5t47.5 -45.5l57 48l56 -36v406q0 45 -26.5 68t-75.5 23q-47 0 -70 -17.5t-24 -42.5l87 -35l-11 -63q-29 -1 -43 -17.5t-14 -53.5v-71q0 -62 -35.5 -87.5t-90.5 -25.5q-28 0 -51 6t-41 15l14 81q12 -4 26 -4q32 0 32 33v60
q0 86 81 105l1 4l-109 36v24q0 47 28 86.5t83.5 63t138.5 23.5q115 0 182.5 -51t67.5 -151v-530h-126l-69 49l-51 -49h-35q-10 20 -26 35t-39 15q-24 0 -32 -15t-8 -30v-5h-120z" />
    <glyph glyph-name="uni0E10" unicode="&#xe10;" horiz-adv-x="572" 
d="M117 0v215h-57v90h192v-191h7q49 0 76.5 36.5t27.5 108.5q0 85 -38.5 118.5t-113.5 33.5q-53 0 -95 -13.5t-75 -32.5v124q33 16 83 28.5t117 12.5q44 0 80.5 -7.5t61.5 -24.5q33 22 34 53h131q0 -37 -20.5 -71t-65.5 -56q25 -24 39 -65.5t14 -103.5q0 -121 -62.5 -188
t-208.5 -67h-127zM41 -202v31q0 67 33.5 98t83.5 31q40 0 66 -16.5t46 -45.5l52 51l64 -43v68h124v-174h-129l-58 48l-43 -48h-27q-10 20 -25.5 35t-38.5 15t-30 -15t-7 -30v-5h-111z" />
    <glyph glyph-name="uni0E11" unicode="&#xe11;" horiz-adv-x="650" 
d="M84 0v198q0 43 6.5 75.5t40.5 66.5q22 22 29.5 31t8.5 20l-3 1q-10 -4 -20.5 -7t-22.5 -3q-37 0 -60.5 26t-23.5 73v36h104q0 -26 6.5 -37t22.5 -11q8 0 16.5 2.5t16.5 9.5l17 36h72v-71h4q25 37 63 58.5t88 21.5q65 0 98 -32.5t33 -90.5v-403h-150v338q0 65 -49 65
q-25 0 -48 -16.5t-54 -54.5q-25 -31 -35 -57.5t-10 -74.5v-200h-150z" />
    <glyph glyph-name="uni0E12" unicode="&#xe12;" horiz-adv-x="942" 
d="M274 -10q-86 0 -134.5 33.5t-68 95.5t-19.5 146q0 138 42.5 199.5t123.5 61.5q34 0 60 -13t42 -48h4q14 36 46 48.5t66 12.5q64 0 98 -35t34 -102v-148q0 -55 26 -87.5t68 -32.5q31 0 51 18.5t20 62.5v315h150v-349q0 -178 -161 -178q-66 0 -105.5 26.5t-57.5 64.5h-8
l-16 -81h-115v359q0 29 -9 38.5t-25 9.5t-25.5 -10t-12.5 -34h-58q-4 26 -14 35t-23 9q-25 0 -38 -30.5t-13 -109.5q0 -81 19 -122t78 -41q11 0 20.5 1.5t17.5 3.5l15 -106q-32 -13 -78 -13z" />
    <glyph glyph-name="uni0E13" unicode="&#xe13;" horiz-adv-x="937" 
d="M206 -10q-64 0 -102.5 31.5t-38.5 93.5v57q0 54 25.5 81t72.5 40l1 4l-109 36v24q0 49 28.5 88t83.5 62t134 23q110 0 174.5 -49t64.5 -143v-136q0 -44 21 -62.5t52 -18.5q43 0 69 32.5t26 87.5v276h150v-517h-116l-17 81h-8q-18 -39 -58.5 -65t-100.5 -26
q-82 0 -123.5 41.5t-41.5 129.5v167q0 46 -27 65t-67 19q-38 0 -63 -15t-27 -44l87 -38l-10 -63q-37 -2 -56 -16t-19 -52v-54q0 -38 40 -38q20 0 35 6l14 -88q-19 -9 -43 -14.5t-51 -5.5z" />
    <glyph glyph-name="uni0E14" unicode="&#xe14;" horiz-adv-x="634" 
d="M267 -10q-81 0 -129 33t-69 92t-21 136q0 111 34.5 171.5t95 84t139.5 23.5q89 0 143.5 -24t79 -68t24.5 -102v-336h-150v324q0 41 -22.5 63.5t-74.5 22.5q-35 0 -61.5 -13.5t-41 -47t-14.5 -95.5q0 -65 21 -104.5t73 -39.5q22 0 40 5l14 -112q-16 -7 -38.5 -10t-42.5 -3
z" />
    <glyph glyph-name="uni0E15" unicode="&#xe15;" horiz-adv-x="654" 
d="M279 -10q-89 0 -138.5 34.5t-69 96t-19.5 144.5q0 137 43 199t128 62q35 0 61.5 -13t42.5 -48h4q14 36 46 48.5t69 12.5q69 0 103.5 -35t34.5 -102v-389h-150v359q0 28 -10 38t-27 10q-19 0 -28.5 -10t-12.5 -34h-59q-4 26 -15 35t-26 9q-26 0 -39 -32.5t-13 -110.5
t20 -119t78 -41q22 0 39 5l15 -106q-32 -13 -77 -13z" />
    <glyph glyph-name="uni0E16" unicode="&#xe16;" horiz-adv-x="625" 
d="M206 -10q-64 0 -102.5 31.5t-38.5 93.5v52q0 55 25.5 84t72.5 42l1 4l-109 36v24q0 47 29 86.5t85.5 63t137.5 23.5q114 0 181 -51t67 -151v-328h-150v319q0 45 -26.5 68t-75.5 23q-47 0 -70 -17.5t-24 -42.5l87 -36l-10 -62q-37 -2 -56 -15t-19 -50v-57q0 -38 40 -38
q20 0 35 6l14 -88q-19 -9 -43 -14.5t-51 -5.5z" />
    <glyph glyph-name="uni0E17" unicode="&#xe17;" horiz-adv-x="644" 
d="M77 0v517h110l20 -81h8q17 38 59 64t109 26q191 0 191 -195v-331h-150v299q0 53 -22.5 75t-65.5 22q-52 0 -80.5 -38.5t-28.5 -117.5v-240h-150z" />
    <glyph glyph-name="uni0E18" unicode="&#xe18;" horiz-adv-x="559" 
d="M286 -13q-62 0 -118.5 10.5t-100.5 26.5v202h128v-124q15 -4 37.5 -7.5t46.5 -3.5q41 0 69.5 14.5t28.5 51.5q0 29 -18.5 44t-53.5 23.5t-84 20.5q-55 13 -93 28.5t-58.5 41t-20.5 69.5q0 80 64 113t172 33q68 0 117.5 -10t75.5 -21v-113q-20 8 -52 16t-71 13.5t-78 5.5
q-33 0 -55.5 -6.5t-22.5 -22.5q0 -14 18 -21.5t49.5 -14.5t74.5 -19q57 -16 97 -37.5t61 -54.5t21 -85q0 -49 -21.5 -88t-72.5 -62t-140 -23z" />
    <glyph glyph-name="uni0E19" unicode="&#xe19;" horiz-adv-x="646" 
d="M257 -10q-91 0 -139 51t-48 149v327h150v-299q0 -52 22 -74.5t64 -22.5q53 0 82 37t29 119v240h150v-517h-114l-16 80h-9q-17 -38 -58.5 -64t-112.5 -26z" />
    <glyph glyph-name="uni0E1A" unicode="&#xe1a;" horiz-adv-x="634" 
d="M317 -13q-131 0 -189 58.5t-58 168.5v303h150v-312q0 -48 23.5 -73t73.5 -25t73.5 25t23.5 73v312h150v-303q0 -110 -58.5 -168.5t-188.5 -58.5z" />
    <glyph glyph-name="uni0E1B" unicode="&#xe1b;" horiz-adv-x="635" 
d="M317 -13q-131 0 -189 58.5t-58 168.5v303h150v-312q0 -48 23.5 -73t73.5 -25t73.5 25t23.5 73v498h150v-489q0 -110 -58.5 -168.5t-188.5 -58.5z" />
    <glyph glyph-name="uni0E1C" unicode="&#xe1c;" horiz-adv-x="682" 
d="M75 0v398q0 74 38.5 101t98.5 27q28 0 50 -5.5t36 -12.5l-20 -96q-8 2 -16 2.5t-13 0.5q-19 0 -26.5 -9.5t-7.5 -25.5v-80q0 -22 -2 -55t-7 -83h5q20 45 35.5 71.5t27.5 46.5l37 61h56l37 -61q20 -34 33 -57.5t30 -60.5h5q-5 50 -7 83t-2 55v217h140v-517h-143l-119 199
h-4l-119 -199h-143z" />
    <glyph glyph-name="uni0E1D" unicode="&#xe1d;" horiz-adv-x="683" 
d="M75 0v400q0 74 38.5 101t98.5 27q28 0 50 -5.5t36 -12.5l-20 -97q-8 2 -16 3t-13 1q-19 0 -26.5 -9.5t-7.5 -26.5v-80q0 -23 -2 -56t-7 -82h5q20 45 35.5 71.5t27.5 46.5l37 61h56l37 -61q20 -34 33 -58t30 -60h5q-5 49 -7 82t-2 56v404h140v-705h-143l-119 200h-4
l-119 -200h-143z" />
    <glyph glyph-name="uni0E1E" unicode="&#xe1e;" horiz-adv-x="727" 
d="M126 0l-95 517h146l27 -176q3 -22 7.5 -60.5t8.5 -89.5h3q25 101 41 153l54 173h91l54 -173q16 -52 41 -153h3q5 51 8.5 89.5t7.5 60.5l28 176h145l-94 -517h-147l-62 200q-12 38 -17.5 69.5t-9.5 62.5h-4q-6 -31 -11.5 -61t-18.5 -71l-63 -200h-143z" />
    <glyph glyph-name="uni0E1F" unicode="&#xe1f;" horiz-adv-x="718" 
d="M124 0l-93 517h146l25 -176q2 -18 7 -59.5t9 -90.5h4q10 44 20.5 83t20.5 70l54 173h91l53 -173q10 -31 20 -70t21 -83h3q5 50 9 89t6 61l46 362h144l-110 -703h-147l-62 200q-12 38 -17 69.5t-10 62.5h-4q-5 -31 -11 -61t-19 -71l-63 -200h-143z" />
    <glyph glyph-name="uni0E20" unicode="&#xe20;" horiz-adv-x="637" 
d="M114 -10q-28 0 -51 6t-41 15l14 82q12 -4 26 -4q32 0 32 32v67q0 86 81 105l1 4l-109 36v24q0 47 28 86.5t83.5 63t138.5 23.5q115 0 182.5 -51t67.5 -151v-328h-150v319q0 45 -26.5 68t-75.5 23q-47 0 -70 -17.5t-24 -42.5l87 -35l-11 -63q-29 -1 -43 -17.5t-14 -53.5
v-77q0 -62 -35.5 -88t-90.5 -26z" />
    <glyph glyph-name="uni0E21" unicode="&#xe21;" horiz-adv-x="646" 
d="M393 -10q-71 0 -114.5 26t-61.5 65h-8l-16 -81h-114v517h150v-240q0 -82 29 -119t82 -37q42 0 64 22.5t22 74.5v299h150v-334q0 -92 -46.5 -142.5t-136.5 -50.5z" />
    <glyph glyph-name="uni0E22" unicode="&#xe22;" horiz-adv-x="622" 
d="M302 -13q-90 0 -144 20.5t-78.5 57.5t-24.5 85q0 40 13.5 66t34.5 39.5t44 18.5v6q-35 11 -63.5 37t-28.5 76q0 35 17.5 65.5t56.5 49t103 18.5q31 0 59.5 -5t45.5 -12l-23 -100q-8 2 -22 4.5t-27 2.5q-31 0 -46 -13t-15 -33q0 -33 28 -43.5t61 -10.5h21v-92h-21
q-43 0 -64.5 -13t-21.5 -43q0 -16 8.5 -31.5t29.5 -26t60 -10.5q55 0 76 21.5t21 51.5v344h150v-340q0 -97 -60.5 -143.5t-189.5 -46.5z" />
    <glyph glyph-name="uni0E23" unicode="&#xe23;" horiz-adv-x="513" 
d="M256 -13q-59 0 -118 12.5t-104 36.5l42 119q29 -17 75.5 -33.5t98.5 -16.5q80 0 80 40q0 22 -30.5 36t-83.5 31q-79 26 -123.5 61t-44.5 104q0 79 61 116t162 37q56 0 100.5 -9t68.5 -22v-117q-26 11 -72 22t-90 11q-82 0 -82 -36q0 -21 32 -34t91 -33q77 -26 118 -59.5
t41 -100.5q0 -42 -20 -80t-68.5 -61.5t-133.5 -23.5z" />
    <glyph glyph-name="uni0E24" unicode="&#xe24;" horiz-adv-x="625" 
d="M206 -10q-64 0 -102.5 31.5t-38.5 93.5v52q0 55 25.5 84t72.5 42l1 4l-109 36v24q0 47 29 86.5t85.5 63t137.5 23.5q114 0 181 -51t67 -151v-530h-150v521q0 45 -26.5 68t-75.5 23q-47 0 -70 -17.5t-24 -42.5l87 -36l-10 -62q-37 -2 -56 -15t-19 -50v-57q0 -38 40 -38
q20 0 35 6l14 -88q-19 -9 -43 -14.5t-51 -5.5z" />
    <glyph glyph-name="uni0E25" unicode="&#xe25;" horiz-adv-x="599" 
d="M218 -10q-86 0 -132.5 39t-46.5 109q0 75 57.5 120.5t181.5 55.5l104 8v13q0 43 -26 61.5t-80 18.5q-52 0 -101.5 -14.5t-85.5 -34.5v123q29 13 82 27t123 14q68 0 121 -18t83.5 -62t30.5 -122v-328h-147v215l-87 -9q-60 -6 -83.5 -22t-23.5 -41q0 -26 19 -39.5t51 -13.5
q12 0 24 2.5t22 4.5l13 -92q-19 -7 -45 -11t-54 -4z" />
    <glyph glyph-name="uni0E26" unicode="&#xe26;" horiz-adv-x="637" 
d="M114 -10q-28 0 -51 6t-41 15l14 82q12 -4 26 -4q32 0 32 32v67q0 86 81 105l1 4l-109 36v24q0 47 28 86.5t83.5 63t138.5 23.5q115 0 182.5 -51t67.5 -151v-530h-150v521q0 45 -26.5 68t-75.5 23q-47 0 -70 -17.5t-24 -42.5l87 -35l-11 -63q-29 -1 -43 -17.5t-14 -53.5
v-77q0 -62 -35.5 -88t-90.5 -26z" />
    <glyph glyph-name="uni0E27" unicode="&#xe27;" horiz-adv-x="514" 
d="M216 -13q-51 0 -96 11.5t-84 31.5l40 108q22 -12 53 -21.5t61 -9.5q56 0 89 38.5t33 115.5q0 72 -33 110.5t-103 38.5q-33 0 -68 -9t-58 -23v123q31 13 70 21t83 8q138 0 200 -71t62 -198q0 -136 -65 -205t-184 -69z" />
    <glyph glyph-name="uni0E28" unicode="&#xe28;" horiz-adv-x="659" 
d="M70 0v303q0 110 61 168.5t194 58.5q40 0 74 -7.5t59 -24.5q33 22 34 53h131q0 -35 -19 -68t-61 -56q19 -22 26.5 -54t7.5 -71v-302h-149v305q0 49 -24.5 77t-79.5 28q-56 0 -80.5 -28t-24.5 -77v-78l3 -1q20 37 46 48.5t72 11.5h24v-111h-24q-50 0 -76 -16t-35.5 -42.5
t-9.5 -57.5v-59h-149z" />
    <glyph glyph-name="uni0E29" unicode="&#xe29;" horiz-adv-x="675" 
d="M326 -13q-137 0 -196.5 59t-59.5 169v302h149v-310q0 -49 25.5 -75t83.5 -26q56 0 80 23.5t24 74.5h-42q-48 0 -75 15.5t-38 39t-11 47.5q0 18 5 37t15 31l89 -18q-6 -12 -6 -27q0 -13 8 -21.5t22 -8.5h33v218h149v-218h58v-95h-58q-3 -105 -62.5 -161t-192.5 -56z" />
    <glyph glyph-name="uni0E2A" unicode="&#xe2a;" horiz-adv-x="602" 
d="M218 -10q-86 0 -132.5 39t-46.5 109q0 75 57.5 120.5t181.5 55.5l104 8v13q0 43 -26 61.5t-80 18.5q-52 0 -101.5 -14.5t-85.5 -34.5v123q29 13 82 27t122 14q37 0 68.5 -5.5t54.5 -19.5q24 19 25 46h131q0 -33 -16.5 -64t-52.5 -54q13 -19 19.5 -45.5t6.5 -59.5v-328
h-147v215l-87 -9q-60 -6 -83.5 -22t-23.5 -41q0 -26 19 -39.5t51 -13.5q12 0 24 2.5t22 4.5l13 -92q-19 -7 -45 -11t-54 -4z" />
    <glyph glyph-name="uni0E2B" unicode="&#xe2b;" horiz-adv-x="622" 
d="M79 0v517h148v-189h4l170 189h165v-5l-142 -151q69 -12 104.5 -58t35.5 -109v-194h-150v169q0 42 -22.5 63t-64.5 26l-100 -106v-152h-148z" />
    <glyph glyph-name="uni0E2C" unicode="&#xe2c;" horiz-adv-x="709" 
d="M111 0l-80 517h148l25 -207q3 -22 6.5 -62t3.5 -89h3q13 42 24.5 74t24.5 64l46 113h85l46 -113q13 -31 24 -63.5t24 -74.5h4q1 43 5 83t8 67l13 76q9 53 -12.5 75.5t-76.5 22.5h-62v97h80q69 0 94 25.5t25 63.5v5h143v-5q0 -53 -25 -92t-84 -49v-4q43 -15 56.5 -52
t7.5 -73l-66 -399h-156l-51 142q-11 32 -20 63.5t-18 79.5h-4q-9 -49 -18.5 -81t-20.5 -63l-53 -141h-149z" />
    <glyph glyph-name="uni0E2D" unicode="&#xe2d;" horiz-adv-x="593" 
d="M288 -13q-122 0 -181 56.5t-59 166.5q0 19 1.5 47t4.5 48h240v-93h-99v-13q0 -101 92 -101q50 0 78 32t28 117q0 80 -31.5 121.5t-113.5 41.5q-45 0 -93 -13t-79 -29v124q32 16 88 27t112 11q97 0 156.5 -33.5t87 -95t27.5 -145.5q0 -130 -61 -199.5t-198 -69.5z" />
    <glyph glyph-name="uni0E2E" unicode="&#xe2e;" horiz-adv-x="596" 
d="M287 -13q-121 0 -180 56.5t-59 166.5q0 19 1.5 47t4.5 48h240v-93h-99v-13q0 -101 92 -101q49 0 77.5 32t28.5 114q0 87 -33.5 126.5t-110.5 39.5q-47 0 -94 -13t-80 -29v124q21 11 54 19.5t71 13.5t73 5q39 0 72.5 -7.5t59.5 -24.5q33 22 34 53h131q0 -35 -19 -68.5
t-61 -55.5q29 -29 43 -74t14 -105q0 -121 -61 -191t-199 -70z" />
    <glyph glyph-name="uni0E2F" unicode="&#xe2f;" horiz-adv-x="543" 
d="M317 0v232q-42 -35 -118 -35q-50 0 -92.5 18.5t-68 56.5t-25.5 96q0 74 44 116t122 42q14 0 33 -2t40 -9l-11 -93q-17 4 -29 4q-24 0 -41 -13t-17 -41t20.5 -45t59.5 -17q83 0 83 81v126h150v-517h-150z" />
    <glyph glyph-name="uni0E30" unicode="&#xe30;" horiz-adv-x="358" 
d="M164 323q-69 0 -96.5 30.5t-27.5 70.5q0 35 20 72l109 -14q-5 -15 -5 -32q0 -14 8 -21t28 -7h113v-99h-149zM164 43q-69 0 -96.5 30.5t-27.5 70.5q0 35 20 72l109 -14q-5 -15 -5 -32q0 -14 8 -21t28 -7h113v-99h-149z" />
    <glyph glyph-name="uni0E31" unicode="&#xe31;" 
d="M-225 604q-47 0 -74 14t-38.5 35.5t-11.5 45.5q0 38 20 73l109 -14q-5 -15 -5 -28q0 -14 8.5 -21.5t28.5 -7.5h215v-97h-252z" />
    <glyph glyph-name="uni0E32" unicode="&#xe32;" horiz-adv-x="435" 
d="M215 0v338q0 38 -19.5 55.5t-63.5 17.5q-33 0 -60.5 -8.5t-51.5 -19.5v118q22 10 62 19.5t94 9.5q55 0 97.5 -15t67 -51t24.5 -99v-365h-150z" />
    <glyph glyph-name="uni0E33" unicode="&#xe33;" horiz-adv-x="435" 
d="M215 0v338q0 38 -19.5 55.5t-63.5 17.5q-33 0 -60.5 -8.5t-51.5 -19.5v118q22 10 62 19.5t94 9.5q55 0 97.5 -15t67 -51t24.5 -99v-365h-150zM-181 582q-57 0 -91 26t-34 73t34 73t91 26t91.5 -26t34.5 -73t-34.5 -73t-91.5 -26zM-181 640q22 0 34 11t12 30t-12 30
t-34 11q-21 0 -33 -11t-12 -30t12 -30t33 -11z" />
    <glyph glyph-name="uni0E34" unicode="&#xe34;" 
d="M-537 604v63l101 42h357v-105h-458z" />
    <glyph glyph-name="uni0E35" unicode="&#xe35;" 
d="M-537 604v63l101 42h229v69h128v-174h-458z" />
    <glyph glyph-name="uni0E36" unicode="&#xe36;" 
d="M-537 604v63l101 42h176q2 35 28.5 58.5t71.5 23.5q50 0 77 -26.5t27 -67.5q0 -40 -25 -66.5t-77 -26.5h-379zM-160 657q21 0 31.5 11.5t10.5 27.5q0 17 -11.5 28.5t-31.5 11.5t-31 -11t-11 -28t10.5 -28.5t32.5 -11.5z" />
    <glyph glyph-name="uni0E37" unicode="&#xe37;" 
d="M-536 604v63l101 42h109v69h95v-69h59v69h94v-174h-458z" />
    <glyph glyph-name="uni0E38" unicode="&#xe38;" 
d="M-207 -261v89q0 25 -22 25q-5 0 -10 -1.5t-10 -2.5l-7 72q14 5 38 10t50 5q49 0 69 -19.5t20 -53.5v-124h-128z" />
    <glyph glyph-name="uni0E39" unicode="&#xe39;" 
d="M-233 -265q-80 0 -117 24t-37 63v17q0 17 -9 20.5t-24 -0.5l-7 67q13 6 35.5 8t36.5 2q43 0 63 -16t20 -45v-23q0 -17 7.5 -26.5t27.5 -9.5q21 0 29 9.5t8 26.5v81h122v-97q0 -50 -37 -75.5t-118 -25.5z" />
    <glyph glyph-name="uni0E3A" unicode="&#xe3a;" 
d="M-151 -208q-38 0 -59 20t-21 57t21 57t59 20q37 0 58 -20t21 -57t-21 -57t-58 -20z" />
    <glyph glyph-name="uni0E3F" unicode="&#xe3f;" horiz-adv-x="581" 
d="M67 36v642h171v82h71v-83q105 -5 153.5 -44t48.5 -114q0 -56 -33 -94.5t-89 -47.5v-5q59 -10 98 -45t39 -107q0 -88 -59.5 -136t-157.5 -48v-95h-71v95h-171zM176 422h62v147h-62v-147zM390 499q0 62 -81 69v-145q45 3 63 23.5t18 52.5zM176 147h62v169h-62v-169z
M404 234q0 32 -21 55.5t-74 26.5v-169q52 2 73.5 26t21.5 61z" />
    <glyph glyph-name="uni0E40" unicode="&#xe40;" horiz-adv-x="341" 
d="M224 -10q-68 0 -103.5 31.5t-35.5 93.5v402h150v-384q0 -34 35 -34q18 0 34 6l14 -95q-19 -9 -43 -14.5t-51 -5.5z" />
    <glyph glyph-name="uni0E41" unicode="&#xe41;" horiz-adv-x="642" 
d="M224 -10q-68 0 -103.5 31.5t-35.5 93.5v402h150v-384q0 -34 35 -34q18 0 34 6l14 -95q-19 -9 -43 -14.5t-51 -5.5zM525 -10q-68 0 -103.5 31.5t-35.5 93.5v402h150v-384q0 -34 35 -34q18 0 34 6l14 -95q-19 -9 -43 -14.5t-51 -5.5z" />
    <glyph glyph-name="uni0E42" unicode="&#xe42;" horiz-adv-x="349" 
d="M243 -10q-67 0 -103 31.5t-36 93.5v457q0 56 -22 80.5t-66 24.5v60l101 48h255v-108h-168l-1 -3q26 -15 38.5 -42.5t12.5 -73.5v-425q0 -34 35 -34q17 0 34 6l14 -95q-19 -9 -43 -14.5t-51 -5.5z" />
    <glyph glyph-name="uni0E43" unicode="&#xe43;" horiz-adv-x="338" 
d="M224 -10q-68 0 -103.5 31.5t-35.5 93.5v346q0 24 3.5 40t13.5 30.5t29 34.5t32.5 36t13.5 36q0 46 -68 46q-27 0 -48 -6t-38 -17v110q13 7 50 17.5t89 10.5q79 0 125 -31.5t46 -95.5q0 -38 -15.5 -65.5t-32.5 -49.5q-17 -21 -28 -35t-16.5 -28t-5.5 -37v-324
q0 -34 34 -34q19 0 35 6l14 -95q-19 -9 -43 -14.5t-51 -5.5z" />
    <glyph glyph-name="uni0E44" unicode="&#xe44;" horiz-adv-x="347" 
d="M244 -10q-68 0 -103.5 31.5t-35.5 93.5v443q0 52 15.5 77t35.5 39l-1 3h-155l28 108h318v-108q-37 0 -64 -22.5t-27 -82.5v-439q0 -34 35 -34q18 0 34 6l14 -95q-19 -9 -43 -14.5t-51 -5.5z" />
    <glyph glyph-name="uni0E45" unicode="&#xe45;" horiz-adv-x="435" 
d="M215 -202v540q0 38 -19.5 55.5t-63.5 17.5q-33 0 -60.5 -8.5t-51.5 -19.5v118q22 10 62 19.5t94 9.5q55 0 97.5 -15t67 -51t24.5 -99v-567h-150z" />
    <glyph glyph-name="uni0E46" unicode="&#xe46;" horiz-adv-x="637" 
d="M417 -202v585q0 41 -36 41q-37 0 -37 -41v-29h-70v29q0 41 -37 41q-20 0 -29.5 -15t-9.5 -51q0 -39 11.5 -54t35.5 -15q16 0 31 6l26 -93q-15 -10 -37.5 -18t-52.5 -8q-71 0 -111 44.5t-40 135.5q0 94 41 134t107 40q38 0 66.5 -12t42.5 -37h3q13 25 42 37t69 12
q37 0 67.5 -12t49 -43t18.5 -88v-589h-150z" />
    <glyph glyph-name="uni0E47" unicode="&#xe47;" 
d="M-201 595q-61 0 -86 45l-50 -42q-63 0 -101 30.5t-38 88.5q0 41 17.5 67.5t45.5 39.5t60 13h252v-73h-226q-19 0 -32 -12t-13 -37q0 -19 8 -30.5t25 -11.5l46 43h20q3 -20 13 -33t28 -13q15 0 23 9.5t8 25.5v15h101v-20q0 -54 -27.5 -79.5t-73.5 -25.5z" />
    <glyph glyph-name="uni0E48" unicode="&#xe48;" 
d="M-223 604v227h138v-227h-138z" />
    <glyph glyph-name="uni0E49" unicode="&#xe49;" 
d="M-381 604v50q13 4 30.5 11t30.5 19t13 30q0 14 -8 22t-20 8q-8 0 -17 -3t-16 -6l-19 67q20 16 49.5 22t49.5 6q45 0 70.5 -21t25.5 -62q0 -26 -15 -46h153v-97h-327z" />
    <glyph glyph-name="uni0E4A" unicode="&#xe4a;" 
d="M-339 599q-53 0 -83 30t-30 82q0 53 30.5 83.5t82.5 33.5l62 -38l56 38q67 -3 93 -29.5t26 -62.5q0 -23 -10 -41h78v-91h-204v64q12 4 21 13.5t9 26.5q0 19 -9.5 27.5t-18.5 9.5l-38 -22h-4l-37 22q-9 -1 -17.5 -9.5t-8.5 -26.5q0 -17 9 -27.5t24 -10.5q4 0 9 0.5t11 2.5
l7 -64q-7 -5 -24 -8t-34 -3z" />
    <glyph glyph-name="uni0E4B" unicode="&#xe4b;" 
d="M-255 604v70h-70v87h70v70h120v-70h69v-87h-69v-70h-120z" />
    <glyph glyph-name="uni0E4C" unicode="&#xe4c;" 
d="M-265 582q-8 14 -13.5 36t-5.5 44q0 42 25 71.5t95 29.5h145v-101h-96q-40 0 -40 -30q0 -14 8 -30z" />
    <glyph glyph-name="uni0E4D" unicode="&#xe4d;" 
d="M-181 582q-57 0 -91 26t-34 73t34 73t91 26t91.5 -26t34.5 -73t-34.5 -73t-91.5 -26zM-181 640q22 0 34 11t12 30t-12 30t-34 11q-21 0 -33 -11t-12 -30t12 -30t33 -11z" />
    <glyph glyph-name="uni0E4E" unicode="&#xe4e;" 
d="M-274 583q-15 22 -15 54q0 39 25 57.5t61 18.5q19 0 33 -5q-2 8 -2 17q0 36 27 52.5t62 16.5q13 0 31 -2.5t31 -8.5v-67q-7 3 -17 4.5t-18 1.5q-18 0 -29.5 -9t-11.5 -25q0 -13 7 -24l-37 -26q-7 7 -16 8.5t-15 1.5q-16 0 -23.5 -8.5t-7.5 -19.5q0 -10 6 -22z" />
    <glyph glyph-name="uni0E4F" unicode="&#xe4f;" horiz-adv-x="644" 
d="M322 -13q-136 0 -199 65t-63 176q0 116 63 178t199 62t199.5 -62t63.5 -178q0 -111 -63.5 -176t-199.5 -65zM321 72q79 0 117 40.5t38 115.5q0 80 -38 117.5t-117 37.5t-116.5 -37.5t-37.5 -117.5q0 -75 37.5 -115.5t116.5 -40.5zM321 125q-52 0 -75 28.5t-23 74.5
q0 50 23 76t75 26t75.5 -26t23.5 -76q0 -46 -23.5 -74.5t-75.5 -28.5z" />
    <glyph glyph-name="uni0E50" unicode="&#xe50;" horiz-adv-x="567" 
d="M283 -13q-115 0 -175.5 65t-60.5 176q0 116 60.5 178t175.5 62t176 -62t61 -178q0 -111 -61 -176t-176 -65zM283 100q92 0 92 128q0 68 -23 97.5t-69 29.5q-47 0 -69.5 -29.5t-22.5 -97.5q0 -128 92 -128z" />
    <glyph glyph-name="uni0E51" unicode="&#xe51;" horiz-adv-x="533" 
d="M252 -13q-23 0 -45 3t-41 10v97q16 -6 48 -6q64 0 96 35.5t32 112.5q0 68 -23.5 94t-67.5 26q-76 0 -76 -63q0 -26 11.5 -39.5t31.5 -13.5q11 0 23 5l21 -91q-13 -12 -37 -19t-49 -7q-62 0 -98 41.5t-36 117.5q0 86 50.5 130.5t157.5 44.5q127 0 181.5 -61.5t54.5 -168.5
q0 -72 -23.5 -128t-75 -88t-135.5 -32z" />
    <glyph glyph-name="uni0E52" unicode="&#xe52;" horiz-adv-x="644" 
d="M328 -13q-146 0 -210.5 60.5t-64.5 167.5v369h141v-357q0 -59 31 -93.5t105 -34.5t101 34.5t27 96.5v107q0 36 -21 36q-13 0 -18 -10.5t-6 -29.5h-38q-1 19 -6 29.5t-18 10.5q-22 0 -22 -50q0 -24 6 -37.5t23 -13.5q4 0 11 1.5t14 5.5l22 -74q-13 -8 -28 -13t-34 -5
q-54 0 -86 36.5t-32 105.5q0 61 24.5 97.5t76.5 36.5q26 0 46 -10.5t29 -32.5h3q19 43 81 43q43 0 74 -25.5t31 -87.5v-133q0 -71 -25 -123t-82 -79.5t-155 -27.5z" />
    <glyph glyph-name="uni0E53" unicode="&#xe53;" horiz-adv-x="566" 
d="M208 -10q-59 0 -94.5 30.5t-51 85.5t-15.5 128q0 121 36 176t107 55q28 0 52 -11t42 -43h3q11 31 41 42.5t61 11.5q121 0 121 -136v-329h-142v306q0 27 -9 35t-19 8q-13 0 -20.5 -9t-9.5 -36h-52q-2 28 -10.5 36.5t-17.5 8.5q-39 0 -39 -113q0 -70 14 -105t48 -35
q5 0 12 1t13 4l17 -98q-15 -5 -38.5 -9t-48.5 -4z" />
    <glyph glyph-name="uni0E54" unicode="&#xe54;" horiz-adv-x="537" 
d="M256 0q-106 0 -157.5 55t-51.5 168q0 65 18.5 119t60 86t111.5 32h37q44 0 59 15.5t15 52.5v56h131v-88q0 -68 -35.5 -104.5t-109.5 -36.5h-32q-62 0 -86.5 -36t-24.5 -100q0 -60 20 -87t63 -27h27q-19 28 -19 77q0 111 118 111q46 0 73 -15l-19 -78q-4 2 -10 2.5
t-10 0.5q-35 0 -35 -45q0 -53 56 -53h33v-105h-232z" />
    <glyph glyph-name="uni0E55" unicode="&#xe55;" horiz-adv-x="554" 
d="M263 0q-113 0 -164.5 55t-51.5 170q0 86 29.5 143.5t91.5 75.5q-15 11 -24.5 27.5t-9.5 39.5q0 39 28 63t78 24q51 0 78 -25t27 -63q0 -18 -5.5 -32t-14.5 -23q39 4 49.5 24t10.5 68v37h113v-88q0 -68 -38.5 -104.5t-112.5 -36.5h-38q-67 0 -92.5 -36t-25.5 -100
q0 -60 21 -87t68 -27h27q-19 30 -19 77q0 111 118 111q22 0 41 -4t33 -11l-20 -78q-4 2 -10 2.5t-10 0.5q-35 0 -35 -45q0 -53 56 -53h33v-105h-231zM241 468q17 0 26.5 10.5t9.5 25.5q0 14 -9.5 24.5t-26.5 10.5t-26 -10.5t-9 -24.5q0 -15 9 -25.5t26 -10.5z" />
    <glyph glyph-name="uni0E56" unicode="&#xe56;" horiz-adv-x="526" 
d="M258 -13q-63 0 -112.5 21.5t-80.5 72.5l96 72q19 -27 39.5 -42t49.5 -15q45 0 65 34t20 98q0 68 -20.5 98t-58.5 30q-28 0 -47.5 -15.5t-20.5 -45.5h-105l-59 289h123l31 -159q35 40 110 40q99 0 145 -64t46 -171q0 -115 -53 -179t-168 -64z" />
    <glyph glyph-name="uni0E57" unicode="&#xe57;" horiz-adv-x="750" 
d="M212 -10q-92 0 -128.5 66t-36.5 182q0 124 36 175.5t105 51.5q28 0 50.5 -11t38.5 -43h3q14 33 42.5 43.5t56.5 10.5q51 0 79 -27t28 -83v-253q34 0 52.5 20t18.5 81v381h138v-369q0 -65 -20 -107t-52.5 -65.5t-71.5 -33t-76 -9.5h-121v308q0 24 -7 32.5t-18 8.5
q-14 0 -20.5 -9.5t-8.5 -35.5h-46q-2 27 -9 36t-17 9q-21 0 -29 -27.5t-8 -82.5q0 -73 13.5 -108t47.5 -35q6 0 13 1t13 4l17 -98q-15 -5 -38 -9t-45 -4z" />
    <glyph glyph-name="uni0E58" unicode="&#xe58;" horiz-adv-x="567" 
d="M382 -13q-43 0 -71 17t-38 55l-54 -68q-82 0 -127 56t-45 172q0 67 18 121.5t63.5 87t125.5 32.5h34q38 0 51 14t13 51v59h139v-88q0 -68 -35.5 -104.5t-108.5 -36.5h-65q-52 0 -76 -34.5t-24 -92.5q0 -57 17 -80.5t35 -28.5l37 50h40q0 -34 11 -48.5t33 -14.5
q47 0 47 53q0 24 -10 39t-18 23l81 68q37 -25 52.5 -61t15.5 -83q0 -76 -37.5 -117t-103.5 -41z" />
    <glyph glyph-name="uni0E59" unicode="&#xe59;" horiz-adv-x="549" 
d="M211 -10q-91 0 -127.5 66t-36.5 182q0 123 38 175t119 52q69 0 98 -41q7 18 22 29.5t38 11.5h5q19 0 26.5 10t7.5 31v78h126v-99q0 -53 -22 -82t-64 -29h-14q-29 0 -38.5 -16.5t3.5 -53.5l108 -304h-131l-106 326q-5 17 -11.5 25t-18.5 8t-21.5 -9.5t-15 -36t-5.5 -76.5
q0 -70 13.5 -105.5t48.5 -35.5q5 0 12 1t13 4l17 -98q-15 -6 -38.5 -9.5t-45.5 -3.5z" />
    <glyph glyph-name="uni0E5A" unicode="&#xe5a;" horiz-adv-x="827" 
d="M317 0v233q-42 -36 -117 -36q-51 0 -93.5 18.5t-68 56.5t-25.5 96q0 74 44 116t122 42q14 0 33 -2t40 -9l-11 -93q-17 4 -28 4q-25 0 -42 -13t-17 -41t20 -45t61 -17q82 0 82 79v128h150v-202q19 -8 42 -8q41 0 66.5 25t25.5 69v116h150v-517h-150v241q-18 -19 -43 -29
t-53 -10q-20 0 -38 5v-207h-150z" />
    <glyph glyph-name="uni0E5B" unicode="&#xe5b;" horiz-adv-x="906" 
d="M248 70q-99 0 -148.5 52t-49.5 144q0 74 37 121t122 47q72 0 107.5 -32.5t35.5 -89.5q0 -23 -5.5 -43.5t-15.5 -39.5l-88 29q3 7 5.5 16.5t2.5 19.5q0 19 -9.5 29t-25.5 10q-22 0 -30.5 -20t-8.5 -44q0 -51 24.5 -72.5t66.5 -21.5q70 0 98 49.5t24 133.5h91l42 -121
l27 111h74l34 -98l25 82h66l5 -18q6 -22 12.5 -40t19 -28.5t38.5 -10.5q10 0 17 2t12 4v-95q-9 -5 -19.5 -8.5t-26.5 -3.5q-70 0 -104 85l-17 -87h-61l-35 114l-26 -124h-77l-31 107q-9 -36 -31 -72.5t-64.5 -61.5t-112.5 -25z" />
    <glyph glyph-name="uni200B" unicode="&#x200b;" 
 />
    <glyph glyph-name="uni200C" unicode="&#x200c;" 
d="M-21 -133v761h42v-761h-42z" />
    <glyph glyph-name="uni200D" unicode="&#x200d;" 
d="M-21 -133v668l-62 -62l-26 27l82 82l-82 81l26 27l83 -83l83 83l26 -27l-82 -81l82 -82l-26 -27l-62 62v-668h-42z" />
    <glyph glyph-name="uni2010" unicode="&#x2010;" horiz-adv-x="322" 
d="M30 207v122h262v-122h-262z" />
    <glyph glyph-name="uni25CC" unicode="&#x25cc;" horiz-adv-x="594" 
d="M297 488q-11 0 -18.5 8t-7.5 18t7.5 18t18.5 8t18.5 -8t7.5 -18t-7.5 -18t-18.5 -8zM213 470q-11 0 -18.5 8t-7.5 18t7.5 18t18.5 8t18.5 -8t7.5 -18t-7.5 -18t-18.5 -8zM381 470q-11 0 -18.5 8t-7.5 18t7.5 18t18.5 8t18.5 -8t7.5 -18t-7.5 -18t-18.5 -8zM455 423
q-11 0 -18.5 7.5t-7.5 18.5t7.5 18.5t18.5 7.5t18.5 -7.5t7.5 -18.5t-7.5 -18.5t-18.5 -7.5zM139 423q-11 0 -18.5 7.5t-7.5 18.5t7.5 18.5t18.5 7.5t18.5 -7.5t7.5 -18.5t-7.5 -18.5t-18.5 -7.5zM92 349q-10 0 -18 7.5t-8 18.5t8 18.5t18 7.5t18 -7.5t8 -18.5t-8 -18.5
t-18 -7.5zM502 349q-10 0 -18 7.5t-8 18.5t8 18.5t18 7.5t18 -7.5t8 -18.5t-8 -18.5t-18 -7.5zM74 265q-10 0 -18 7.5t-8 18.5t8 18.5t18 7.5t18 -7.5t8 -18.5t-8 -18.5t-18 -7.5zM520 265q-10 0 -18 7.5t-8 18.5t8 18.5t18 7.5t18 -7.5t8 -18.5t-8 -18.5t-18 -7.5zM92 181
q-10 0 -18 7.5t-8 18.5t8 18.5t18 7.5t18 -7.5t8 -18.5t-8 -18.5t-18 -7.5zM502 181q-10 0 -18 7.5t-8 18.5t8 18.5t18 7.5t18 -7.5t8 -18.5t-8 -18.5t-18 -7.5zM139 107q-11 0 -18.5 7.5t-7.5 18.5t7.5 18.5t18.5 7.5t18.5 -7.5t7.5 -18.5t-7.5 -18.5t-18.5 -7.5zM455 107
q-11 0 -18.5 7.5t-7.5 18.5t7.5 18.5t18.5 7.5t18.5 -7.5t7.5 -18.5t-7.5 -18.5t-18.5 -7.5zM213 60q-11 0 -18.5 8t-7.5 18t7.5 18t18.5 8t18.5 -8t7.5 -18t-7.5 -18t-18.5 -8zM381 60q-11 0 -18.5 8t-7.5 18t7.5 18t18.5 8t18.5 -8t7.5 -18t-7.5 -18t-18.5 -8zM297 42
q-11 0 -18.5 8t-7.5 18t7.5 18t18.5 8t18.5 -8t7.5 -18t-7.5 -18t-18.5 -8z" />
    <glyph glyph-name="saraUu-thai.small" horiz-adv-x="600" 
d="M94 0v714h411v-714h-411zM145 51h309v612h-309v-612z" />
    <glyph glyph-name="uni0E24.aalt" horiz-adv-x="625" 
d="M206 -10q-64 0 -102.5 31.5t-38.5 93.5v52q0 55 25.5 84t72.5 42l1 4l-109 36v24q0 47 29 86.5t85.5 63t137.5 23.5q114 0 181 -51t67 -151v-448h-150v439q0 45 -26.5 68t-75.5 23q-47 0 -70 -17.5t-24 -42.5l87 -36l-10 -62q-37 -2 -56 -15t-19 -50v-57q0 -38 40 -38
q20 0 35 6l14 -88q-19 -9 -43 -14.5t-51 -5.5z" />
    <glyph glyph-name="uni0E26.aalt" horiz-adv-x="637" 
d="M114 -10q-28 0 -51 6t-41 15l14 82q12 -4 26 -4q32 0 32 32v67q0 86 81 105l1 4l-109 36v24q0 47 28 86.5t83.5 63t138.5 23.5q115 0 182.5 -51t67.5 -151v-448h-150v439q0 45 -26.5 68t-75.5 23q-47 0 -70 -17.5t-24 -42.5l87 -35l-11 -63q-29 -1 -43 -17.5t-14 -53.5
v-77q0 -62 -35.5 -88t-90.5 -26z" />
    <glyph glyph-name="doChada-thai.short" horiz-adv-x="637" 
d="M91 -120v17q0 50 47 75t119 25q53 0 93 -11.5t67 -27.5v362q0 46 -26.5 69t-75.5 23q-47 0 -70 -18t-24 -43l87 -35l-11 -63q-29 -1 -43 -17.5t-14 -53.5v-72q0 -62 -35.5 -87.5t-89.5 -25.5q-29 0 -52 6t-41 15l14 81q7 -2 13.5 -3t11.5 -1q33 0 33 33v60q0 87 81 106
l1 4l-109 37v23q0 48 28 87t83.5 62.5t138.5 23.5q115 0 182.5 -50.5t67.5 -151.5v-449h-130q-15 13 -38.5 22t-50 14t-48.5 5q-38 0 -53 -11.5t-15 -25.5v-4h-141z" />
    <glyph glyph-name="toPatak-thai.short" horiz-adv-x="637" 
d="M61 -120v9q0 49 37 70.5t89 21.5q44 0 75 -14t46 -38l58 49l51 -32v374q0 46 -26.5 69t-75.5 23q-47 0 -70 -18t-24 -43l87 -35l-11 -63q-29 -1 -43 -17.5t-14 -53.5v-72q0 -62 -35.5 -87.5t-89.5 -25.5q-29 0 -52 6t-41 15l14 81q7 -2 13.5 -3t11.5 -1q33 0 33 33v60
q0 87 81 106l1 4l-109 37v23q0 48 28 87t83.5 62.5t138.5 23.5q115 0 182.5 -50.5t67.5 -151.5v-449h-142l-56 35l-42 -35h-41q-8 10 -24.5 21t-41.5 11q-21 0 -30 -8.5t-9 -20.5v-3h-120z" />
    <glyph glyph-name="yoYing-thai.less" horiz-adv-x="912" 
d="M613 -13q-117 0 -172.5 51.5t-55.5 163.5v127q0 47 -25 66t-65 19q-39 0 -61.5 -15t-24.5 -45l87 -38l-10 -63q-37 -1 -56 -16t-19 -52v-54q0 -39 40 -39q20 0 35 6l14 -88q-19 -9 -43 -14.5t-51 -5.5q-64 0 -102.5 31.5t-38.5 93.5v57q0 55 25.5 81.5t72.5 40.5l1 4
l-109 37v23q0 48 28 87.5t81.5 62.5t130.5 23q69 0 122.5 -20.5t84 -62.5t30.5 -105v-153q0 -45 22 -64t58 -19t58 19t22 64v329h150v-317q0 -112 -56 -163.5t-173 -51.5z" />
    <glyph glyph-name="thoThan-thai.less" horiz-adv-x="572" 
d="M117 0v216h-57v90h192v-192h7q49 0 76.5 36.5t27.5 109.5q0 86 -38.5 119.5t-113.5 33.5q-53 0 -95 -14t-75 -33v125q33 16 83 28t117 12q44 0 80 -7t61 -25q34 22 35 54h131q0 -37 -20.5 -71t-66.5 -57q25 -23 39.5 -65t14.5 -104q0 -121 -62.5 -188.5t-208.5 -67.5
h-127z" />
    <glyph glyph-name="loChula-thai.short" horiz-adv-x="708" 
d="M96 0l-65 519h154l21 -217q4 -38 4.5 -82t0.5 -95h4q9 32 21 67t29 76l39 99h90l41 -98q13 -31 25.5 -68.5t25.5 -78.5h4q3 43 7.5 76t9.5 67l10 66q6 37 -6.5 55t-51.5 18h-55v92h82q39 0 50.5 14t14.5 43h144q0 -44 -23.5 -75.5t-79.5 -38.5v-4q43 -13 55.5 -45
t6.5 -68l-54 -322h-161l-50 134q-11 29 -20 57t-17 64h-4q-8 -36 -17 -63.5t-20 -56.5l-53 -135h-162z" />
    <glyph glyph-name="macronbelowcomb.alt" 
d="M-120 -76v-103h-616v103h616z" />
    <glyph glyph-name="uni0E31.aalt" 
d="M-430 594q-47 0 -74 14t-38.5 35.5t-11.5 45.5q0 37 19 73l109 -14q-2 -7 -3 -14.5t-1 -13.5q0 -14 8.5 -21.5t28.5 -7.5h126v-97h-163z" />
    <glyph glyph-name="glyph99" 
d="M-208 842v186h130v-186h-130z" />
    <glyph glyph-name="glyph100" 
d="M-416 594v227h137v-227h-137z" />
    <glyph glyph-name="glyph102" 
d="M-267 842v41q10 3 24.5 9t25.5 16t11 25q0 11 -6.5 17.5t-16.5 6.5q-17 0 -29 -10l-18 58q18 13 44.5 18t45.5 5q38 0 61.5 -16t23.5 -50q0 -9 -2 -18.5t-7 -17.5h118v-84h-275z" />
    <glyph glyph-name="glyph103" 
d="M-533 593v50q13 4 30 11t29.5 18.5t12.5 30.5q0 30 -28 30q-7 0 -16 -3t-16 -6l-19 67q20 17 49.5 22.5t49.5 5.5q45 0 70.5 -21t25.5 -63q0 -11 -3.5 -23t-11.5 -22h93v-97h-266z" />
    <glyph glyph-name="glyph105" 
d="M-236 838q-51 0 -73.5 28t-22.5 65q0 40 27 68.5t84 28.5l46 -36l43 36q46 0 76.5 -17t30.5 -55q0 -22 -10 -38h75v-76h-181v55q11 2 19 10.5t8 22.5q0 12 -6.5 20t-16.5 10l-36 -24h-5l-37 24q-10 0 -16.5 -9t-6.5 -22q0 -29 29 -29q9 0 17 3l6 -55q-7 -4 -21 -7t-29 -3
z" />
    <glyph glyph-name="glyph106" 
d="M-506 589q-50 0 -77 30t-27 82q0 54 28 84t74 33l52 -38l48 38q58 -3 82.5 -28.5t24.5 -62.5q0 -26 -9 -46h50v-87h-164v64q13 4 21 13.5t8 26.5q0 19 -8.5 28.5t-18.5 10.5l-31 -22h-4l-30 22q-11 -1 -19 -11t-8 -27q0 -15 8 -26.5t24 -11.5q4 0 9 0.5t11 2.5l7 -64
q-7 -5 -22 -8t-29 -3z" />
    <glyph glyph-name="glyph108" 
d="M-206 842v51h-64v84h64v51h120v-51h65v-84h-65v-51h-120z" />
    <glyph glyph-name="glyph110" 
d="M-231 818q-12 18 -17.5 40t-5.5 42q0 26 13 49t46 37.5t92 14.5h110v-88h-94q-49 0 -49 -37q0 -8 2 -17.5t7 -17.5z" />
    <glyph glyph-name="glyph111" 
d="M-495 572q-8 14 -13.5 36t-5.5 44q0 42 28 71.5t98 29.5h120v-101h-77q-41 0 -41 -30q0 -14 8 -30z" />
    <glyph glyph-name="uni0E47.aalt" 
d="M-358 585q-53 0 -78 45l-39 -42q-58 0 -92 30.5t-34 88.5q0 61 33.5 90.5t77.5 29.5h222v-73h-199q-17 0 -29 -12t-12 -37q0 -18 7.5 -30t23.5 -12l37 43h21q1 -21 9.5 -33.5t24.5 -12.5q13 0 20.5 9.5t7.5 25.5v15h90v-20q0 -54 -25 -79.5t-66 -25.5z" />
    <glyph glyph-name="uni0E34.aalt" 
d="M-639 604v63l82 42h290v-105h-372z" />
    <glyph glyph-name="uni0E35.aalt" 
d="M-639 594v56l82 43h168v74h122v-173h-372z" />
    <glyph glyph-name="uni0E36.aalt" 
d="M-639 594v56l82 43h113v2q0 37 25.5 62t71.5 25q47 0 73.5 -27t26.5 -68q0 -40 -24.5 -66.5t-74.5 -26.5h-293zM-348 647q20 0 30.5 11.5t10.5 28.5q0 18 -11.5 29.5t-30.5 11.5t-30 -11.5t-11 -28.5t10.5 -29t31.5 -12z" />
    <glyph glyph-name="uni0E37.aalt" 
d="M-639 594v56l82 43h77v74h81v-74h50v74h81v-74h1v-99h-372z" />
    <glyph glyph-name="nikhahit_maiEk-thai" 
d="M-181 583q-57 0 -91 26t-34 73t34 73t91 26t91.5 -26t34.5 -73t-34.5 -73t-91.5 -26zM-181 641q22 0 34 11t12 30t-12 30t-34 11q-21 0 -33 -11t-12 -30t12 -30t33 -11zM-238 842v186h130v-186h-130z" />
    <glyph glyph-name="nikhahit_maiTho-thai" 
d="M-181 583q-57 0 -91 26t-34 73t34 73t91 26t91.5 -26t34.5 -73t-34.5 -73t-91.5 -26zM-181 641q22 0 34 11t12 30t-12 30t-34 11q-21 0 -33 -11t-12 -30t12 -30t33 -11zM-297 842v41q10 3 24.5 9t25.5 16t11 25q0 11 -6.5 17.5t-16.5 6.5q-17 0 -29 -10l-18 58
q18 13 44.5 18t45.5 5q38 0 61.5 -16t23.5 -50q0 -9 -2 -18.5t-7 -17.5h118v-84h-275z" />
    <glyph glyph-name="nikhahit_maiTri-thai" 
d="M-181 583q-57 0 -91 26t-34 73t34 73t91 26t91.5 -26t34.5 -73t-34.5 -73t-91.5 -26zM-181 641q22 0 34 11t12 30t-12 30t-34 11q-21 0 -33 -11t-12 -30t12 -30t33 -11zM-266 838q-51 0 -73.5 28t-22.5 65q0 40 27 68.5t84 28.5l46 -36l43 36q46 0 76.5 -17t30.5 -55
q0 -22 -10 -38h75v-76h-181v55q11 2 19 10.5t8 22.5q0 12 -6.5 20t-16.5 10l-36 -24h-5l-37 24q-10 0 -16.5 -9t-6.5 -22q0 -29 29 -29q9 0 17 3l6 -55q-7 -4 -21 -7t-29 -3z" />
    <glyph glyph-name="nikhahit_maiChattawa-thai" 
d="M-181 583q-57 0 -91 26t-34 73t34 73t91 26t91.5 -26t34.5 -73t-34.5 -73t-91.5 -26zM-181 641q22 0 34 11t12 30t-12 30t-34 11q-21 0 -33 -11t-12 -30t12 -30t33 -11zM-236 842v51h-64v84h64v51h120v-51h65v-84h-65v-51h-120z" />
    <glyph glyph-name="uni0E3A.aalt" 
d="M-143 -259q-38 0 -59 17t-21 45q0 27 21 44t59 17q37 0 58 -17t21 -44q0 -28 -21 -45t-58 -17z" />
    <glyph glyph-name="uni0E38.aalt" 
d="M-198 -261v17q0 25 -22 25q-5 0 -10.5 -1.5t-9.5 -2.5l-7 72q14 5 38.5 10t49.5 5q49 0 69 -19.5t20 -53.5v-52h-128z" />
    <glyph glyph-name="uni0E39.aalt" 
d="M-225 -265q-80 0 -117 12.5t-37 36.5v7q0 13 -6.5 18t-16.5 4l-6 45q14 4 31.5 5t29.5 1q43 0 63 -12.5t20 -34.5v-3q0 -10 7.5 -18t27.5 -8q21 0 29 8t8 18v47h122v-63q0 -34 -37 -48.5t-118 -14.5z" />
    <glyph glyph-name="maiChattawa-thai.narrow" 
d="M-458 594v70h-70v87h70v70h120v-70h69v-87h-69v-70h-120z" />
    <glyph glyph-name="nikhahit-thai.narrow" 
d="M-391 582q-57 0 -91 26t-34 73t34 73t91 26t91.5 -26t34.5 -73t-34.5 -73t-91.5 -26zM-391 640q22 0 34 11t12 30t-12 30t-34 11q-21 0 -33 -11t-12 -30t12 -30t33 -11z" />
    <glyph glyph-name="nikhahit_maiEk-thai.narrow" 
d="M-341 582q-57 0 -91 26t-34 73t34 73t91 26t91.5 -26t34.5 -73t-34.5 -73t-91.5 -26zM-341 640q22 0 34 11t12 30t-12 30t-34 11q-21 0 -33 -11t-12 -30t12 -30t33 -11zM-398 841v186h130v-186h-130z" />
    <glyph glyph-name="nikhahit_maiTho-thai.narrow" 
d="M-340 583q-57 0 -91 26t-34 73t34 73t91 26t91.5 -26t34.5 -73t-34.5 -73t-91.5 -26zM-340 641q22 0 34 11t12 30t-12 30t-34 11q-21 0 -33 -11t-12 -30t12 -30t33 -11zM-456 842v41q10 3 24.5 9t25.5 16t11 25q0 11 -6.5 17.5t-16.5 6.5q-17 0 -29 -10l-18 58
q18 13 44.5 18t45.5 5q38 0 61.5 -16t23.5 -50q0 -9 -2 -18.5t-7 -17.5h118v-84h-275z" />
    <glyph glyph-name="nikhahit_maiTri-thai.narrow" 
d="M-341 582q-57 0 -91 26t-34 73t34 73t91 26t91.5 -26t34.5 -73t-34.5 -73t-91.5 -26zM-341 640q22 0 34 11t12 30t-12 30t-34 11q-21 0 -33 -11t-12 -30t12 -30t33 -11zM-426 837q-51 0 -73.5 28t-22.5 65q0 40 27 68.5t84 28.5l46 -36l43 36q46 0 76.5 -17t30.5 -55
q0 -22 -10 -38h75v-76h-181v55q11 2 19 10.5t8 22.5q0 12 -6.5 20t-16.5 10l-36 -24h-5l-37 24q-10 0 -16.5 -9t-6.5 -22q0 -29 29 -29q9 0 17 3l6 -55q-7 -4 -21 -7t-29 -3z" />
    <glyph glyph-name="nikhahit_maiChattawa-thai.narrow" 
d="M-340 583q-57 0 -91 26t-34 73t34 73t91 26t91.5 -26t34.5 -73t-34.5 -73t-91.5 -26zM-340 641q22 0 34 11t12 30t-12 30t-34 11q-21 0 -33 -11t-12 -30t12 -30t33 -11zM-395 842v51h-64v84h64v51h120v-51h65v-84h-65v-51h-120z" />
    </font>
</defs>
</svg>
