<?xml version="1.0" standalone="no"?>
<!DOCTYPE svg PUBLIC "-//W3C//DTD SVG 1.1//EN" "http://www.w3.org/Graphics/SVG/1.1/DTD/svg11.dtd" >
<svg xmlns="http://www.w3.org/2000/svg" xmlns:xlink="http://www.w3.org/1999/xlink" version="1.1">
<metadata>
Created by FontForge 20170731 at Wed Sep 20 01:00:59 2017
 By Aleksey,,,
Copyright 2016 Google Inc. All Rights Reserved.
</metadata>
<defs>
<font id="NotoSansThai-Regular" horiz-adv-x="0" >
  <font-face 
    font-family="Noto Sans Thai"
    font-weight="400"
    font-stretch="normal"
    units-per-em="1000"
    panose-1="2 11 5 2 4 5 4 2 2 4"
    ascent="800"
    descent="-200"
    bbox="-691 -433 862 1009"
    underline-thickness="50"
    underline-position="-175"
    unicode-range="U+000D-25CC"
  />
<missing-glyph horiz-adv-x="364" 
d="M33 0v666h265v-666h-265zM66 33h199v600h-199v-600z" />
    <glyph glyph-name="ru_lakkhangyao-thai" unicode="&#xe24;&#xe45;" horiz-adv-x="942" 
d="M432 -201v552q0 73 -41 103t-100 30q-62 0 -98 -25.5t-36 -64.5l114 -54l-8 -48q-37 0 -63.5 -23t-26.5 -76v-88q0 -42 41 -42q22 0 38 6l13 -64q-19 -9 -37 -12t-34 -3q-28 0 -53.5 9t-41 32t-15.5 64v97q0 62 26.5 90t69.5 39l1 3l-115 42v33q0 41 27 77.5t78 59
t123 22.5q73 0 119 -24t69 -68h3q19 44 66.5 68t114.5 24q94 0 144.5 -49t50.5 -140v-570h-89v560q0 70 -36 97.5t-88 27.5t-89.5 -29t-37.5 -100v-556h-89z" />
    <glyph glyph-name="lu_lakkhangyao-thai" unicode="&#xe26;&#xe45;" horiz-adv-x="943" 
d="M433 -201v552q0 49 -19 78t-51 42t-71 13q-62 0 -98 -25.5t-36 -64.5l114 -54l-8 -48q-38 0 -60.5 -24t-22.5 -77v-97q0 -62 -27 -83t-66 -21q-18 0 -35 3.5t-34 11.5l10 62q7 -2 16 -4t17 -2q30 0 30 40v93q0 62 23 89t66 38l1 3l-115 42v33q0 41 27 77.5t78.5 59
t122.5 22.5q72 0 118 -24t70 -68h3q20 44 67 68t114 24q94 0 144.5 -49t50.5 -140v-570h-89v560q0 70 -36.5 97.5t-88.5 27.5t-89 -29t-37 -100v-556h-89z" />
    <glyph glyph-name=".notdef" horiz-adv-x="364" 
d="M33 0v666h265v-666h-265zM66 33h199v600h-199v-600z" />
    <glyph glyph-name=".null" 
 />
    <glyph glyph-name="nonmarkingreturn" horiz-adv-x="333" 
 />
    <glyph glyph-name="NULL" 
 />
    <glyph glyph-name="NULL" 
 />
    <glyph glyph-name="CR" unicode="&#xd;" horiz-adv-x="260" 
 />
    <glyph glyph-name="space" unicode=" " horiz-adv-x="260" 
 />
    <glyph glyph-name="hyphen" unicode="-" horiz-adv-x="322" 
d="M40 229v78h242v-78h-242z" />
    <glyph glyph-name="uni00A0" unicode="&#xa0;" horiz-adv-x="260" 
 />
    <glyph glyph-name="uni02BC" unicode="&#x2bc;" horiz-adv-x="175" 
d="M149 714l7 -11q-13 -53 -35.5 -117t-45.5 -117h-64q9 37 18 81t17 86.5t12 77.5h91z" />
    <glyph glyph-name="uni02D7" unicode="&#x2d7;" horiz-adv-x="218" 
d="M206 250h-194v52h194v-52z" />
    <glyph glyph-name="tildecomb" unicode="&#x303;" 
d="M-120 735q-6 -59 -33 -93.5t-71 -34.5q-26 0 -51 14t-48 28.5t-44 14.5q-22 0 -33.5 -14.5t-17.5 -43.5h-50q6 59 33 93.5t72 34.5q27 0 52.5 -14.5t48 -28.5t42.5 -14q21 0 32.5 14.5t18.5 43.5h49z" />
    <glyph glyph-name="uni0331" unicode="&#x331;" 
d="M-120 -76v-71h-282v71h282z" />
    <glyph glyph-name="uni0E01" unicode="&#xe01;" horiz-adv-x="600" 
d="M76 0v190q0 63 28 91.5t71 39.5l1 3l-110 42v33q0 41 27 77.5t77 59t121 22.5q61 0 113 -19.5t83.5 -61t31.5 -108.5v-369h-89v360q0 67 -41 95.5t-99 28.5q-62 0 -97.5 -25.5t-35.5 -64.5l108 -54l-8 -48q-37 0 -64.5 -24.5t-27.5 -77.5v-190h-89z" />
    <glyph glyph-name="uni0E02" unicode="&#xe02;" horiz-adv-x="547" 
d="M274 -10q-94 0 -145.5 45.5t-51.5 136.5v61q0 49 14 78.5t30 50.5q17 22 29.5 39.5t12.5 41.5q0 21 -10.5 30t-26.5 9q-12 0 -25.5 -4t-26.5 -10l-20 64q18 12 44.5 17t46.5 5q55 0 78.5 -28.5t23.5 -72.5q0 -37 -12.5 -61t-29.5 -47q-17 -25 -28 -48t-11 -60v-59
q0 -46 15 -71t40 -34.5t53 -9.5q103 0 103 96v389h89v-394q0 -77 -49 -120.5t-143 -43.5z" />
    <glyph glyph-name="uni0E03" unicode="&#xe03;" horiz-adv-x="549" 
d="M272 -10q-94 0 -144 46t-50 137v63q0 39 10 66t26 47.5t33 39.5q16 17 27.5 31.5t12.5 29.5l-3 2q-11 -8 -25.5 -13.5t-32.5 -5.5q-36 0 -59 24.5t-23 69.5v21h78q0 -57 32 -57q10 0 22.5 4t22.5 12l19 41h49v-45q0 -29 -2 -51t-11 -42.5t-30 -47.5q-16 -20 -28.5 -35.5
t-20.5 -36.5t-8 -56v-56q0 -47 15 -72t39 -34t51 -9q52 0 80 23.5t28 72.5v389h88v-394q0 -77 -50.5 -120.5t-145.5 -43.5z" />
    <glyph glyph-name="uni0E04" unicode="&#xe04;" horiz-adv-x="614" 
d="M81 0v350q0 100 53.5 154t172.5 54t172.5 -54t53.5 -154v-350h-89v350q0 134 -138 134q-136 0 -136 -134v-111l3 -1q22 39 54 51.5t90 12.5h33v-73h-33q-61 0 -92.5 -17t-43 -44.5t-11.5 -61.5v-106h-89z" />
    <glyph glyph-name="uni0E05" unicode="&#xe05;" horiz-adv-x="621" 
d="M81 0v419q0 71 35.5 105t96.5 34q35 0 60.5 -12t34.5 -40h4q10 28 35 40t60 12q62 0 97.5 -34t35.5 -105v-419h-89v417q0 38 -16.5 52.5t-41.5 14.5q-50 0 -56 -60h-56q-6 60 -58 60q-23 0 -39 -14.5t-16 -52.5v-178l3 -1q23 39 56 51.5t91 12.5h33v-73h-33
q-62 0 -93.5 -17t-43 -44.5t-11.5 -61.5v-106h-89z" />
    <glyph glyph-name="uni0E06" unicode="&#xe06;" horiz-adv-x="598" 
d="M333 -10q-68 0 -114 25.5t-63 71.5h-4l-5 -87h-73v232q0 58 20.5 92t49.5 65q22 23 32 35t11 26l-3 2q-11 -8 -25.5 -13.5t-32.5 -5.5q-36 0 -59 24.5t-23 69.5v21h78q0 -57 32 -57q10 0 22.5 4t22.5 12l19 41h50v-45q0 -29 -3 -50t-13 -42t-32 -49q-16 -21 -29 -37.5
t-21 -37.5t-8 -56v-9q0 -73 39.5 -115t109.5 -42q117 0 117 122v361h89v-367q0 -99 -49.5 -145t-134.5 -46z" />
    <glyph glyph-name="uni0E07" unicode="&#xe07;" horiz-adv-x="537" 
d="M171 0l-171 548h90l148 -471h12q24 0 47 11.5t39 29.5q30 33 44 83.5t14 99.5q0 83 -37.5 130.5t-103.5 47.5q-27 0 -46 -7l-22 71q21 6 39.5 8t33.5 2q98 0 157 -57q35 -34 51.5 -85t16.5 -113q0 -78 -24 -138.5t-60 -96.5q-29 -29 -71 -46t-107 -17h-50z" />
    <glyph glyph-name="uni0E08" unicode="&#xe08;" horiz-adv-x="532" 
d="M147 0v244h-76v70h161v-242h13q67 0 101 46.5t34 157.5t-38 159.5t-130 48.5q-47 0 -90.5 -12.5t-83.5 -38.5v83q30 18 79 30t106 12q91 0 145.5 -33.5t78.5 -96.5t24 -153q0 -87 -23.5 -148.5t-76 -94t-140.5 -32.5h-84z" />
    <glyph glyph-name="uni0E09" unicode="&#xe09;" horiz-adv-x="604" 
d="M265 -10q-85 0 -134.5 44.5t-49.5 139.5v139h88v-132q0 -55 29 -85.5t87 -30.5q71 0 110 44.5t39 117.5v90q0 65 -19.5 101.5t-56 51t-86.5 14.5q-48 0 -93.5 -12t-88.5 -39v83q28 17 80 29.5t113 12.5q127 0 183.5 -60t56.5 -175v-323h-73l-5 81h-4q-17 -41 -63 -66
t-113 -25z" />
    <glyph glyph-name="uni0E0A" unicode="&#xe0a;" horiz-adv-x="550" 
d="M275 -10q-95 0 -146.5 45.5t-51.5 136.5v61q0 49 14 78.5t30 50.5q17 22 29.5 39.5t12.5 41.5q0 21 -10.5 30t-26.5 9q-12 0 -25.5 -4t-26.5 -10l-20 64q18 12 44.5 17t46.5 5q55 0 78.5 -28.5t23.5 -72.5q0 -37 -12.5 -61t-29.5 -47q-17 -25 -28 -48t-11 -60v-59
q0 -46 15 -71t40 -34.5t54 -9.5q102 0 102 96v140q0 37 -17 56.5t-55 19.5h-4v57h5q41 0 58 19t20.5 46t3.5 51h89q0 -53 -13 -90.5t-59 -53.5v-4q27 -8 40 -24t17 -36.5t4 -39.5v-146q0 -77 -48 -120.5t-143 -43.5z" />
    <glyph glyph-name="uni0E0B" unicode="&#xe0b;" horiz-adv-x="556" 
d="M276 -10q-94 0 -144 46t-50 137v63q0 58 20 91t45 62q15 17 27 31.5t13 29.5l-3 2q-11 -8 -25.5 -13.5t-32.5 -5.5q-36 0 -59 24.5t-23 69.5v21h78q0 -57 32 -57q10 0 22.5 4t22.5 12l19 41h49v-45q0 -29 -2 -51t-11 -42.5t-30 -47.5q-16 -20 -27.5 -35t-18.5 -34t-7 -50
v-65q0 -48 15 -72.5t39 -33.5t51 -9q52 0 80 23.5t28 72.5v140q0 76 -73 76h-4v57h5q40 0 57.5 19t21 46t3.5 51h89q0 -53 -14 -89.5t-58 -52.5v-4q37 -11 49.5 -40t12.5 -72v-136q0 -77 -51 -120.5t-146 -43.5z" />
    <glyph glyph-name="uni0E0C" unicode="&#xe0c;" horiz-adv-x="906" 
d="M194 -10q-28 0 -53.5 9t-41 32t-15.5 64v97q0 62 26.5 90t69.5 39l1 3l-115 42v33q0 43 26.5 79t75 58t115.5 22q56 0 106 -18.5t81 -60t31 -109.5v-142q0 -74 37.5 -118.5t96.5 -44.5q47 0 74 27t27 87v369h89v-375q0 -99 -47.5 -141t-123.5 -42q-54 0 -98 25.5
t-62 71.5h-4l-4 -87h-74v360q0 48 -18 75t-48 38t-64 11q-55 0 -89.5 -23.5t-35.5 -66.5l114 -54l-8 -48q-37 0 -63.5 -23t-26.5 -76v-88q0 -42 42 -42q21 0 37 6l13 -64q-19 -9 -37 -12t-34 -3z" />
    <glyph glyph-name="uni0E0D" unicode="&#xe0d;" horiz-adv-x="909" 
d="M598 -174q-41 0 -82.5 8.5t-78.5 25.5v86q31 -21 75 -31.5t84 -10.5t71 12t49 43.5t18 88.5v26h-4q-20 -32 -59 -52.5t-95 -20.5q-48 0 -86 18t-60 58t-22 105v179q0 48 -18 74.5t-47.5 37.5t-62.5 11q-53 0 -87.5 -23t-35.5 -67l114 -54l-8 -48q-37 0 -63.5 -23
t-26.5 -76v-88q0 -42 41 -42q22 0 38 6l13 -64q-19 -9 -37 -12t-34 -3q-28 0 -53.5 9t-41 32t-15.5 64v97q0 62 26.5 90t69.5 39l1 3l-115 42v33q0 44 26.5 80t75 57.5t113.5 21.5q55 0 104.5 -18t80.5 -59.5t31 -110.5v-181q0 -59 27.5 -86t72.5 -27q61 0 98 44t37 118v310
h89v-498q0 -112 -57.5 -168t-165.5 -56z" />
    <glyph glyph-name="uni0E0E" unicode="&#xe0e;" horiz-adv-x="603" 
d="M103 -201v17q0 58 40.5 92.5t117.5 34.5q54 0 98.5 -16t73.5 -38v471q0 67 -41.5 95.5t-99.5 28.5q-62 0 -98 -25.5t-36 -64.5l114 -54l-8 -48q-38 0 -60.5 -24t-22.5 -77v-97q0 -61 -27 -82t-66 -21q-37 0 -69 14l10 63q7 -2 16 -4t17 -2q30 0 30 39v93q0 62 23 89
t66 38l1 3l-115 42v33q0 41 26.5 77.5t77.5 59t122 22.5q61 0 113.5 -19.5t84 -61t31.5 -108.5v-570h-70q-16 17 -44 33.5t-62 26.5t-68 10q-44 0 -64 -18.5t-20 -41.5v-10h-91z" />
    <glyph glyph-name="uni0E0F" unicode="&#xe0f;" horiz-adv-x="603" 
d="M76 -201v25q0 52 35 81t82 29q46 0 71 -17t38 -42l64 54l67 -50v481q0 67 -41.5 95.5t-99.5 28.5q-62 0 -98 -25.5t-36 -64.5l114 -54l-8 -48q-38 0 -60.5 -24t-22.5 -77v-97q0 -61 -27 -82t-66 -21q-37 0 -69 14l10 63q7 -2 16 -4t17 -2q30 0 30 39v93q0 62 23 89t66 38
l1 3l-115 42v33q0 41 26.5 77.5t77.5 59t122 22.5q61 0 113.5 -19.5t84 -61t31.5 -108.5v-570h-80l-74 56l-61 -56h-23q-13 27 -30.5 46t-44.5 19t-38 -18.5t-11 -37.5v-9h-84z" />
    <glyph glyph-name="uni0E10" unicode="&#xe10;" horiz-adv-x="547" 
d="M143 0v244h-76v70h161v-242h13q67 0 101 46.5t34 157.5t-38 159.5t-130 48.5q-47 0 -90.5 -12.5t-83.5 -38.5v83q30 18 79 30t106 12q94 0 143 -38q23 6 42 21.5t19 42.5h87q0 -45 -29 -73t-71 -38q31 -33 44 -83t13 -115q0 -87 -23.5 -148.5t-76 -94t-140.5 -32.5h-84z
M41 -201v24q0 53 33 81.5t76 28.5q40 0 64 -17t37 -41l59 54l70 -53v72h80v-149h-84l-66 56l-57 -56h-19q-11 27 -28 46t-42 19q-26 0 -35 -18.5t-9 -37.5v-9h-79z" />
    <glyph glyph-name="uni0E11" unicode="&#xe11;" horiz-adv-x="626" 
d="M98 0v214q0 62 8 98.5t33 65.5q21 24 30.5 36t13 19t4.5 17l-3 2q-11 -8 -25.5 -13.5t-32.5 -5.5q-36 0 -59 24.5t-23 69.5v21h78q0 -32 7.5 -44.5t25.5 -12.5q9 0 18.5 3.5t17.5 12.5l19 41h46v-73h4q31 49 67.5 66t74.5 17q78 0 110.5 -41t32.5 -105v-412h-89v395
q0 45 -18 66t-51 21q-35 0 -68 -23t-73 -73q-23 -28 -36 -51t-18 -51.5t-5 -73.5v-210h-89z" />
    <glyph glyph-name="uni0E12" unicode="&#xe12;" horiz-adv-x="903" 
d="M270 -10q-82 0 -126.5 36.5t-62.5 102t-18 152.5q0 103 18.5 163.5t52.5 87t82 26.5q33 0 56.5 -12t33.5 -40h4q10 28 34.5 40t57.5 12q57 0 91.5 -35t34.5 -105v-190q0 -74 37 -118.5t98 -44.5q44 0 71.5 27t27.5 87v369h89v-375q0 -66 -21.5 -106.5t-59 -58.5
t-84.5 -18q-64 0 -106 27t-59 70h-4l-5 -87h-73v417q0 38 -14.5 52.5t-36.5 14.5q-48 0 -54 -60h-55q-4 35 -18.5 47.5t-33.5 12.5q-25 0 -41.5 -18.5t-25 -62t-8.5 -119.5q0 -71 10.5 -120t38.5 -74.5t81 -25.5q19 0 32 2t25 5l9 -68q-16 -7 -36 -10t-42 -3z" />
    <glyph glyph-name="uni0E13" unicode="&#xe13;" horiz-adv-x="909" 
d="M194 -10q-28 0 -53.5 9t-41 32t-15.5 64v97q0 62 26.5 90t69.5 39l1 3l-115 42v33q0 44 26.5 80t75 57.5t113.5 21.5q55 0 104.5 -18t80.5 -59.5t31 -110.5v-191q0 -60 27.5 -87t73.5 -27q60 0 97 44.5t37 118.5v320h89v-548h-73l-5 87h-5q-17 -46 -60.5 -71.5
t-97.5 -25.5q-76 0 -124 42t-48 140v189q0 48 -18 74.5t-47.5 37.5t-62.5 11q-53 0 -87.5 -23t-35.5 -67l114 -54l-8 -48q-37 0 -63.5 -23t-26.5 -76v-88q0 -42 42 -42q21 0 37 6l13 -64q-19 -9 -37 -12t-34 -3z" />
    <glyph glyph-name="uni0E14" unicode="&#xe14;" horiz-adv-x="616" 
d="M268 -10q-80 0 -125.5 37.5t-64 101t-18.5 141.5q0 113 31 175.5t86 87.5t129 25q120 0 174.5 -52t54.5 -141v-365h-88v357q0 61 -31 94t-107 33q-47 0 -83 -17t-56.5 -63t-20.5 -135q0 -58 11.5 -104.5t40.5 -73.5t81 -27q15 0 28 2t25 6l9 -69q-16 -7 -36.5 -10
t-39.5 -3z" />
    <glyph glyph-name="uni0E15" unicode="&#xe15;" horiz-adv-x="636" 
d="M275 -10q-84 0 -130 38.5t-64 105t-18 151.5q0 146 41.5 209.5t119.5 63.5q35 0 59.5 -12t34.5 -40h4q10 28 36 40t61 12q65 0 100.5 -35t35.5 -105v-418h-89v417q0 39 -17 53t-43 14q-29 0 -42.5 -14t-16.5 -46h-56q-4 35 -21 47.5t-38 12.5q-40 0 -60 -47t-20 -153
q0 -69 10.5 -118.5t39.5 -75.5t84 -26q20 0 33 2t25 5l9 -68q-15 -7 -36 -10t-42 -3z" />
    <glyph glyph-name="uni0E16" unicode="&#xe16;" horiz-adv-x="602" 
d="M194 -10q-28 0 -53.5 9t-41 32t-15.5 64v97q0 62 26.5 90t69.5 39l1 3l-115 42v33q0 41 27 77.5t77.5 59t121.5 22.5q62 0 114 -19.5t83.5 -61t31.5 -108.5v-369h-89v360q0 67 -41 95.5t-100 28.5q-62 0 -98 -25.5t-36 -64.5l114 -54l-8 -48q-37 -1 -63.5 -18.5
t-26.5 -70.5v-98q0 -42 42 -42q21 0 37 6l13 -64q-19 -9 -37 -12t-34 -3z" />
    <glyph glyph-name="uni0E17" unicode="&#xe17;" horiz-adv-x="609" 
d="M84 0v548h62l16 -87h4q17 45 62 71t109 26q89 0 140 -46t51 -146v-366h-89v361q0 122 -119 122q-47 0 -80 -22t-50 -59.5t-17 -84.5v-317h-89z" />
    <glyph glyph-name="uni0E18" unicode="&#xe18;" horiz-adv-x="544" 
d="M273 -10q-63 0 -110.5 11t-81.5 25v228h83v-173q14 -7 44.5 -13t65.5 -6q34 0 64.5 7.5t50 29.5t19.5 63q0 38 -19 57.5t-56 32t-91 29.5q-62 19 -101.5 36.5t-58.5 42t-19 64.5q0 64 50 99t160 35q69 0 116.5 -11t70.5 -22v-79q-26 14 -79 26.5t-117 12.5q-52 0 -82 -12
t-30 -42q0 -31 37.5 -46.5t103.5 -33.5q40 -11 76.5 -24t65 -33t45 -51.5t16.5 -79.5q0 -79 -51.5 -126t-171.5 -47z" />
    <glyph glyph-name="uni0E19" unicode="&#xe19;" horiz-adv-x="613" 
d="M270 -10q-88 0 -138.5 46t-50.5 146v366h89v-361q0 -122 119 -122q70 0 108.5 45t38.5 121v317h89v-548h-74l-4 81h-5q-18 -41 -62.5 -66t-109.5 -25z" />
    <glyph glyph-name="uni0E1A" unicode="&#xe1a;" horiz-adv-x="604" 
d="M301 -10q-118 0 -169 54t-51 154v350h89v-351q0 -133 131 -133q68 0 100.5 33t32.5 100v351h89v-350q0 -100 -51.5 -154t-170.5 -54z" />
    <glyph glyph-name="uni0E1B" unicode="&#xe1b;" horiz-adv-x="605" 
d="M301 -10q-118 0 -169 54t-51 154v350h89v-351q0 -133 131 -133q68 0 100.5 33t32.5 100v548h89v-547q0 -100 -51.5 -154t-170.5 -54z" />
    <glyph glyph-name="uni0E1C" unicode="&#xe1c;" horiz-adv-x="648" 
d="M86 0v451q0 43 17 66t44 32t58 9q11 0 28.5 -3t30.5 -9l-11 -67q-10 3 -20 4.5t-16 1.5q-25 0 -34.5 -12t-9.5 -34v-155q0 -31 -0.5 -64.5t-3.5 -80.5h4q19 43 36.5 73t32.5 56l53 90h56l53 -90q23 -40 39 -69t30 -60h4q-3 47 -3.5 80.5t-0.5 64.5v264h87v-548h-79
l-155 262h-4l-157 -262h-79z" />
    <glyph glyph-name="uni0E1D" unicode="&#xe1d;" horiz-adv-x="652" 
d="M86 0v451q0 43 17 66t44 32t58 9q11 0 28.5 -3t30.5 -9l-11 -67q-10 3 -20 4.5t-16 1.5q-25 0 -34.5 -12t-9.5 -34v-155q0 -31 -0.5 -64.5t-3.5 -80.5h4q19 43 36.5 73t32.5 56l53 90h56l53 -90q23 -40 39 -69t30 -60h4q-3 47 -3.5 80.5t-0.5 64.5v461h88v-745h-80
l-155 262h-4l-157 -262h-79z" />
    <glyph glyph-name="uni0E1E" unicode="&#xe1e;" horiz-adv-x="695" 
d="M140 0l-99 548h91l39 -238q5 -29 10 -75t12 -109h3q13 64 25.5 110t21.5 77l67 235h73l68 -235q9 -31 21 -77t26 -110h4q6 63 11 109t10 75l40 238h91l-99 -548h-87l-92 298q-8 25 -14 52t-12 71h-4q-7 -44 -14.5 -71.5t-14.5 -51.5l-90 -298h-87z" />
    <glyph glyph-name="uni0E1F" unicode="&#xe1f;" horiz-adv-x="682" 
d="M136 0l-95 548h91l35 -238q1 -10 4.5 -40t8 -69t8.5 -75h5q7 41 19 87.5t27 99.5l68 235h72l68 -235q15 -53 26.5 -99.5t19.5 -87.5h4q6 61 10.5 108t8.5 76l57 435h88l-110 -745h-88l-91 298q-7 21 -13 50t-13 73h-4q-8 -44 -14 -71.5t-14 -51.5l-91 -298h-87z" />
    <glyph glyph-name="uni0E20" unicode="&#xe20;" horiz-adv-x="603" 
d="M88 -10q-18 0 -35 3.5t-34 11.5l10 62q7 -2 16 -4t17 -2q30 0 30 40v93q0 62 23 89t66 38l1 3l-115 42v33q0 41 26.5 77.5t77.5 59t122 22.5q61 0 113.5 -19.5t84 -61t31.5 -108.5v-369h-89v360q0 67 -41.5 95.5t-99.5 28.5q-62 0 -98 -25.5t-36 -64.5l114 -54l-8 -48
q-38 0 -60.5 -24t-22.5 -77v-97q0 -62 -27 -83t-66 -21z" />
    <glyph glyph-name="uni0E21" unicode="&#xe21;" horiz-adv-x="614" 
d="M345 -10q-65 0 -111 25.5t-63 71.5h-4l-5 -87h-73v548h89v-317q0 -76 39 -121t110 -45q117 0 117 122v361h89v-367q0 -99 -49.5 -145t-138.5 -46z" />
    <glyph glyph-name="uni0E22" unicode="&#xe22;" horiz-adv-x="594" 
d="M292 -9q-122 0 -171.5 46t-49.5 124q0 46 13.5 73.5t34 40.5t42.5 17v4q-21 6 -42.5 20t-36 39t-14.5 63q0 34 16 65.5t52 51.5t95 20q24 0 50 -3.5t40 -11.5l-16 -69q-11 4 -28.5 7.5t-36.5 3.5q-42 0 -62 -19.5t-20 -51.5q0 -35 17.5 -53t45 -24.5t57.5 -6.5h19v-65
h-19q-60 0 -88.5 -22t-28.5 -71q0 -29 11.5 -53t40 -38t79.5 -14q76 0 104 31t28 87v366h89v-360q0 -105 -53.5 -151t-167.5 -46z" />
    <glyph glyph-name="uni0E23" unicode="&#xe23;" horiz-adv-x="488" 
d="M235 -10q-59 0 -109.5 11.5t-85.5 27.5l26 72q32 -13 76.5 -25t94.5 -12q53 0 88 20t35 58q0 34 -28 56t-90 41q-64 20 -107 42.5t-65.5 53.5t-22.5 79q0 62 51 103t163 41q48 0 90.5 -8.5t66.5 -23.5v-75q-26 12 -69.5 23t-90.5 11q-68 0 -95 -20.5t-27 -46.5
q0 -22 12.5 -37t43 -29t82.5 -32q48 -16 88 -37t63.5 -52.5t23.5 -80.5q0 -42 -20.5 -78.5t-67.5 -59t-126 -22.5z" />
    <glyph glyph-name="uni0E24" unicode="&#xe24;" horiz-adv-x="602" 
d="M194 -10q-28 0 -53.5 9t-41 32t-15.5 64v97q0 62 26.5 90t69.5 39l1 3l-115 42v33q0 41 27 77.5t77.5 59t121.5 22.5q62 0 114 -19.5t83.5 -61t31.5 -108.5v-570h-89v561q0 67 -41 95.5t-100 28.5q-62 0 -98 -25.5t-36 -64.5l114 -54l-8 -48q-37 -1 -63.5 -18.5
t-26.5 -70.5v-98q0 -42 42 -42q21 0 37 6l13 -64q-19 -9 -37 -12t-34 -3z" />
    <glyph glyph-name="uni0E25" unicode="&#xe25;" horiz-adv-x="571" 
d="M230 -10q-88 0 -134.5 40.5t-46.5 116.5q0 83 60.5 128t196.5 53l96 6v31q0 65 -29.5 92.5t-98.5 27.5q-50 0 -96 -13.5t-86 -37.5v83q28 15 78 28t112 13q105 0 156.5 -45.5t51.5 -142.5v-370h-88v260l-84 -6q-102 -7 -140.5 -32t-38.5 -73q0 -45 28.5 -66t79.5 -21
q33 0 58 9l14 -67q-19 -8 -41.5 -11t-47.5 -3z" />
    <glyph glyph-name="uni0E26" unicode="&#xe26;" horiz-adv-x="603" 
d="M88 -10q-18 0 -35 3.5t-34 11.5l10 62q7 -2 16 -4t17 -2q30 0 30 40v93q0 62 23 89t66 38l1 3l-115 42v33q0 41 26.5 77.5t77.5 59t122 22.5q61 0 113.5 -19.5t84 -61t31.5 -108.5v-570h-89v561q0 67 -41.5 95.5t-99.5 28.5q-62 0 -98 -25.5t-36 -64.5l114 -54l-8 -48
q-38 0 -60.5 -24t-22.5 -77v-97q0 -62 -27 -83t-66 -21z" />
    <glyph glyph-name="uni0E27" unicode="&#xe27;" horiz-adv-x="492" 
d="M191 -10q-39 0 -75.5 8t-77.5 30l28 68q22 -13 50 -22.5t65 -9.5q74 0 115.5 54t41.5 158q0 101 -42.5 154.5t-130.5 53.5q-32 0 -65 -7t-58 -21v75q28 15 63 21t70 6q90 0 146 -35.5t82 -99t26 -147.5q0 -132 -59.5 -209t-178.5 -77z" />
    <glyph glyph-name="uni0E28" unicode="&#xe28;" horiz-adv-x="628" 
d="M81 0v350q0 100 53.5 154t172.5 54q43 0 76.5 -7.5t57.5 -25.5q19 7 33 21.5t14 37.5h87q0 -40 -23 -66.5t-58 -39.5q21 -21 30 -54t9 -74v-350h-89v350q0 134 -137 134t-137 -134v-111l3 -1q23 39 54.5 51.5t89.5 12.5h33v-73h-33q-61 0 -92.5 -17t-43 -44.5
t-11.5 -61.5v-106h-89z" />
    <glyph glyph-name="uni0E29" unicode="&#xe29;" horiz-adv-x="640" 
d="M309 -10q-124 0 -176 55.5t-52 157.5v345h89v-346q0 -70 33 -104t106 -34t106 34t33 104v24h-78q-64 0 -87.5 27t-23.5 60q0 15 3.5 31t11.5 27l72 -13q-6 -12 -6 -29q0 -13 7.5 -24t26.5 -11h74v254h89v-254h64v-68h-64v-23q0 -102 -52 -157.5t-176 -55.5z" />
    <glyph glyph-name="uni0E2A" unicode="&#xe2a;" horiz-adv-x="572" 
d="M230 -10q-88 0 -134.5 40.5t-46.5 116.5q0 83 60.5 128t196.5 53l96 6v31q0 65 -29.5 92.5t-98.5 27.5q-50 0 -96 -13.5t-86 -37.5v83q28 15 78 28t112 13q40 0 71.5 -7t52.5 -24q17 8 29 22t12 35h87q0 -38 -21.5 -64t-54.5 -40q17 -18 24.5 -46t7.5 -64v-370h-88v260
l-84 -6q-102 -7 -140.5 -32t-38.5 -73q0 -45 28.5 -66t79.5 -21q33 0 58 9l14 -67q-19 -8 -41.5 -11t-47.5 -3z" />
    <glyph glyph-name="uni0E2B" unicode="&#xe2b;" horiz-adv-x="587" 
d="M89 0v548h89v-237h3l228 237h104v-3l-161 -163q81 -7 123.5 -56.5t42.5 -130.5v-195h-89v193q0 56 -32.5 89t-108.5 36l-110 -112v-206h-89z" />
    <glyph glyph-name="uni0E2C" unicode="&#xe2c;" horiz-adv-x="668" 
d="M126 0l-85 548h90l32 -259q4 -30 9.5 -73.5t6.5 -102.5h4q16 59 26.5 93.5t23.5 69.5l65 179h67l66 -179q12 -33 23.5 -68.5t26.5 -94.5h5q0 38 4.5 84.5t12.5 91.5l22 119q13 68 -14.5 98.5t-95.5 30.5h-46v65h81q70 0 95.5 28.5t25.5 78.5v5h90v-5q0 -57 -24.5 -97.5
t-84.5 -52.5v-3q30 -13 44 -36.5t17 -50.5t-1 -51l-74 -418h-87l-76 220q-15 43 -24 74t-18 77h-4q-9 -49 -17.5 -82t-21.5 -70l-78 -219h-86z" />
    <glyph glyph-name="uni0E2D" unicode="&#xe2d;" horiz-adv-x="574" 
d="M275 -10q-108 0 -161.5 56t-53.5 178q0 20 1.5 43.5t3.5 46.5h210v-70h-126v-20q0 -64 14 -99t41.5 -49t68.5 -14q45 0 78 17t51 62t18 129q0 110 -37.5 162t-129.5 52q-48 0 -91.5 -12.5t-83.5 -35.5v83q30 16 79 27.5t107 11.5q88 0 142.5 -35.5t79.5 -100t25 -152.5
t-23 -151t-74.5 -96t-138.5 -33z" />
    <glyph glyph-name="uni0E2E" unicode="&#xe2e;" horiz-adv-x="560" 
d="M275 -10q-108 0 -161.5 56t-53.5 178q0 20 1.5 43.5t3.5 46.5h210v-70h-126v-20q0 -64 14 -99t41.5 -49t68.5 -14q45 0 78 17t51 62t18 129q0 110 -38 162t-129 52q-95 0 -175 -48v83q30 16 79 27.5t107 11.5q40 0 73.5 -8t59.5 -27q20 7 35.5 22t15.5 39h87
q0 -41 -24.5 -68t-60.5 -39q33 -32 47 -86t14 -122q0 -88 -23 -150.5t-74.5 -95.5t-138.5 -33z" />
    <glyph glyph-name="uni0E2F" unicode="&#xe2f;" horiz-adv-x="519" 
d="M332 0v266q-42 -44 -129 -44q-81 0 -133 44.5t-52 132.5q0 73 41 116t112 43q14 0 31.5 -2t37.5 -10l-13 -67q-13 5 -23 6t-17 1q-33 0 -56.5 -22t-23.5 -69q0 -49 28 -75t80 -26q61 0 89 31t28 102v121h89v-548h-89z" />
    <glyph glyph-name="uni0E30" unicode="&#xe30;" horiz-adv-x="338" 
d="M153 344q-62 0 -88 26.5t-26 59.5q0 34 16 58l75 -12q-2 -5 -4.5 -14t-2.5 -18q0 -13 7 -21.5t26 -8.5h143v-70h-146zM153 64q-62 0 -88 26.5t-26 59.5q0 34 16 58l75 -12q-2 -5 -4.5 -14t-2.5 -18q0 -13 7 -21.5t26 -8.5h143v-70h-146z" />
    <glyph glyph-name="uni0E31" unicode="&#xe31;" 
d="M-216 635q-63 0 -89 25.5t-26 57.5q0 15 4.5 32.5t11.5 28.5l75 -13q-6 -12 -6 -31q0 -13 8 -22.5t27 -9.5h253v-68h-258z" />
    <glyph glyph-name="uni0E32" unicode="&#xe32;" horiz-adv-x="406" 
d="M236 0v389q0 49 -22.5 72t-75.5 23q-36 0 -67.5 -10t-60.5 -26v80q20 10 57 20t88 10q78 0 124 -35t46 -121v-402h-89z" />
    <glyph glyph-name="uni0E33" unicode="&#xe33;" horiz-adv-x="406" 
d="M236 0v389q0 49 -22.5 72t-75.5 23q-36 0 -67.5 -10t-60.5 -26v80q20 10 57 20t88 10q78 0 124 -35t46 -121v-402h-89zM-160 611q-50 0 -79 23.5t-29 66.5t29 66.5t79 23.5t80 -23.5t30 -66.5t-30 -66.5t-80 -23.5zM-160 658q24 0 36.5 12t12.5 31t-12.5 31t-36.5 12
q-23 0 -35.5 -12t-12.5 -31t12.5 -31t35.5 -12z" />
    <glyph glyph-name="uni0E34" unicode="&#xe34;" 
d="M-514 635v39l73 32h352v-71h-425z" />
    <glyph glyph-name="uni0E35" unicode="&#xe35;" 
d="M-514 635v39l73 32h269v81h84v-113h-1v-39h-425z" />
    <glyph glyph-name="uni0E36" unicode="&#xe36;" 
d="M-514 635v39l73 32h179q-1 5 -1 11q0 37 24.5 60t67.5 23q44 0 69.5 -23.5t25.5 -60.5q0 -34 -23 -57.5t-67 -23.5h-348zM-169 678q20 0 31 11t11 28t-11.5 28t-31.5 11t-31 -11t-11 -27t10.5 -28t32.5 -12z" />
    <glyph glyph-name="uni0E37" unicode="&#xe37;" 
d="M-514 635v39l73 32h133v81h74v-81h72v81h73v-152h-425z" />
    <glyph glyph-name="uni0E38" unicode="&#xe38;" 
d="M-169 -261v106q0 25 -22 25q-5 0 -10.5 -1t-10.5 -3l-7 60q15 5 32.5 7.5t28.5 2.5q34 0 51 -17t17 -45v-135h-79z" />
    <glyph glyph-name="uni0E39" unicode="&#xe39;" 
d="M-219 -265q-65 0 -98 25.5t-33 72.5v17q0 16 -8.5 20t-23.5 0l-6 60q14 4 27.5 5t20.5 1q36 0 51.5 -16t15.5 -45v-34q0 -19 12 -32t41 -13q30 0 41.5 13t11.5 32v92h78v-97q0 -101 -130 -101z" />
    <glyph glyph-name="uni0E3A" unicode="&#xe3a;" 
d="M-138 -196q-68 0 -68 65t68 65q32 0 50 -17t18 -48t-18 -48t-50 -17z" />
    <glyph glyph-name="uni0E3F" unicode="&#xe3f;" horiz-adv-x="584" 
d="M79 36v641h175v83h61v-84q99 -7 149 -44t50 -114q0 -57 -32 -94.5t-92 -47.5v-4q41 -7 74 -24t52.5 -48.5t19.5 -81.5q0 -87 -60.5 -134.5t-160.5 -47.5v-94h-61v94h-175zM165 409h89v191h-89v-191zM422 508q0 79 -107 90v-188q61 5 84 30t23 68zM165 112h89v220h-89
v-220zM441 226q0 43 -28 71.5t-98 33.5v-218q70 4 98 35.5t28 77.5z" />
    <glyph glyph-name="uni0E40" unicode="&#xe40;" horiz-adv-x="295" 
d="M205 -10q-27 0 -52 9t-41 32t-16 64v453h89v-442q0 -23 9.5 -33t32.5 -10q9 0 19 2t19 5l12 -65q-19 -9 -37 -12t-35 -3z" />
    <glyph glyph-name="uni0E41" unicode="&#xe41;" horiz-adv-x="568" 
d="M205 -10q-27 0 -52 9t-41 32t-16 64v453h89v-442q0 -23 9.5 -33t32.5 -10q9 0 19 2t19 5l12 -65q-19 -9 -37 -12t-35 -3zM478 -10q-27 0 -52 9t-41 32t-16 64v453h89v-442q0 -23 9.5 -33t32.5 -10q9 0 19 2t19 5l12 -65q-19 -9 -37 -12t-35 -3z" />
    <glyph glyph-name="uni0E42" unicode="&#xe42;" horiz-adv-x="308" 
d="M219 -10q-27 0 -52 9t-41 32t-16 64v549q0 60 -28.5 86t-72.5 26v38l74 32h267v-70h-203l-1 -4q22 -15 37.5 -45.5t15.5 -79.5v-521q0 -23 9.5 -33t32.5 -10q9 0 19 2t19 5l12 -65q-19 -9 -37 -12t-35 -3z" />
    <glyph glyph-name="uni0E43" unicode="&#xe43;" horiz-adv-x="289" 
d="M196 -10q-28 0 -53 9t-41 32t-16 64v391q0 28 5 45.5t16.5 34.5t32.5 43q25 31 37 51t12 44q0 58 -71 58q-32 0 -57 -9t-42 -18v76q13 7 42 15t68 8q66 0 106.5 -29.5t40.5 -90.5q0 -40 -15 -70t-35 -54q-18 -22 -29 -36.5t-16.5 -30t-5.5 -39.5v-378q0 -23 10 -33
t31 -10q11 0 21 2t18 5l12 -65q-19 -9 -37 -12t-34 -3z" />
    <glyph glyph-name="uni0E44" unicode="&#xe44;" horiz-adv-x="304" 
d="M219 -10q-27 0 -52 9t-41 32t-16 64v532q0 56 15.5 83t36.5 42l-1 4h-174l23 70h282v-70q-38 0 -65.5 -24t-27.5 -88v-538q0 -23 9.5 -33t32.5 -10q9 0 19 2t19 5l12 -65q-19 -9 -37 -12t-35 -3z" />
    <glyph glyph-name="uni0E45" unicode="&#xe45;" horiz-adv-x="406" 
d="M236 -200v589q0 49 -22.5 72t-75.5 23q-36 0 -67.5 -10t-60.5 -26v80q20 10 57 20t88 10q78 0 124 -35t46 -121v-602h-89z" />
    <glyph glyph-name="uni0E46" unicode="&#xe46;" horiz-adv-x="595" 
d="M427 -201v627q0 32 -11.5 45.5t-34.5 13.5t-34.5 -13.5t-11.5 -45.5v-43h-75v43q0 32 -12 45.5t-34 13.5q-26 0 -38 -22.5t-12 -76.5q0 -62 15 -84.5t45 -22.5q18 0 40 8l17 -66q-17 -7 -33.5 -11.5t-36.5 -4.5q-69 0 -101 46.5t-32 132.5q0 94 34 134t91 40
q33 0 59 -12.5t37 -39.5h3q12 27 37 39.5t60 12.5q48 0 81.5 -26t33.5 -96v-637h-87z" />
    <glyph glyph-name="uni0E47" unicode="&#xe47;" 
d="M-193 620q-57 0 -79 46l-50 -43q-56 0 -90.5 28.5t-34.5 82.5q0 57 34.5 84.5t79.5 27.5h233v-60h-220q-23 0 -39.5 -14t-16.5 -42q0 -21 11 -34.5t37 -13.5l56 50h19q4 -22 16.5 -37.5t34.5 -15.5q19 0 28.5 11t9.5 29v13h65v-14q0 -50 -25.5 -74t-68.5 -24z" />
    <glyph glyph-name="uni0E48" unicode="&#xe48;" 
d="M-178 635v211h88v-211h-88z" />
    <glyph glyph-name="uni0E49" unicode="&#xe49;" 
d="M-368 635v44q20 4 41 11.5t35 19.5t14 31q0 12 -7.5 20.5t-23.5 8.5q-11 0 -21 -4t-18 -7l-20 55q20 16 44.5 21t39.5 5q40 0 62.5 -22t22.5 -56q0 -17 -6 -31.5t-15 -25.5h162v-70h-310z" />
    <glyph glyph-name="uni0E4A" unicode="&#xe4a;" 
d="M-318 630q-50 0 -76.5 27.5t-26.5 74.5q0 48 26.5 74.5t73.5 31.5l56 -36l55 36q56 -5 79 -30.5t23 -60.5q0 -27 -15 -47h86v-65h-180v42q13 6 25 18.5t12 34.5q0 24 -12 34t-22 12l-48 -29h-6l-48 29q-10 -2 -20.5 -11t-10.5 -34q0 -24 11.5 -36.5t30.5 -12.5q5 0 11 1
t12 4l13 -47q-17 -10 -49 -10z" />
    <glyph glyph-name="uni0E4B" unicode="&#xe4b;" 
d="M-240 635v72h-76v64h76v75h76v-75h76v-64h-76v-72h-76z" />
    <glyph glyph-name="uni0E4C" unicode="&#xe4c;" 
d="M-253 606q-7 10 -11.5 28t-4.5 35q0 21 9 39.5t31.5 30.5t64.5 12h137v-69h-114q-20 0 -32 -7.5t-12 -25.5q0 -7 2.5 -15t6.5 -16z" />
    <glyph glyph-name="uni0E4D" unicode="&#xe4d;" 
d="M-160 611q-50 0 -79 23.5t-29 66.5t29 66.5t79 23.5t80 -23.5t30 -66.5t-30 -66.5t-80 -23.5zM-160 658q24 0 36.5 12t12.5 31t-12.5 31t-36.5 12q-23 0 -35.5 -12t-12.5 -31t12.5 -31t35.5 -12z" />
    <glyph glyph-name="uni0E4E" unicode="&#xe4e;" 
d="M-255 606q-6 9 -10.5 24t-4.5 29q0 34 22 51t53 17q16 0 28 -5q-2 9 -2 18q0 31 24 46t55 15q11 0 26 -2.5t28 -7.5v-52q-10 3 -19.5 4t-15.5 1q-23 0 -34 -9.5t-11 -25.5q0 -13 7 -27l-28 -20q-10 8 -20 10t-15 2q-19 0 -27.5 -9.5t-8.5 -21.5q0 -7 2.5 -13.5t5.5 -13.5
z" />
    <glyph glyph-name="uni0E4F" unicode="&#xe4f;" horiz-adv-x="595" 
d="M298 -10q-119 0 -178.5 63.5t-59.5 174.5q0 116 59.5 176.5t178.5 60.5t178.5 -60.5t59.5 -176.5q0 -111 -59.5 -174.5t-178.5 -63.5zM298 60q75 0 113 43t38 125q0 87 -38 127t-113 40q-76 0 -114 -40t-38 -127q0 -82 38 -125t114 -43zM298 121q-49 0 -72 29t-23 78
q0 106 95 106q94 0 94 -106q0 -49 -23 -78t-71 -29z" />
    <glyph glyph-name="uni0E50" unicode="&#xe50;" horiz-adv-x="570" 
d="M285 -10q-110 0 -168.5 63.5t-58.5 174.5q0 116 58.5 176.5t168.5 60.5t168.5 -60.5t58.5 -176.5q0 -111 -58.5 -174.5t-168.5 -63.5zM285 63q66 0 101.5 42.5t35.5 122.5q0 86 -35.5 125t-101.5 39q-67 0 -102 -39t-35 -125q0 -80 35 -122.5t102 -42.5z" />
    <glyph glyph-name="uni0E51" unicode="&#xe51;" horiz-adv-x="545" 
d="M277 -10q-23 0 -44.5 3t-34.5 8v71q10 -4 28 -7t38 -3q70 0 102 44.5t32 127.5q0 86 -33 122t-101 36q-60 0 -92.5 -27t-32.5 -79q0 -42 19.5 -65t50.5 -23q5 0 13 1t15 3l14 -67q-22 -14 -58 -14q-69 0 -104.5 46.5t-35.5 117.5q0 89 55.5 134.5t155.5 45.5
q118 0 171 -60.5t53 -167.5q0 -70 -21.5 -126t-68 -88.5t-121.5 -32.5z" />
    <glyph glyph-name="uni0E52" unicode="&#xe52;" horiz-adv-x="613" 
d="M313 -10q-133 0 -193.5 60.5t-60.5 167.5v366h86v-361q0 -43 14.5 -79.5t51 -58.5t102.5 -22t99 22t44.5 58.5t11.5 80.5v114q0 30 -8 42.5t-23 12.5q-20 0 -26.5 -15.5t-8.5 -40.5h-54q-2 27 -9.5 41.5t-27.5 14.5q-32 0 -32 -65q0 -27 8 -46t35 -19q14 0 30 8l16 -61
q-14 -8 -26.5 -11.5t-28.5 -3.5q-43 0 -68.5 19t-36.5 50.5t-11 68.5q0 61 25.5 94.5t72.5 33.5q26 0 47.5 -11.5t32.5 -39.5h3q12 28 32.5 39.5t46.5 11.5q24 0 46.5 -10t37 -35t14.5 -70v-128q0 -72 -23.5 -123t-76.5 -78t-142 -27z" />
    <glyph glyph-name="uni0E53" unicode="&#xe53;" horiz-adv-x="559" 
d="M255 334q-4 34 -16.5 46.5t-29.5 12.5q-63 0 -63 -153q0 -88 20 -133.5t64 -45.5q8 0 18 1.5t20 5.5l10 -67q-13 -5 -31.5 -8t-37.5 -3q-55 0 -88 32.5t-48 89t-15 126.5q0 115 36 171t103 56q29 0 52 -11.5t33 -39.5h4q10 28 34 39.5t55 11.5q54 0 87 -29.5t33 -100.5
v-335h-87v335q0 37 -15 47.5t-32 10.5q-20 0 -33.5 -12t-17.5 -47h-55z" />
    <glyph glyph-name="uni0E54" unicode="&#xe54;" horiz-adv-x="539" 
d="M259 0q-101 0 -151 53t-50 169q0 64 18.5 118t61.5 87t117 33h40q41 0 61.5 8t27.5 28t7 54v34h84v-40q0 -78 -36 -117.5t-122 -39.5h-49q-68 0 -95 -44t-27 -121q0 -80 28 -115t91 -35h55q-25 30 -25 84q0 64 29 97.5t80 33.5q38 0 62 -13l-24 -59q-5 2 -11.5 3t-11.5 1
q-22 0 -33 -18.5t-11 -49.5q0 -82 69 -82h45v-69h-230z" />
    <glyph glyph-name="uni0E55" unicode="&#xe55;" horiz-adv-x="540" 
d="M260 0q-104 0 -153 54.5t-49 171.5q0 99 35.5 152.5t100.5 71.5q-12 9 -19.5 24.5t-7.5 36.5q0 36 24.5 59t67.5 23q45 0 68.5 -23.5t23.5 -58.5q0 -17 -5 -30t-12 -21q41 4 52.5 24.5t11.5 67.5v32h79v-40q0 -78 -36.5 -117.5t-122.5 -39.5h-46q-70 0 -98 -44t-28 -121
q0 -80 28 -115t91 -35h54q-23 33 -23 84q0 64 29 97t80 33q17 0 33.5 -3.5t28.5 -8.5l-24 -60q-5 2 -12 3t-12 1q-21 0 -32.5 -18t-11.5 -50q0 -81 70 -81h45v-69h-230zM259 468q21 0 32 12t11 28t-11 27.5t-32 11.5q-20 0 -30.5 -11.5t-10.5 -27.5t10.5 -28t30.5 -12z" />
    <glyph glyph-name="uni0E56" unicode="&#xe56;" horiz-adv-x="520" 
d="M247 -10q-55 0 -100 17t-77 58l55 54q23 -25 48.5 -41t70.5 -16q70 0 99.5 42t29.5 125q0 89 -30 126.5t-90 37.5q-44 0 -73 -19.5t-32 -58.5h-59l-74 269h82l47 -165q21 24 52 35t69 11q102 0 149.5 -65.5t47.5 -173.5q0 -116 -54 -176t-161 -60z" />
    <glyph glyph-name="uni0E57" unicode="&#xe57;" horiz-adv-x="720" 
d="M246 334q-4 32 -14 45.5t-29 13.5q-34 0 -45.5 -37t-11.5 -109q0 -96 19 -141t64 -45q8 0 18.5 1.5t20.5 5.5l10 -67q-13 -5 -29 -8t-35 -3q-58 0 -92 32t-49 89t-15 132q0 83 16 131.5t46 69.5t71 21q30 0 49.5 -11.5t30.5 -39.5h5q11 30 35 40.5t54 10.5q49 0 79 -25
t30 -87v-280q44 0 67.5 25.5t23.5 86.5v399h86v-402q0 -70 -28.5 -109.5t-73.5 -56t-93 -16.5h-67v340q0 30 -11.5 41.5t-30.5 11.5q-24 0 -33.5 -13.5t-13.5 -45.5h-54z" />
    <glyph glyph-name="uni0E58" unicode="&#xe58;" horiz-adv-x="565" 
d="M383 -10q-42 0 -70 17.5t-38 55.5l-55 -69q-73 -1 -117.5 54.5t-44.5 170.5q0 66 18 120.5t61 87.5t118 33h50q41 0 61 8t27 27.5t7 54.5v34h84v-40q0 -78 -35.5 -117.5t-122.5 -39.5h-61q-66 0 -93 -44t-27 -120q0 -77 20 -108t45 -36l59 65h48q0 -44 14 -62.5t42 -18.5
q60 0 60 76q0 37 -14 55t-28 29l52 61q39 -20 57 -56t18 -86q0 -70 -37 -111t-98 -41z" />
    <glyph glyph-name="uni0E59" unicode="&#xe59;" horiz-adv-x="504" 
d="M212 -10q-56 0 -90 31.5t-49 87.5t-15 129q0 123 38.5 175t111.5 52q31 0 49.5 -9.5t33.5 -30.5q22 40 74 40h7q21 0 31 11.5t10 40.5v67h82v-71q0 -53 -22.5 -82t-72.5 -29h-15q-29 0 -42.5 -17.5t1.5 -52.5l141 -332h-91l-142 349q-8 21 -17 32.5t-28 11.5
q-17 0 -31 -13t-22 -46t-8 -94q0 -87 19.5 -133t64.5 -46q8 0 18 1.5t20 5.5l10 -67q-13 -5 -31.5 -8t-34.5 -3z" />
    <glyph glyph-name="uni0E5A" unicode="&#xe5a;" horiz-adv-x="767" 
d="M332 -1v271q-21 -25 -54.5 -36.5t-72.5 -11.5q-83 0 -135 44.5t-52 132.5q0 73 41 116t113 43q14 0 31 -2t37 -10l-13 -67q-13 5 -23 6t-15 1q-35 0 -58.5 -22t-23.5 -69q0 -49 27.5 -75t83.5 -26q59 0 86.5 31t27.5 93v130h89v-236q8 -3 18.5 -5t25.5 -2q55 0 85 31.5
t30 92.5v119h89v-549h-89v280q-20 -24 -49 -36t-61 -12q-26 0 -49 8v-240h-89z" />
    <glyph glyph-name="uni0E5B" unicode="&#xe5b;" horiz-adv-x="872" 
d="M236 70q-88 0 -137.5 49t-49.5 136q0 43 14.5 79t47.5 58t86 22q63 0 98.5 -29.5t35.5 -83.5q0 -26 -8.5 -49.5t-18.5 -37.5l-63 31q5 7 9.5 19.5t4.5 26.5q0 29 -17.5 41.5t-41.5 12.5q-34 0 -48 -25t-14 -60q0 -65 31 -92t78 -27q51 0 83 25.5t47 68t14 94.5h59
l52 -118l31 110h50l39 -101l30 92h43l6 -16q10 -26 17.5 -46t21 -32t42.5 -12q12 0 20.5 2t14.5 5v-60q-8 -5 -19 -8t-26 -3q-69 0 -102 74l-22 -83h-45l-42 108l-32 -118h-49l-42 102q-9 -34 -30 -70t-61.5 -60.5t-106.5 -24.5z" />
    <glyph glyph-name="uni200B" unicode="&#x200b;" 
 />
    <glyph glyph-name="uni200C" unicode="&#x200c;" 
d="M-21 -133v761h42v-761h-42z" />
    <glyph glyph-name="uni200D" unicode="&#x200d;" 
d="M-21 -133v668l-62 -62l-26 27l82 82l-82 81l26 27l83 -83l83 83l26 -27l-82 -81l82 -82l-26 -27l-62 62v-668h-42z" />
    <glyph glyph-name="uni2010" unicode="&#x2010;" horiz-adv-x="322" 
d="M40 229v78h242v-78h-242z" />
    <glyph glyph-name="uni25CC" unicode="&#x25cc;" horiz-adv-x="594" 
d="M297 488q-11 0 -18.5 8t-7.5 18t7.5 18t18.5 8t18.5 -8t7.5 -18t-7.5 -18t-18.5 -8zM213 470q-11 0 -18.5 8t-7.5 18t7.5 18t18.5 8t18.5 -8t7.5 -18t-7.5 -18t-18.5 -8zM381 470q-11 0 -18.5 8t-7.5 18t7.5 18t18.5 8t18.5 -8t7.5 -18t-7.5 -18t-18.5 -8zM455 423
q-11 0 -18.5 7.5t-7.5 18.5t7.5 18.5t18.5 7.5t18.5 -7.5t7.5 -18.5t-7.5 -18.5t-18.5 -7.5zM139 423q-11 0 -18.5 7.5t-7.5 18.5t7.5 18.5t18.5 7.5t18.5 -7.5t7.5 -18.5t-7.5 -18.5t-18.5 -7.5zM92 349q-10 0 -18 7.5t-8 18.5t8 18.5t18 7.5t18 -7.5t8 -18.5t-8 -18.5
t-18 -7.5zM502 349q-10 0 -18 7.5t-8 18.5t8 18.5t18 7.5t18 -7.5t8 -18.5t-8 -18.5t-18 -7.5zM74 265q-10 0 -18 7.5t-8 18.5t8 18.5t18 7.5t18 -7.5t8 -18.5t-8 -18.5t-18 -7.5zM520 265q-10 0 -18 7.5t-8 18.5t8 18.5t18 7.5t18 -7.5t8 -18.5t-8 -18.5t-18 -7.5zM92 181
q-10 0 -18 7.5t-8 18.5t8 18.5t18 7.5t18 -7.5t8 -18.5t-8 -18.5t-18 -7.5zM502 181q-10 0 -18 7.5t-8 18.5t8 18.5t18 7.5t18 -7.5t8 -18.5t-8 -18.5t-18 -7.5zM139 107q-11 0 -18.5 7.5t-7.5 18.5t7.5 18.5t18.5 7.5t18.5 -7.5t7.5 -18.5t-7.5 -18.5t-18.5 -7.5zM455 107
q-11 0 -18.5 7.5t-7.5 18.5t7.5 18.5t18.5 7.5t18.5 -7.5t7.5 -18.5t-7.5 -18.5t-18.5 -7.5zM213 60q-11 0 -18.5 8t-7.5 18t7.5 18t18.5 8t18.5 -8t7.5 -18t-7.5 -18t-18.5 -8zM381 60q-11 0 -18.5 8t-7.5 18t7.5 18t18.5 8t18.5 -8t7.5 -18t-7.5 -18t-18.5 -8zM297 42
q-11 0 -18.5 8t-7.5 18t7.5 18t18.5 8t18.5 -8t7.5 -18t-7.5 -18t-18.5 -8z" />
    <glyph glyph-name="saraUu-thai.small" horiz-adv-x="600" 
d="M94 0v714h411v-714h-411zM145 51h309v612h-309v-612z" />
    <glyph glyph-name="uni0E24.aalt" horiz-adv-x="602" 
d="M194 -10q-28 0 -53.5 9t-41 32t-15.5 64v97q0 62 26.5 90t69.5 39l1 3l-115 42v33q0 41 27 77.5t77.5 59t121.5 22.5q62 0 114 -19.5t83.5 -61t31.5 -108.5v-543h-89v534q0 67 -41 95.5t-100 28.5q-62 0 -98 -25.5t-36 -64.5l114 -54l-8 -48q-37 -1 -63.5 -18.5
t-26.5 -70.5v-98q0 -42 42 -42q21 0 37 6l13 -64q-19 -9 -37 -12t-34 -3z" />
    <glyph glyph-name="uni0E26.aalt" horiz-adv-x="603" 
d="M88 -10q-18 0 -35 3.5t-34 11.5l10 62q7 -2 16 -4t17 -2q30 0 30 40v93q0 62 23 89t66 38l1 3l-115 42v33q0 41 26.5 77.5t77.5 59t122 22.5q61 0 113.5 -19.5t84 -61t31.5 -108.5v-543h-89v534q0 67 -41.5 95.5t-99.5 28.5q-62 0 -98 -25.5t-36 -64.5l114 -54l-8 -48
q-38 0 -60.5 -24t-22.5 -77v-97q0 -62 -27 -83t-66 -21z" />
    <glyph glyph-name="doChada-thai.short" horiz-adv-x="603" 
d="M103 -176v17q0 58 40.5 92.5t117.5 34.5q54 0 98.5 -16.5t73.5 -38.5v447q0 67 -41.5 95.5t-99.5 28.5q-62 0 -98 -25.5t-36 -64.5l114 -54l-8 -48q-38 0 -60.5 -24t-22.5 -77v-97q0 -61 -27 -82t-66 -21q-37 0 -69 14l10 63q7 -2 16 -4t17 -2q30 0 30 39v93q0 62 23 89
t66 38l1 3l-115 42v33q0 41 26.5 77.5t77.5 59t122 22.5q61 0 113.5 -19.5t84 -61t31.5 -108.5v-545h-70q-16 18 -44 34t-62 26.5t-68 10.5q-44 0 -64 -18.5t-20 -42.5v-10h-91z" />
    <glyph glyph-name="toPatak-thai.short" horiz-adv-x="603" 
d="M76 -176v25q0 53 35 81t82 28q46 0 71 -17t38 -42l64 54l67 -49v456q0 67 -41.5 95.5t-99.5 28.5q-62 0 -98 -25.5t-36 -64.5l114 -54l-8 -48q-38 0 -60.5 -24t-22.5 -77v-97q0 -61 -27 -82t-66 -21q-37 0 -69 14l10 63q7 -2 16 -4t17 -2q30 0 30 39v93q0 62 23 89t66 38
l1 3l-115 42v33q0 41 26.5 77.5t77.5 59t122 22.5q61 0 113.5 -19.5t84 -61t31.5 -108.5v-545h-80l-74 57l-61 -57h-23q-13 27 -30.5 46t-44.5 19t-38 -18t-11 -37v-10h-84z" />
    <glyph glyph-name="yoYing-thai.less" horiz-adv-x="891" 
d="M607 -10q-105 0 -154 49t-49 151v171q0 48 -18 74.5t-46.5 37.5t-61.5 11q-53 0 -86.5 -23t-34.5 -67l114 -54l-8 -48q-37 0 -63.5 -23t-26.5 -76v-88q0 -42 42 -42q21 0 37 6l13 -64q-19 -9 -37 -12t-34 -3q-28 0 -53.5 9t-41 32t-15.5 64v97q0 62 26.5 90t69.5 39l1 3
l-115 42v33q0 44 26 80t74 57.5t113 21.5q55 0 103.5 -18t79 -59t30.5 -111v-181q0 -67 30 -96t85 -29q54 0 84 29t30 96v359h89v-358q0 -102 -49 -151t-154 -49z" />
    <glyph glyph-name="thoThan-thai.less" horiz-adv-x="547" 
d="M143 0v244h-76v70h161v-242h13q67 0 101 46.5t34 157.5t-38 159.5t-130 48.5q-47 0 -90.5 -12.5t-83.5 -38.5v83q30 18 79 30t106 12q94 0 143 -38q23 6 42 21.5t19 42.5h87q0 -45 -29 -73t-71 -38q31 -33 44 -83t13 -115q0 -87 -23.5 -148.5t-76 -94t-140.5 -32.5h-84z
" />
    <glyph glyph-name="loChula-thai.short" horiz-adv-x="649" 
d="M115 0l-74 548h90l30 -239q7 -53 10.5 -96t6.5 -98h4q8 31 22 72t37 102l46 125h68l50 -125q11 -29 30 -77.5t36 -106.5h5q6 67 12.5 111.5t13.5 88.5l9 60q7 43 -5.5 68t-59.5 25h-56v64h92q38 0 47.5 16.5t12.5 45.5h89q1 -38 -19 -68t-69 -37v-4q36 -11 46 -40t4 -65
l-63 -370h-87l-76 199q-14 37 -24.5 72.5t-17.5 67.5h-4q-7 -32 -17.5 -67.5t-24.5 -72.5l-76 -199h-88z" />
    <glyph glyph-name="macronbelowcomb.alt" 
d="M-120 -76v-71h-571v71h571z" />
    <glyph glyph-name="uni0E31.aalt" 
d="M-383 635q-62 0 -88 25.5t-26 57.5q0 15 4 32.5t11 28.5l75 -13q-2 -4 -3.5 -13.5t-1.5 -17.5q0 -13 8 -22.5t27 -9.5h151v-68h-157z" />
    <glyph glyph-name="glyph99" 
d="M-173 846v163h85v-163h-85z" />
    <glyph glyph-name="glyph100" 
d="M-344 635v211h88v-211h-88z" />
    <glyph glyph-name="glyph102" 
d="M-258 846v35q20 5 42.5 16t22.5 33q0 23 -23 23q-16 0 -33 -10l-18 46q18 12 40.5 16t35.5 4q26 0 47 -13.5t21 -45.5q0 -8 -2 -18t-7 -19h126v-67h-252z" />
    <glyph glyph-name="glyph103" 
d="M-494 635v44q18 4 38 11.5t33.5 19.5t13.5 30q0 30 -29 30q-11 0 -21.5 -4t-18.5 -7l-21 55q21 16 45 21t41 5q39 0 62 -22t23 -58q0 -15 -5 -29.5t-17 -25.5h122v-70h-266z" />
    <glyph glyph-name="glyph105" 
d="M-209 842q-40 0 -60.5 24t-20.5 59t23 59.5t68 24.5l51 -34l46 34q34 0 62.5 -16t28.5 -50q0 -26 -12 -41h67v-56h-152v39q16 2 26.5 12t10.5 26q0 30 -32 35l-43 -28h-5l-45 28q-33 -3 -33 -34q0 -14 8 -23.5t25 -9.5q4 0 10 0.5t10 2.5l8 -43q-7 -4 -17.5 -6.5
t-23.5 -2.5z" />
    <glyph glyph-name="glyph106" 
d="M-455 630q-49 0 -75.5 27.5t-26.5 74.5q0 48 25.5 74.5t72.5 31.5l46 -36l46 36q53 -5 76.5 -30.5t23.5 -60.5q0 -26 -12 -46h72v-66h-167v42q17 6 28.5 18.5t11.5 34.5q0 24 -12 36t-26 14l-38 -30h-6l-38 30q-14 -2 -26 -14.5t-12 -34.5q0 -19 11 -34t34 -15q5 0 13 1
t15 4l12 -47q-17 -10 -48 -10z" />
    <glyph glyph-name="glyph108" 
d="M-168 846v51h-58v61h58v51h75v-51h58v-61h-58v-51h-75z" />
    <glyph glyph-name="glyph110" 
d="M-223 817q-7 11 -11.5 29t-4.5 34q0 22 9 40.5t32.5 30.5t65.5 12h125v-68h-103q-45 0 -45 -33q0 -16 8 -32z" />
    <glyph glyph-name="glyph111" 
d="M-450 606q-7 10 -11.5 28t-4.5 35q0 31 22 56.5t83 25.5h135v-69h-112q-44 0 -44 -33q0 -15 8 -31z" />
    <glyph glyph-name="uni0E47.aalt" 
d="M-317 620q-54 0 -78 46l-34 -43q-58 0 -91 28.5t-33 82.5q0 57 33.5 84.5t77.5 27.5h214v-60h-201q-23 0 -38.5 -13t-15.5 -42q0 -21 11 -35t37 -14l40 50h25q2 -53 41 -53q17 0 27.5 11.5t10.5 29.5v12h64v-14q0 -50 -24.5 -74t-65.5 -24z" />
    <glyph glyph-name="uni0E34.aalt" 
d="M-574 635v39l72 32h274v-71h-346z" />
    <glyph glyph-name="uni0E35.aalt" 
d="M-574 635v39l72 31h191v79h83v-149h-346z" />
    <glyph glyph-name="uni0E36.aalt" 
d="M-574 635v39l72 31h115q-1 6 -1 13q0 39 25 62.5t69 23.5t69.5 -24t25.5 -62q0 -36 -23.5 -59.5t-66.5 -23.5h-285zM-293 678q20 0 31 11.5t11 29.5q0 19 -11.5 30t-31.5 11q-21 0 -32 -11t-11 -30q0 -17 10.5 -29t33.5 -12z" />
    <glyph glyph-name="uni0E37.aalt" 
d="M-574 635v39l72 31h70v79h72v-79h61v79h72v-79h1v-70h-348z" />
    <glyph glyph-name="nikhahit_maiEk-thai" 
d="M-160 611q-50 0 -79 23.5t-29 66.5t29 66.5t79 23.5t80 -23.5t30 -66.5t-30 -66.5t-80 -23.5zM-160 658q24 0 36.5 12t12.5 31t-12.5 31t-36.5 12q-23 0 -35.5 -12t-12.5 -31t12.5 -31t35.5 -12zM-202 846v163h85v-163h-85z" />
    <glyph glyph-name="nikhahit_maiTho-thai" 
d="M-160 611q-50 0 -79 23.5t-29 66.5t29 66.5t79 23.5t80 -23.5t30 -66.5t-30 -66.5t-80 -23.5zM-160 658q24 0 36.5 12t12.5 31t-12.5 31t-36.5 12q-23 0 -35.5 -12t-12.5 -31t12.5 -31t35.5 -12zM-287 846v35q20 5 42.5 16t22.5 33q0 23 -23 23q-16 0 -33 -10l-18 46
q18 12 40.5 16t35.5 4q26 0 47 -13.5t21 -45.5q0 -8 -2 -18t-7 -19h126v-67h-252z" />
    <glyph glyph-name="nikhahit_maiTri-thai" 
d="M-160 611q-50 0 -79 23.5t-29 66.5t29 66.5t79 23.5t80 -23.5t30 -66.5t-30 -66.5t-80 -23.5zM-160 658q24 0 36.5 12t12.5 31t-12.5 31t-36.5 12q-23 0 -35.5 -12t-12.5 -31t12.5 -31t35.5 -12zM-238 842q-40 0 -60.5 24t-20.5 59t23 59.5t68 24.5l51 -34l46 34
q34 0 62.5 -16t28.5 -50q0 -26 -12 -41h67v-56h-152v39q16 2 26.5 12t10.5 26q0 30 -32 35l-43 -28h-5l-45 28q-33 -3 -33 -34q0 -14 8 -23.5t25 -9.5q4 0 10 0.5t10 2.5l8 -43q-7 -4 -17.5 -6.5t-23.5 -2.5z" />
    <glyph glyph-name="nikhahit_maiChattawa-thai" 
d="M-160 611q-50 0 -79 23.5t-29 66.5t29 66.5t79 23.5t80 -23.5t30 -66.5t-30 -66.5t-80 -23.5zM-160 658q24 0 36.5 12t12.5 31t-12.5 31t-36.5 12q-23 0 -35.5 -12t-12.5 -31t12.5 -31t35.5 -12zM-197 846v51h-58v61h58v51h75v-51h58v-61h-58v-51h-75z" />
    <glyph glyph-name="uni0E3A.aalt" 
d="M-127 -360q-68 0 -68 65t68 65q32 0 50 -17t18 -48t-18 -48t-50 -17z" />
    <glyph glyph-name="uni0E38.aalt" 
d="M-160 -428v106q0 25 -22 25q-5 0 -10.5 -1t-10.5 -3l-7 60q15 5 32.5 7.5t28.5 2.5q34 0 51 -17t17 -45v-135h-79z" />
    <glyph glyph-name="uni0E39.aalt" 
d="M-211 -433q-65 0 -98 25.5t-33 72.5v17q0 16 -8.5 20t-23.5 0l-6 60q14 4 27.5 5t20.5 1q36 0 51.5 -16t15.5 -45v-34q0 -19 12 -32t41 -13q30 0 41.5 13t11.5 32v92h78v-97q0 -101 -130 -101z" />
    <glyph glyph-name="maiChattawa-thai.narrow" 
d="M-383 635v72h-76v64h76v75h75v-75h77v-64h-77v-72h-75z" />
    <glyph glyph-name="nikhahit-thai.narrow" 
d="M-337 611q-50 0 -79 23.5t-29 66.5t29 66.5t79 23.5t80 -23.5t30 -66.5t-30 -66.5t-80 -23.5zM-337 658q24 0 36.5 12t12.5 31t-12.5 31t-36.5 12q-23 0 -35.5 -12t-12.5 -31t12.5 -31t35.5 -12z" />
    <glyph glyph-name="nikhahit_maiEk-thai.narrow" 
d="M-320 611q-50 0 -79 23.5t-29 66.5t29 66.5t79 23.5t80 -23.5t30 -66.5t-30 -66.5t-80 -23.5zM-320 658q24 0 36.5 12t12.5 31t-12.5 31t-36.5 12q-23 0 -35.5 -12t-12.5 -31t12.5 -31t35.5 -12zM-362 846v163h85v-163h-85z" />
    <glyph glyph-name="nikhahit_maiTho-thai.narrow" 
d="M-319 611q-50 0 -79 23.5t-29 66.5t29 66.5t79 23.5t80 -23.5t30 -66.5t-30 -66.5t-80 -23.5zM-319 658q24 0 36.5 12t12.5 31t-12.5 31t-36.5 12q-23 0 -35.5 -12t-12.5 -31t12.5 -31t35.5 -12zM-446 846v35q20 5 42.5 16t22.5 33q0 23 -23 23q-16 0 -33 -10l-18 46
q18 12 40.5 16t35.5 4q26 0 47 -13.5t21 -45.5q0 -8 -2 -18t-7 -19h126v-67h-252z" />
    <glyph glyph-name="nikhahit_maiTri-thai.narrow" 
d="M-320 611q-50 0 -79 23.5t-29 66.5t29 66.5t79 23.5t80 -23.5t30 -66.5t-30 -66.5t-80 -23.5zM-320 658q24 0 36.5 12t12.5 31t-12.5 31t-36.5 12q-23 0 -35.5 -12t-12.5 -31t12.5 -31t35.5 -12zM-398 842q-40 0 -60.5 24t-20.5 59t23 59.5t68 24.5l51 -34l46 34
q34 0 62.5 -16t28.5 -50q0 -26 -12 -41h67v-56h-152v39q16 2 26.5 12t10.5 26q0 30 -32 35l-43 -28h-5l-45 28q-33 -3 -33 -34q0 -14 8 -23.5t25 -9.5q4 0 10 0.5t10 2.5l8 -43q-7 -4 -17.5 -6.5t-23.5 -2.5z" />
    <glyph glyph-name="nikhahit_maiChattawa-thai.narrow" 
d="M-319 611q-50 0 -79 23.5t-29 66.5t29 66.5t79 23.5t80 -23.5t30 -66.5t-30 -66.5t-80 -23.5zM-319 658q24 0 36.5 12t12.5 31t-12.5 31t-36.5 12q-23 0 -35.5 -12t-12.5 -31t12.5 -31t35.5 -12zM-356 846v51h-58v61h58v51h75v-51h58v-61h-58v-51h-75z" />
    </font>
</defs>
</svg>
