<?xml version="1.0" standalone="no"?>
<!DOCTYPE svg PUBLIC "-//W3C//DTD SVG 1.1//EN" "http://www.w3.org/Graphics/SVG/1.1/DTD/svg11.dtd" >
<svg xmlns="http://www.w3.org/2000/svg" xmlns:xlink="http://www.w3.org/1999/xlink" version="1.1">
<metadata>
Created by FontForge 20170731 at Wed Sep 20 00:59:25 2017
 By Aleksey,,,
Copyright 2015 Google Inc. All Rights Reserved.
</metadata>
<defs>
<font id="NotoSans-SemiBold" horiz-adv-x="0" >
  <font-face 
    font-family="Noto Sans SemBd"
    font-weight="600"
    font-stretch="normal"
    units-per-em="1000"
    panose-1="2 11 7 2 4 5 4 2 2 4"
    ascent="800"
    descent="-200"
    x-height="542"
    cap-height="714"
    bbox="-623 -389 2800 1067"
    underline-thickness="50"
    underline-position="-175"
    unicode-range="U+000D-FFFD"
  />
<missing-glyph horiz-adv-x="600" 
d="M94 0v714h411v-714h-411zM145 51h309v612h-309v-612z" />
    <glyph glyph-name=".notdef" horiz-adv-x="600" 
d="M94 0v714h411v-714h-411zM145 51h309v612h-309v-612z" />
    <glyph glyph-name=".null" 
 />
    <glyph glyph-name="nonmarkingreturn" horiz-adv-x="333" 
 />
    <glyph glyph-name="NULL" 
 />
    <glyph glyph-name="NULL" 
 />
    <glyph glyph-name="CR" unicode="&#xd;" horiz-adv-x="260" 
 />
    <glyph glyph-name="space" unicode=" " horiz-adv-x="260" 
 />
    <glyph glyph-name="exclam" unicode="!" horiz-adv-x="280" 
d="M188 223h-96l-25 491h146zM63 64q0 42 22.5 59.5t54.5 17.5q31 0 53.5 -17.5t22.5 -59.5q0 -41 -22.5 -59t-53.5 -18q-32 0 -54.5 18t-22.5 59z" />
    <glyph glyph-name="quotedbl" unicode="&#x22;" horiz-adv-x="448" 
d="M186 714l-20 -258h-81l-20 258h121zM383 714l-20 -258h-81l-20 258h121z" />
    <glyph glyph-name="numbersign" unicode="#" horiz-adv-x="646" 
d="M485 421l-26 -131h130v-88h-147l-39 -202h-93l39 202h-113l-38 -202h-92l37 202h-120v88h137l26 131h-127v88h143l39 204h93l-38 -204h114l39 204h91l-38 -204h120v-88h-137zM252 290h114l26 131h-114z" />
    <glyph glyph-name="dollar" unicode="$" horiz-adv-x="572" 
d="M253 -58v101q-61 1 -112.5 11.5t-89.5 27.5v112q38 -18 94 -33t108 -17v170q-73 26 -117.5 52.5t-65 61t-20.5 82.5q0 75 56 118.5t147 50.5v80h66v-78q55 -2 102 -12.5t90 -29.5l-39 -99q-37 15 -76.5 24.5t-76.5 12.5v-166q59 -19 106 -42t74.5 -57.5t27.5 -89.5
q0 -72 -52.5 -119t-155.5 -57v-104h-66zM253 436v139q-79 -9 -79 -62q0 -28 18 -45t61 -32zM319 148q84 12 84 67q0 27 -19.5 43t-64.5 32v-142z" />
    <glyph glyph-name="percent" unicode="%" horiz-adv-x="875" 
d="M197 724q80 0 122 -58.5t42 -164.5t-39.5 -165.5t-124.5 -59.5q-78 0 -118.5 59.5t-40.5 165.5t38 164.5t121 58.5zM686 714l-396 -714h-102l396 714h102zM198 637q-56 0 -56 -137t56 -137q58 0 58 137t-58 137zM674 439q80 0 121.5 -58.5t41.5 -164.5t-39 -165.5
t-124 -59.5q-79 0 -119.5 59.5t-40.5 165.5t38.5 164.5t121.5 58.5zM674 351q-56 0 -56 -136q0 -138 56 -138q59 0 59 138q0 136 -59 136z" />
    <glyph glyph-name="ampersand" unicode="&#x26;" horiz-adv-x="743" 
d="M308 724q84 0 137 -40t53 -114q0 -67 -41 -113t-102 -81l159 -154q22 32 37.5 71t26.5 80h130q-16 -59 -43 -119.5t-69 -110.5l146 -143h-159l-68 66q-45 -34 -99 -55t-125 -21q-115 0 -180.5 54t-65.5 146q0 76 37.5 122t102.5 83q-37 42 -57 81t-20 87q0 75 55 118
t145 43zM306 626q-32 0 -55.5 -16.5t-23.5 -52.5q0 -29 15 -55t41 -55q49 27 72.5 53t23.5 60q0 32 -22 49t-51 17zM259 319q-38 -25 -60 -52t-22 -67q0 -47 34 -75t87 -28q44 0 79 13t61 33z" />
    <glyph glyph-name="quotesingle" unicode="'" horiz-adv-x="251" 
d="M186 714l-20 -258h-81l-20 258h121z" />
    <glyph glyph-name="parenleft" unicode="(" horiz-adv-x="324" 
d="M40 274q0 122 35.5 235.5t111.5 204.5h107q-68 -94 -103.5 -207t-35.5 -232q0 -116 35.5 -228t102.5 -205h-106q-76 88 -111.5 199.5t-35.5 232.5z" />
    <glyph glyph-name="parenright" unicode=")" horiz-adv-x="324" 
d="M284 274q0 -121 -35.5 -232.5t-111.5 -199.5h-106q68 93 103.5 205t35.5 228q0 119 -35.5 232t-104.5 207h107q76 -91 111.5 -204.5t35.5 -235.5z" />
    <glyph glyph-name="asterisk" unicode="*" horiz-adv-x="547" 
d="M331 760l-20 -185l185 53l16 -112l-173 -13l113 -150l-102 -54l-79 161l-71 -161l-105 54l111 150l-171 14l17 111l182 -53l-20 185h117z" />
    <glyph glyph-name="plus" unicode="+" horiz-adv-x="572" 
d="M332 399h193v-93h-193v-195h-94v195h-192v93h192v197h94v-197z" />
    <glyph glyph-name="comma" unicode="," horiz-adv-x="279" 
d="M205 116l7 -11q-14 -53 -37.5 -116t-48.5 -118h-91q14 59 27.5 126t21.5 119h121z" />
    <glyph glyph-name="hyphen" unicode="-" horiz-adv-x="322" 
d="M34 215v106h254v-106h-254z" />
    <glyph glyph-name="period" unicode="." horiz-adv-x="279" 
d="M63 64q0 42 22.5 59.5t53.5 17.5t54 -17.5t23 -59.5q0 -41 -23 -59t-54 -18t-53.5 18t-22.5 59z" />
    <glyph glyph-name="slash" unicode="/" horiz-adv-x="398" 
d="M391 714l-266 -714h-117l266 714h117z" />
    <glyph glyph-name="zero" unicode="0" horiz-adv-x="572" 
d="M530 357q0 -115 -24 -197t-78 -126t-143 -44q-126 0 -185 97t-59 270q0 115 24 197.5t77.5 126.5t142.5 44q125 0 185 -97t60 -271zM168 357q0 -131 25.5 -197t91.5 -66q65 0 91.5 65.5t26.5 197.5q0 131 -26.5 197.5t-91.5 66.5q-66 0 -91.5 -66.5t-25.5 -197.5z" />
    <glyph glyph-name="one" unicode="1" horiz-adv-x="572" 
d="M391 0h-126v445q0 32 1 68t3 67q-10 -10 -24.5 -24t-31.5 -27l-80 -64l-63 78l216 171h105v-714z" />
    <glyph glyph-name="two" unicode="2" horiz-adv-x="572" 
d="M532 0h-489v93l182 184q54 55 88.5 94t51 73.5t16.5 74.5q0 49 -27.5 73.5t-74.5 24.5q-45 0 -84 -18.5t-81 -52.5l-69 83q44 38 99.5 66.5t141.5 28.5q69 0 118.5 -24.5t76.5 -68t27 -99.5q0 -58 -23 -106.5t-66.5 -97t-103.5 -104.5l-113 -109v-6h330v-109z" />
    <glyph glyph-name="three" unicode="3" horiz-adv-x="572" 
d="M504 551q0 -73 -42.5 -116.5t-109.5 -58.5v-3q86 -11 130 -54t44 -113q0 -62 -30 -111t-92.5 -77t-160.5 -28q-59 0 -108.5 9.5t-93.5 29.5v111q45 -23 96 -35t96 -12q87 0 123 31.5t36 87.5q0 53 -42 79t-140 26h-60v101h61q95 0 131 31t36 80q0 43 -28 67t-84 24
q-54 0 -93 -17.5t-70 -37.5l-60 87q41 30 97 51t132 21q111 0 171.5 -47t60.5 -126z" />
    <glyph glyph-name="four" unicode="4" horiz-adv-x="572" 
d="M554 153h-93v-153h-124v153h-318v94l321 469h121v-460h93v-103zM337 256v160q0 28 1 58.5t2.5 57t2.5 40.5h-4q-9 -20 -19.5 -39.5t-23.5 -38.5l-162 -238h203z" />
    <glyph glyph-name="five" unicode="5" horiz-adv-x="572" 
d="M291 449q68 0 120 -25t81.5 -72.5t29.5 -116.5q0 -115 -71.5 -180t-206.5 -65q-56 0 -105.5 10t-84.5 29v112q37 -20 88.5 -33t98.5 -13q71 0 111.5 31t40.5 97q0 59 -38 90.5t-118 31.5q-29 0 -61 -5t-53 -10l-54 30l27 354h376v-110h-265l-15 -165q17 3 40.5 6.5
t58.5 3.5z" />
    <glyph glyph-name="six" unicode="6" horiz-adv-x="572" 
d="M43 304q0 62 8.5 122t30.5 113.5t61 95t99.5 65t146.5 23.5q21 0 48 -2t45 -6v-104q-39 11 -86 11q-90 0 -140 -32.5t-70 -89t-24 -126.5h6q21 35 60 59.5t101 24.5q93 0 149 -58t56 -165q0 -115 -64 -180t-173 -65q-71 0 -128.5 34t-91.5 103.5t-34 176.5zM295 93
q51 0 83 34.5t32 106.5q0 58 -28 91.5t-84 33.5q-39 0 -67.5 -16.5t-44.5 -42t-16 -52.5q0 -37 14 -72.5t41.5 -59t69.5 -23.5z" />
    <glyph glyph-name="seven" unicode="7" horiz-adv-x="572" 
d="M120 0l278 605h-365v109h500v-85l-278 -629h-135z" />
    <glyph glyph-name="eight" unicode="8" horiz-adv-x="572" 
d="M286 723q62 0 112 -19t80 -57.5t30 -94.5q0 -64 -38 -105.5t-93 -69.5q41 -21 76 -47t56.5 -61.5t21.5 -83.5q0 -59 -31 -103t-85.5 -68t-127.5 -24q-119 0 -183 51t-64 140q0 49 19 85t51 62t71 45q-49 30 -83.5 72.5t-34.5 107.5q0 55 30.5 93t81 57.5t111.5 19.5z
M285 628q-44 0 -72.5 -22t-28.5 -62q0 -44 30 -70t73 -45q41 18 70.5 44t29.5 71q0 40 -28.5 62t-73.5 22zM160 187q0 -44 31 -72.5t94 -28.5q62 0 94 28t32 73t-36 75t-85 52l-14 7q-54 -25 -85 -56.5t-31 -77.5z" />
    <glyph glyph-name="nine" unicode="9" horiz-adv-x="572" 
d="M530 409q0 -61 -9 -121.5t-31 -114t-61 -95t-99.5 -65t-146.5 -23.5q-20 0 -48 2t-45 6v104q39 -11 86 -11q90 0 140 32.5t70.5 88.5t23.5 126h-6q-22 -34 -59 -58.5t-104 -24.5q-91 0 -146.5 58t-55.5 164q0 115 64 180.5t173 65.5q71 0 128.5 -34t91.5 -103.5
t34 -176.5zM278 619q-51 0 -83 -34t-32 -106q0 -59 27.5 -92.5t84.5 -33.5q39 0 68 16.5t44.5 42.5t15.5 53q0 37 -14 72t-41.5 58.5t-69.5 23.5z" />
    <glyph glyph-name="colon" unicode=":" horiz-adv-x="279" 
d="M63 476q0 43 22.5 60.5t53.5 17.5t54 -17.5t23 -60.5q0 -40 -23 -58.5t-54 -18.5t-53.5 18.5t-22.5 58.5zM63 64q0 42 22.5 59.5t53.5 17.5t54 -17.5t23 -59.5q0 -41 -23 -59t-54 -18t-53.5 18t-22.5 59z" />
    <glyph glyph-name="semicolon" unicode=";" horiz-adv-x="279" 
d="M62 476q0 43 22 60.5t54 17.5t54.5 -17.5t22.5 -60.5q0 -40 -22.5 -58.5t-54.5 -18.5t-54 18.5t-22 58.5zM202 116l7 -11q-13 -53 -37.5 -116.5t-48.5 -117.5h-92q14 58 28.5 125.5t21.5 119.5h121z" />
    <glyph glyph-name="less" unicode="&#x3c;" horiz-adv-x="572" 
d="M525 105l-479 212v62l479 240v-103l-350 -163l350 -145v-103z" />
    <glyph glyph-name="equal" unicode="=" horiz-adv-x="572" 
d="M48 402v93h475v-93h-475zM48 209v93h475v-93h-475z" />
    <glyph glyph-name="greater" unicode="&#x3e;" horiz-adv-x="572" 
d="M46 208l350 144l-350 164v103l479 -240v-62l-479 -212v103z" />
    <glyph glyph-name="question" unicode="?" horiz-adv-x="461" 
d="M137 223v33q0 52 19.5 87t69.5 74q50 38 70.5 63t20.5 62q0 38 -26.5 58t-75.5 20q-44 0 -84 -13t-80 -33l-45 94q46 25 100 40.5t119 15.5q101 0 156 -48.5t55 -127.5q0 -43 -13.5 -73.5t-40 -56.5t-63.5 -55q-31 -24 -47 -41t-22 -33.5t-6 -40.5v-25h-107zM118 64
q0 42 22.5 59.5t54.5 17.5q31 0 53.5 -17.5t22.5 -59.5q0 -41 -22.5 -59t-53.5 -18q-32 0 -54.5 18t-22.5 59z" />
    <glyph glyph-name="at" unicode="@" horiz-adv-x="898" 
d="M845 358q0 -46 -11 -91t-33 -81t-55.5 -57.5t-78.5 -21.5q-41 0 -68 20.5t-37 51.5h-6q-20 -29 -54 -50.5t-83 -21.5q-85 0 -130.5 52.5t-45.5 137.5q0 67 28 118t78.5 80.5t120.5 29.5q46 0 93.5 -8t73.5 -18l-10 -204q-1 -13 -1 -22.5v-12.5q0 -46 14 -60.5t33 -14.5
q25 0 43 23.5t27 63.5t9 87q0 87 -35.5 148t-97 93t-138.5 32q-109 0 -183 -45t-112.5 -123t-38.5 -178q0 -140 74.5 -214.5t215.5 -74.5q59 0 119 13t109 31v-84q-47 -19 -104 -31t-122 -12q-121 0 -207.5 44t-132.5 126.5t-46 198.5q0 92 29.5 170.5t85.5 137t134.5 91
t177.5 32.5q106 0 188.5 -43t129.5 -123t47 -190zM343 295q0 -58 23.5 -84t64.5 -26q52 0 74 38.5t26 100.5l6 115q-12 3 -28.5 5t-34.5 2q-48 0 -77 -22t-41.5 -56.5t-12.5 -72.5z" />
    <glyph glyph-name="A" unicode="A" horiz-adv-x="671" 
d="M534 0l-65 189h-269l-64 -189h-136l262 717h146l262 -717h-136zM436 299l-62 184q-4 13 -12 37.5t-15 50t-12 42.5q-5 -21 -12.5 -47t-14 -49t-10.5 -34l-63 -184h201z" />
    <glyph glyph-name="B" unicode="B" horiz-adv-x="664" 
d="M93 714h215q139 0 210.5 -40t71.5 -139q0 -62 -31 -103.5t-89 -52.5v-5q39 -8 70.5 -26t50.5 -52.5t19 -90.5q0 -97 -69 -151t-187 -54h-261v714zM221 423h104q76 0 104.5 24.5t28.5 70.5q0 48 -34.5 69t-108.5 21h-94v-185zM221 320v-213h116q78 0 108.5 30.5t30.5 79.5
q0 47 -31.5 75t-113.5 28h-110z" />
    <glyph glyph-name="C" unicode="C" horiz-adv-x="635" 
d="M397 616q-97 0 -151 -69.5t-54 -190.5q0 -122 50 -190t154 -68q45 0 88.5 9.5t89.5 25.5v-109q-44 -18 -88.5 -26t-102.5 -8q-110 0 -182 45.5t-107 128t-35 193.5q0 108 39 190.5t114.5 129.5t184.5 47q54 0 106.5 -12t98.5 -35l-44 -105q-38 17 -78.5 30.5t-82.5 13.5z
" />
    <glyph glyph-name="D" unicode="D" horiz-adv-x="736" 
d="M677 364q0 -181 -101 -272.5t-282 -91.5h-201v714h222q111 0 192 -40t125.5 -118t44.5 -192zM543 360q0 128 -59 188t-169 60h-94v-501h77q245 0 245 253z" />
    <glyph glyph-name="E" unicode="E" horiz-adv-x="558" 
d="M499 0h-406v714h406v-107h-278v-182h260v-107h-260v-210h278v-108z" />
    <glyph glyph-name="F" unicode="F" horiz-adv-x="538" 
d="M219 0h-126v714h405v-107h-279v-210h260v-107h-260v-290z" />
    <glyph glyph-name="G" unicode="G" horiz-adv-x="726" 
d="M378 392h270v-363q-57 -19 -117 -29t-136 -10q-162 0 -249 96t-87 272q0 112 43.5 194t126.5 127t202 45q59 0 113 -12t99 -31l-44 -105q-35 16 -79 28t-92 12q-73 0 -126 -32t-81.5 -90.5t-28.5 -137.5q0 -76 22 -134t70 -91t125 -33q38 0 64.5 4t48.5 9v172h-144v109z
" />
    <glyph glyph-name="H" unicode="H" horiz-adv-x="756" 
d="M663 0h-128v317h-314v-317h-128v714h128v-288h314v288h128v-714z" />
    <glyph glyph-name="I" unicode="I" horiz-adv-x="370" 
d="M335 0h-300v73l86 32v503l-86 33v73h300v-73l-86 -33v-503l86 -32v-73z" />
    <glyph glyph-name="J" unicode="J" horiz-adv-x="309" 
d="M8 -202q-28 0 -48.5 3t-35.5 8v107q16 -4 34 -7t38 -3q26 0 47.5 10t34.5 37t13 77v684h128v-681q0 -125 -58.5 -180t-152.5 -55z" />
    <glyph glyph-name="K" unicode="K" horiz-adv-x="647" 
d="M647 0h-147l-212 316l-67 -53v-263h-128v714h128v-336q20 26 41 51.5t42 51.5l193 233h145l-262 -314z" />
    <glyph glyph-name="L" unicode="L" horiz-adv-x="550" 
d="M93 0v714h128v-606h298v-108h-426z" />
    <glyph glyph-name="M" unicode="M" horiz-adv-x="929" 
d="M400 0l-196 585h-4q2 -20 3.5 -56.5t3 -79t1.5 -79.5v-370h-115v714h178l188 -561h4l196 561h178v-714h-122v376q0 34 1.5 74.5t3 77t2.5 56.5h-4l-204 -584h-114z" />
    <glyph glyph-name="N" unicode="N" horiz-adv-x="793" 
d="M700 0h-159l-338 560h-4q2 -45 4.5 -96.5t4.5 -103.5v-360h-115v714h158l337 -556h3q-1 40 -3.5 92t-3.5 101v363h116v-714z" />
    <glyph glyph-name="O" unicode="O" horiz-adv-x="790" 
d="M731 358q0 -111 -36.5 -193.5t-111.5 -128.5t-188 -46q-115 0 -189 46t-110.5 129t-36.5 194q0 110 36.5 192.5t111 128t189.5 45.5q113 0 187.5 -45.5t111 -128t36.5 -193.5zM194 358q0 -121 48.5 -190t152.5 -69q107 0 154 69t47 190t-47 190t-153 69
q-105 0 -153.5 -69t-48.5 -190z" />
    <glyph glyph-name="P" unicode="P" horiz-adv-x="619" 
d="M306 714q139 0 202.5 -57.5t63.5 -160.5q0 -61 -26 -114t-87.5 -86t-166.5 -33h-71v-263h-128v714h213zM298 608h-77v-239h58q78 0 120.5 28.5t42.5 93.5q0 59 -35 88t-109 29z" />
    <glyph glyph-name="Q" unicode="Q" horiz-adv-x="790" 
d="M731 358q0 -124 -46.5 -213.5t-141.5 -127.5l172 -187h-170l-133 160h-17q-115 0 -189 46t-110.5 129t-36.5 194q0 110 36.5 192.5t111 128t189.5 45.5q113 0 187.5 -45.5t111 -128t36.5 -193.5zM194 358q0 -121 48.5 -190t152.5 -69q107 0 154 69t47 190t-47 190
t-153 69q-105 0 -153.5 -69t-48.5 -190z" />
    <glyph glyph-name="R" unicode="R" horiz-adv-x="646" 
d="M296 714q141 0 208.5 -52t67.5 -158q0 -52 -19.5 -89t-51 -61.5t-66.5 -39.5l205 -314h-144l-171 282h-104v-282h-128v714h203zM288 607h-67v-220h71q80 0 115 28.5t35 84.5q0 58 -37.5 82.5t-116.5 24.5z" />
    <glyph glyph-name="S" unicode="S" horiz-adv-x="550" 
d="M508 195q0 -95 -69 -150t-191 -55q-118 0 -200 40v120q45 -20 99.5 -36.5t109.5 -16.5q65 0 94.5 25.5t29.5 65.5q0 44 -38 70.5t-111 57.5q-44 18 -84.5 44.5t-66 67t-25.5 101.5q0 91 64.5 143t172.5 52q56 0 106.5 -12t99.5 -34l-41 -103q-45 19 -85.5 30t-83.5 11
q-52 0 -79 -23t-27 -61q0 -29 15 -49.5t46.5 -37.5t81.5 -39q58 -25 98.5 -52.5t62 -65t21.5 -93.5z" />
    <glyph glyph-name="T" unicode="T" horiz-adv-x="570" 
d="M349 0h-128v606h-205v108h538v-108h-205v-606z" />
    <glyph glyph-name="U" unicode="U" horiz-adv-x="747" 
d="M659 714v-462q0 -74 -31.5 -133.5t-95.5 -94t-162 -34.5q-139 0 -211 72.5t-72 191.5v460h128v-447q0 -88 39.5 -128t119.5 -40q83 0 120.5 43.5t37.5 125.5v446h127z" />
    <glyph glyph-name="V" unicode="V" horiz-adv-x="631" 
d="M631 714l-247 -714h-137l-247 714h131l144 -437q6 -18 14 -46.5t15.5 -58.5t11.5 -52q4 22 11 51.5t15 58t14 47.5l144 437h131z" />
    <glyph glyph-name="W" unicode="W" horiz-adv-x="953" 
d="M948 714l-185 -714h-141l-113 410q-5 20 -12.5 51.5t-14 61t-7.5 44.5q-2 -15 -8 -44.5t-13 -61t-13 -53.5l-110 -408h-142l-184 714h128l98 -407q7 -26 13.5 -59t12.5 -65.5t9 -56.5q3 26 9 58.5t12.5 64t13.5 53.5l112 412h124l114 -413q7 -23 14 -55t13 -64t9 -56
q3 24 9 56.5t13 65t13 59.5l98 407h128z" />
    <glyph glyph-name="X" unicode="X" horiz-adv-x="636" 
d="M635 0h-146l-175 285l-176 -285h-136l237 370l-222 344h141l162 -266l161 266h137l-223 -349z" />
    <glyph glyph-name="Y" unicode="Y" horiz-adv-x="602" 
d="M301 399l163 315h138l-237 -436v-278h-128v273l-237 441h139z" />
    <glyph glyph-name="Z" unicode="Z" horiz-adv-x="576" 
d="M547 0h-518v87l355 519h-345v108h498v-87l-354 -519h364v-108z" />
    <glyph glyph-name="bracketleft" unicode="[" horiz-adv-x="330" 
d="M305 -158h-231v872h231v-91h-120v-690h120v-91z" />
    <glyph glyph-name="backslash" unicode="\" horiz-adv-x="398" 
d="M124 714l266 -714h-116l-266 714h116z" />
    <glyph glyph-name="bracketright" unicode="]" horiz-adv-x="330" 
d="M25 -67h120v690h-120v91h231v-872h-231v91z" />
    <glyph glyph-name="asciicircum" unicode="^" horiz-adv-x="572" 
d="M29 259l213 459h62l239 -459h-102l-166 331l-145 -331h-101z" />
    <glyph glyph-name="underscore" unicode="_" horiz-adv-x="423" 
d="M425 -156h-427v66h427v-66z" />
    <glyph glyph-name="grave" unicode="`" horiz-adv-x="331" 
d="M184 766q13 -22 32 -49.5t39.5 -53t35.5 -44.5v-13h-83q-25 18 -58.5 46t-63.5 57t-46 47v10h144z" />
    <glyph glyph-name="a" unicode="a" horiz-adv-x="588" 
d="M297 552q105 0 159.5 -46t54.5 -142v-364h-89l-25 75h-4q-35 -44 -74 -64.5t-106 -20.5q-73 0 -121 41t-48 127q0 84 61.5 126t186.5 47l94 3v27q0 52 -25 74t-70 22q-41 0 -78.5 -11.5t-74.5 -28.5l-40 88q40 21 91.5 34t107.5 13zM386 256l-66 -2q-83 -3 -115 -28.5
t-32 -68.5q0 -39 22.5 -55.5t59.5 -16.5q55 0 93 31.5t38 93.5v46z" />
    <glyph glyph-name="b" unicode="b" horiz-adv-x="626" 
d="M207 760v-180q0 -32 -2 -62t-4 -47h6q22 34 60 57.5t99 23.5q94 0 152.5 -71t58.5 -209q0 -140 -59 -211t-155 -71q-61 0 -97.5 22t-58.5 51h-9l-23 -63h-94v760h126zM330 450q-68 0 -95 -41t-28 -126v-11q0 -87 26.5 -133t98.5 -46q56 0 86 46.5t30 133.5
q0 89 -30.5 133t-87.5 44z" />
    <glyph glyph-name="c" unicode="c" horiz-adv-x="501" 
d="M300 -10q-116 0 -183.5 67t-67.5 211q0 100 33.5 162.5t92.5 92t135 29.5q50 0 90.5 -10t68.5 -24l-37 -99q-32 12 -63 20.5t-59 8.5q-132 0 -132 -179q0 -87 33.5 -131t96.5 -44q45 0 80.5 11t66.5 30v-109q-31 -19 -67 -27.5t-88 -8.5z" />
    <glyph glyph-name="d" unicode="d" horiz-adv-x="626" 
d="M260 -10q-94 0 -152.5 70.5t-58.5 209.5q0 140 59 211t155 71q60 0 98.5 -23t61.5 -56h6q-3 14 -6 42.5t-3 54.5v190h126v-760h-98l-23 71h-5q-23 -34 -61 -57.5t-99 -23.5zM298 92q70 0 98.5 40t29.5 121v16q0 87 -27.5 133.5t-102.5 46.5q-58 0 -88.5 -47.5
t-30.5 -133.5t31 -131t90 -45z" />
    <glyph glyph-name="e" unicode="e" horiz-adv-x="581" 
d="M299 552q109 0 172.5 -65t63.5 -181v-64h-358q2 -74 41 -114.5t108 -40.5q52 0 94 10.5t86 30.5v-101q-40 -19 -83 -28t-103 -9q-80 0 -141 30.5t-95.5 92t-34.5 154.5q0 139 68.5 212t181.5 73zM299 459q-51 0 -82.5 -32.5t-36.5 -96.5h233q-1 56 -28.5 92.5t-85.5 36.5
z" />
    <glyph glyph-name="f" unicode="f" horiz-adv-x="371" 
d="M362 447h-131v-447h-126v447h-87v60l87 36v37q0 104 49.5 144.5t135.5 40.5q39 0 71.5 -6.5t53.5 -14.5l-32 -94q-17 5 -37.5 9.5t-44.5 4.5q-37 0 -53.5 -22.5t-16.5 -64.5v-35h131v-95z" />
    <glyph glyph-name="g" unicode="g" horiz-adv-x="626" 
d="M263 552q105 0 161 -80h5l12 70h105v-546q0 -116 -65 -176t-196 -60q-58 0 -107 7.5t-93 25.5v104q46 -20 98.5 -31t109.5 -11q61 0 94 34.5t33 100.5v14q0 15 1 35t3 32h-4q-28 -42 -68.5 -61.5t-91.5 -19.5q-99 0 -155 74t-56 206t56.5 207t157.5 75zM296 449
q-118 0 -118 -181q0 -178 120 -178q66 0 97.5 36.5t31.5 123.5v19q0 96 -31.5 138t-99.5 42z" />
    <glyph glyph-name="h" unicode="h" horiz-adv-x="642" 
d="M207 760v-181q0 -32 -2.5 -62.5t-4.5 -45.5h8q26 41 68 61t93 20q92 0 144 -47.5t52 -151.5v-353h-126v328q0 61 -24 91.5t-76 30.5q-76 0 -104 -48t-28 -137v-265h-126v760h126z" />
    <glyph glyph-name="i" unicode="i" horiz-adv-x="287" 
d="M144 751q28 0 49 -14.5t21 -51.5t-21 -52t-49 -15q-29 0 -49.5 15t-20.5 52t20.5 51.5t49.5 14.5zM207 542v-542h-126v542h126z" />
    <glyph glyph-name="j" unicode="j" horiz-adv-x="287" 
d="M74 685q0 37 20.5 51.5t49.5 14.5q28 0 49 -14.5t21 -51.5t-21 -52t-49 -15q-29 0 -49.5 15t-20.5 52zM29 -240q-25 0 -49 3.5t-41 8.5v100q17 -4 33 -7t36 -3q31 0 52 17t21 67v596h126v-609q0 -75 -41.5 -124t-136.5 -49z" />
    <glyph glyph-name="k" unicode="k" horiz-adv-x="588" 
d="M206 760v-361q0 -25 -2 -54.5t-4 -55.5h3q13 18 30 41t34 41l160 171h143l-217 -234l231 -308h-147l-168 232l-63 -52v-180h-125v760h125z" />
    <glyph glyph-name="l" unicode="l" horiz-adv-x="287" 
d="M207 0h-126v760h126v-760z" />
    <glyph glyph-name="m" unicode="m" horiz-adv-x="964" 
d="M702 552q92 0 138.5 -47t46.5 -152v-353h-126v329q0 121 -92 121q-66 0 -94 -43t-28 -125v-282h-126v329q0 121 -93 121q-69 0 -95 -48t-26 -137v-265h-126v542h97l18 -71h7q25 42 68 61.5t90 19.5q61 0 102.5 -20t63.5 -64h10q25 44 70 64t95 20z" />
    <glyph glyph-name="n" unicode="n" horiz-adv-x="642" 
d="M371 552q91 0 142.5 -47t51.5 -152v-353h-126v328q0 61 -24 91.5t-76 30.5q-76 0 -104 -48t-28 -137v-265h-126v542h97l18 -71h7q26 42 71.5 61.5t96.5 19.5z" />
    <glyph glyph-name="o" unicode="o" horiz-adv-x="614" 
d="M565 272q0 -135 -70 -208.5t-190 -73.5q-74 0 -132 33t-91 96t-33 153q0 135 69.5 207.5t189.5 72.5q75 0 133 -32.5t91 -95t33 -152.5zM178 272q0 -86 30.5 -133t98.5 -47q67 0 98 47t31 133t-31 132t-99 46t-98 -46t-30 -132z" />
    <glyph glyph-name="p" unicode="p" horiz-adv-x="626" 
d="M366 552q95 0 153 -70.5t58 -209.5t-59.5 -210.5t-154.5 -71.5q-60 0 -97 22t-59 51h-8q3 -19 5.5 -41t2.5 -42v-220h-126v782h102l18 -72h6q23 34 60 58t99 24zM330 450q-67 0 -94.5 -40t-28.5 -121v-16q0 -87 26.5 -133.5t98.5 -46.5q59 0 87.5 48.5t28.5 132.5
t-28.5 130t-89.5 46z" />
    <glyph glyph-name="q" unicode="q" horiz-adv-x="626" 
d="M420 -240v229q0 19 1 41t4 41h-6q-22 -34 -60.5 -57.5t-99.5 -23.5q-94 0 -152 70.5t-58 209.5t59.5 210.5t153.5 71.5q62 0 100 -23.5t62 -57.5h4l13 71h105v-782h-126zM299 90q69 0 97 40t30 121v18q0 88 -28 134t-101 46q-61 0 -90 -47.5t-29 -133.5
q0 -87 29.5 -132.5t91.5 -45.5z" />
    <glyph glyph-name="r" unicode="r" horiz-adv-x="439" 
d="M365 552q13 0 29 -1.5t26 -3.5l-11 -117q-10 2 -24.5 3.5t-24.5 1.5q-40 0 -75 -16.5t-56.5 -50.5t-21.5 -87v-281h-126v542h97l18 -94h6q24 43 66 73.5t97 30.5z" />
    <glyph glyph-name="s" unicode="s" horiz-adv-x="490" 
d="M450 157q0 -82 -58.5 -124.5t-167.5 -42.5q-57 0 -97.5 8t-78.5 25v107q40 -19 88.5 -32t91.5 -13q52 0 75 16t23 43q0 16 -9 28.5t-35 27.5t-79 37q-52 21 -86.5 42t-52 50t-17.5 75q0 73 58 110.5t153 37.5q50 0 94.5 -10t89.5 -30l-40 -93q-38 16 -74 27t-74 11
q-83 0 -83 -47q0 -17 10.5 -29t37 -25.5t75.5 -32.5q48 -19 83 -39.5t54 -50t19 -76.5z" />
    <glyph glyph-name="t" unicode="t" horiz-adv-x="406" 
d="M291 91q23 0 45.5 4.5t41.5 10.5v-94q-20 -10 -52 -16t-67 -6q-47 0 -84.5 15t-59.5 53t-22 107v282h-73v55l80 44l40 115h79v-119h154v-95h-154v-281q0 -38 20.5 -56.5t51.5 -18.5z" />
    <glyph glyph-name="u" unicode="u" horiz-adv-x="642" 
d="M562 542v-542h-99l-17 70h-6q-26 -42 -72 -61t-97 -19q-91 0 -142.5 47t-51.5 151v354h126v-329q0 -61 24 -91t76 -30q76 0 104.5 48t28.5 137v265h126z" />
    <glyph glyph-name="v" unicode="v" horiz-adv-x="546" 
d="M206 0l-206 542h133l108 -313q11 -29 19 -64t10 -59h4q3 26 12 60t19 63l108 313h133l-206 -542h-134z" />
    <glyph glyph-name="w" unicode="w" horiz-adv-x="830" 
d="M525 0l-60 233q-5 18 -12 47t-14.5 60t-13.5 57.5t-9 39.5h-4q-3 -13 -9 -39.5t-13.5 -57.5t-14.5 -60t-12 -48l-63 -232h-138l-152 543h127l67 -259q7 -27 13.5 -60t11.5 -63t7 -49h4q2 18 7.5 49t11.5 60.5t10 44.5l78 277h138l75 -277q4 -18 10.5 -47t11.5 -58t6 -48
h4q2 17 7 46.5t12 63t15 61.5l68 259h125l-154 -543h-140z" />
    <glyph glyph-name="x" unicode="x" horiz-adv-x="560" 
d="M198 277l-179 265h143l118 -184l118 184h143l-181 -265l190 -277h-143l-127 197l-127 -197h-143z" />
    <glyph glyph-name="y" unicode="y" horiz-adv-x="547" 
d="M0 542h137l108 -306q11 -29 18 -57.5t10 -56.5h4q4 26 12 55.5t18 58.5l104 306h136l-231 -614q-31 -81 -84.5 -124.5t-131.5 -43.5q-25 0 -43.5 2.5t-31.5 5.5v100q11 -2 26.5 -4t32.5 -2q46 0 74 27.5t43 68.5l16 44z" />
    <glyph glyph-name="z" unicode="z" horiz-adv-x="481" 
d="M448 0h-416v77l266 369h-251v96h393v-85l-261 -360h269v-97z" />
    <glyph glyph-name="braceleft" unicode="{" horiz-adv-x="389" 
d="M352 -158q-115 0 -161.5 35t-46.5 110v151q0 49 -32 69.5t-92 20.5v100q60 0 92 20.5t32 68.5v153q0 74 47.5 109t160.5 35v-96q-44 -1 -69.5 -17.5t-25.5 -60.5v-145q0 -96 -112 -114v-6q112 -17 112 -113v-146q0 -45 25.5 -61t69.5 -17v-96z" />
    <glyph glyph-name="bar" unicode="|" horiz-adv-x="551" 
d="M228 758h95v-990h-95v990z" />
    <glyph glyph-name="braceright" unicode="}" horiz-adv-x="389" 
d="M37 -158v96q43 1 69 17.5t26 60.5v146q0 95 112 113v6q-112 18 -112 113v146q0 45 -25.5 61t-69.5 17v96q115 0 161.5 -35t46.5 -110v-151q0 -49 32 -69.5t92 -20.5v-100q-60 -1 -92 -21t-32 -69v-152q0 -74 -47.5 -109t-160.5 -35z" />
    <glyph glyph-name="asciitilde" unicode="~" horiz-adv-x="572" 
d="M268 308q-36 16 -61 21.5t-47 5.5q-28 0 -59 -17t-55 -42v100q48 53 123 53q29 0 58 -6.5t76 -25.5q36 -16 61 -21.5t47 -5.5q29 0 59.5 17t54.5 42v-99q-49 -54 -123 -54q-28 0 -58 6t-76 26z" />
    <glyph glyph-name="uni00A0" unicode="&#xa0;" horiz-adv-x="260" 
 />
    <glyph glyph-name="exclamdown" unicode="&#xa1;" horiz-adv-x="280" 
d="M216 469q0 -43 -22.5 -60t-54.5 -17q-31 0 -53.5 17t-22.5 60q0 41 22.5 59t53.5 18q32 0 54.5 -18t22.5 -59zM90 309h96l25 -490h-146z" />
    <glyph glyph-name="cent" unicode="&#xa2;" horiz-adv-x="572" 
d="M359 724v-78q43 -2 78.5 -11.5t61.5 -21.5l-37 -100q-32 13 -63 21.5t-60 8.5q-132 0 -132 -180q0 -90 33.5 -132.5t96.5 -42.5q46 0 79 9.5t69 25.5v-107q-57 -28 -127 -32v-94h-79v98q-94 14 -147.5 78.5t-53.5 195.5q0 92 25 151t70 89.5t106 39.5v82h80z" />
    <glyph glyph-name="sterling" unicode="&#xa3;" horiz-adv-x="572" 
d="M339 724q54 0 100.5 -12t84.5 -29l-40 -96q-32 14 -67 24t-70 10q-41 0 -67 -23t-26 -77v-111h191v-91h-191v-83q0 -56 -23 -84.5t-49 -42.5h364v-109h-509v103q42 16 67 43.5t25 88.5v84h-90v91h90v115q0 69 27.5 113t75 65t107.5 21z" />
    <glyph glyph-name="currency" unicode="&#xa4;" horiz-adv-x="572" 
d="M91 353q0 28 8.5 53.5t21.5 47.5l-64 65l63 62l63 -63q46 30 102 30q29 0 54 -8t48 -22l64 63l63 -61l-63 -65q13 -21 21 -47.5t8 -54.5q0 -57 -29 -103l61 -63l-61 -61l-64 62q-22 -14 -47.5 -21.5t-54.5 -7.5q-59 0 -102 29l-63 -61l-62 61l63 63q-30 47 -30 102z
M179 353q0 -44 31 -75t75 -31q45 0 76.5 31t31.5 75q0 45 -31.5 76t-76.5 31q-44 0 -75 -31t-31 -76z" />
    <glyph glyph-name="yen" unicode="&#xa5;" horiz-adv-x="572" 
d="M285 399l148 315h130l-192 -369h106v-78h-132v-73h132v-78h-132v-116h-120v116h-132v78h132v73h-132v78h104l-190 369h131z" />
    <glyph glyph-name="brokenbar" unicode="&#xa6;" horiz-adv-x="551" 
d="M228 758h95v-391h-95v391zM228 159h95v-391h-95v391z" />
    <glyph glyph-name="section" unicode="&#xa7;" horiz-adv-x="496" 
d="M62 393q0 45 21 75t49 47q-32 19 -50.5 47.5t-18.5 66.5q0 62 53.5 99t144.5 37q52 0 93.5 -10.5t81.5 -27.5l-36 -84q-33 15 -67.5 26.5t-75.5 11.5q-48 0 -68.5 -12.5t-20.5 -37.5t26 -43.5t89 -42.5q73 -29 115.5 -66.5t42.5 -96.5q0 -50 -19.5 -80.5t-47.5 -48.5
q32 -19 49 -45t17 -63q0 -71 -58 -112t-158 -41q-54 0 -95 9.5t-74 27.5v91q36 -18 83 -32t88 -14q62 0 85 18.5t23 44.5q0 17 -8 30t-32 26.5t-72 32.5q-50 20 -86 41.5t-55 51t-19 74.5zM158 403q0 -32 29 -56.5t96 -50.5l12 -5q18 11 33 30t15 48q0 33 -26.5 58
t-103.5 50q-22 -7 -38.5 -26.5t-16.5 -47.5z" />
    <glyph glyph-name="dieresis" unicode="&#xa8;" horiz-adv-x="597" 
d="M141 684q0 32 17.5 46t42.5 14q24 0 42.5 -14t18.5 -46q0 -30 -18.5 -44.5t-42.5 -14.5q-25 0 -42.5 14.5t-17.5 44.5zM335 684q0 32 17.5 46t42.5 14q24 0 42.5 -14t18.5 -46q0 -30 -18.5 -44.5t-42.5 -14.5q-25 0 -42.5 14.5t-17.5 44.5z" />
    <glyph glyph-name="copyright" unicode="&#xa9;" horiz-adv-x="832" 
d="M416 -10q-80 0 -147 27t-116.5 76.5t-76.5 116.5t-27 147q0 78 27.5 144.5t77 116.5t116.5 78t146 28q76 0 142.5 -27t117 -76.5t79 -116.5t28.5 -147t-27 -147t-76.5 -116.5t-116.5 -76.5t-147 -27zM416 50q63 0 117.5 22.5t96 64t65 97.5t23.5 123q0 63 -22.5 119
t-63 98.5t-96 66.5t-120.5 24q-88 0 -156.5 -39.5t-108 -109.5t-39.5 -159q0 -87 39 -156.5t108 -110t157 -40.5zM431 130q-101 0 -151 62t-50 165q0 66 24 117.5t69.5 80.5t111.5 29q65 0 123 -30l-29 -65q-50 26 -93 26q-59 0 -91.5 -42.5t-32.5 -115.5q0 -77 28.5 -118
t94.5 -41q23 0 51.5 6.5t53.5 16.5v-67q-24 -10 -49 -17t-60 -7z" />
    <glyph glyph-name="ordfeminine" unicode="&#xaa;" horiz-adv-x="373" 
d="M191 722q69 0 103 -32.5t34 -92.5v-218h-59l-14 50q-20 -26 -50 -41t-66 -15q-51 0 -82 26t-31 79q0 56 43 80.5t123 28.5l52 2v13q0 27 -18 40t-48 13q-25 0 -51 -8t-53 -20l-28 59q29 15 65.5 25.5t79.5 10.5zM244 536l-48 -3q-50 -2 -66.5 -17.5t-16.5 -36.5
q0 -22 12.5 -31.5t31.5 -9.5q43 0 65 22t22 56v20z" />
    <glyph glyph-name="guillemotleft" unicode="&#xab;" horiz-adv-x="575" 
d="M40 276l176 214l91 -49l-138 -171l138 -170l-91 -50l-176 213v13zM269 276l176 214l90 -49l-137 -171l137 -170l-90 -50l-176 213v13z" />
    <glyph glyph-name="logicalnot" unicode="&#xac;" horiz-adv-x="572" 
d="M525 399v-275h-93v182h-386v93h479z" />
    <glyph glyph-name="uni00AD" unicode="&#xad;" horiz-adv-x="322" 
d="M34 215v106h254v-106h-254z" />
    <glyph glyph-name="registered" unicode="&#xae;" horiz-adv-x="832" 
d="M416 -10q-80 0 -147 27t-116.5 76.5t-76.5 116.5t-27 147q0 78 27.5 144.5t77 116.5t116.5 78t146 28q76 0 142.5 -27t117 -76.5t79 -116.5t28.5 -147t-27 -147t-76.5 -116.5t-116.5 -76.5t-147 -27zM416 50q63 0 117.5 22.5t96 64t65 97.5t23.5 123q0 63 -22.5 119
t-63 98.5t-96 66.5t-120.5 24q-88 0 -156.5 -39.5t-108 -109.5t-39.5 -159q0 -87 39 -156.5t108 -110t157 -40.5zM276 138v440h131q82 0 120 -34t38 -98q0 -47 -24 -74.5t-54 -39.5l116 -194h-89l-97 170h-62v-170h-79zM355 373h50q39 0 59.5 19.5t20.5 51.5q0 35 -18.5 51
t-62.5 16h-49v-138z" />
    <glyph glyph-name="overscore" unicode="&#xaf;" horiz-adv-x="500" 
d="M503 760h-506v86h506v-86z" />
    <glyph glyph-name="degree" unicode="&#xb0;" horiz-adv-x="428" 
d="M214 398q-75 0 -122 45.5t-47 117.5q0 71 46.5 117t122.5 46q75 0 121.5 -45.5t46.5 -117.5t-46.5 -117.5t-121.5 -45.5zM214 478q38 0 60.5 23t22.5 60q0 38 -22.5 61t-60.5 23t-60.5 -23t-22.5 -61q0 -37 22.5 -60t60.5 -23z" />
    <glyph glyph-name="plusminus" unicode="&#xb1;" horiz-adv-x="572" 
d="M332 419h193v-93h-193v-195h-94v195h-192v93h192v197h94v-197zM46 0v93h479v-93h-479z" />
    <glyph glyph-name="uni00B2" unicode="&#xb2;" horiz-adv-x="368" 
d="M329 416h-303v71l111 109q34 33 52.5 54.5t25.5 38.5t7 36q0 23 -14 35.5t-38 12.5q-44 0 -94 -43l-51 64q31 26 69 43t87 17q64 0 102.5 -31.5t38.5 -89.5q0 -47 -27 -84.5t-84 -90.5l-63 -58h181v-84z" />
    <glyph glyph-name="uni00B3" unicode="&#xb3;" horiz-adv-x="368" 
d="M177 853q65 0 103.5 -31t38.5 -81q0 -73 -80 -99v-5q46 -9 69.5 -36t23.5 -64q0 -59 -42.5 -94t-132.5 -35q-72 0 -133 32v81q33 -18 66 -29t66 -11q82 0 82 61q0 26 -21.5 42.5t-70.5 16.5h-56v69h50q50 0 68 17.5t18 41.5t-15.5 37t-41.5 13t-48.5 -9.5t-50.5 -28.5
l-44 61q30 22 66 36.5t85 14.5z" />
    <glyph glyph-name="acute" unicode="&#xb4;" horiz-adv-x="331" 
d="M291 766v-10q-17 -18 -47 -47t-63 -57t-57 -46h-84v13q16 19 36 44.5t39 53t32 49.5h144z" />
    <glyph glyph-name="uni00B5" unicode="&#xb5;" horiz-adv-x="646" 
d="M565 542v-542h-97l-18 73h-6q-22 -41 -55.5 -62t-81.5 -21q-34 0 -59.5 12t-42.5 32h-3q2 -16 3.5 -51t1.5 -67v-156h-126v782h126v-329q0 -121 100 -121q76 0 104 48t28 137v265h126z" />
    <glyph glyph-name="paragraph" unicode="&#xb6;" horiz-adv-x="655" 
d="M562 -127h-71v805h-89v-805h-71v400q-30 -9 -71 -9q-62 0 -108 23t-71.5 77t-25.5 145q0 95 27.5 150t77.5 78t115 23h287v-887z" />
    <glyph glyph-name="periodcentered" unicode="&#xb7;" horiz-adv-x="279" 
d="M63 352q0 42 22.5 59.5t53.5 17.5t54 -17.5t23 -59.5q0 -41 -23 -59t-54 -18t-53.5 18t-22.5 59z" />
    <glyph glyph-name="cedilla" unicode="&#xb8;" horiz-adv-x="213" 
d="M207 -128q0 -53 -34.5 -82.5t-115.5 -29.5q-37 0 -63 8v72q12 -3 30.5 -5.5t33.5 -2.5q22 0 35.5 7.5t13.5 27.5q0 42 -84 54l39 79h81l-18 -39q32 -9 57 -30.5t25 -58.5z" />
    <glyph glyph-name="uni00B9" unicode="&#xb9;" horiz-adv-x="368" 
d="M268 844v-428h-99v240q0 22 1.5 51.5t2.5 44.5q-7 -8 -19 -19t-22 -19l-44 -33l-46 57l141 106h85z" />
    <glyph glyph-name="ordmasculine" unicode="&#xba;" horiz-adv-x="383" 
d="M354 548q0 -83 -44.5 -129t-118.5 -46q-71 0 -116 45.5t-45 129.5t43.5 129t119.5 45q71 0 116 -45t45 -129zM115 548q0 -52 18.5 -78.5t58.5 -26.5t58 26.5t18 78.5t-18 78t-58 26t-58.5 -26t-18.5 -78z" />
    <glyph glyph-name="guillemotright" unicode="&#xbb;" horiz-adv-x="575" 
d="M535 263l-177 -213l-90 50l138 170l-138 171l90 49l177 -214v-13zM306 263l-176 -213l-90 50l137 170l-137 171l90 49l176 -214v-13z" />
    <glyph glyph-name="onequarter" unicode="&#xbc;" horiz-adv-x="798" 
d="M145 0l411 714h101l-411 -714h-101zM154 286v240q0 22 1 51.5t3 44.5q-8 -8 -19.5 -19t-21.5 -19l-44 -33l-46 57l140 106h86v-428h-99zM627 0v82h-190v67l192 282h99v-275h61v-74h-61v-82h-101zM520 156h107v85q0 20 0.5 45t2.5 49q-5 -13 -18 -37.5t-23 -39.5z" />
    <glyph glyph-name="onehalf" unicode="&#xbd;" horiz-adv-x="835" 
d="M133 0l411 714h102l-411 -714h-102zM149 286v240q0 22 1.5 51.5t2.5 44.5q-7 -8 -19 -19t-22 -19l-44 -33l-46 57l141 106h85v-428h-99zM493 0v71l111 109q34 33 52.5 54.5t25.5 38.5t7 36q0 23 -14 35.5t-38 12.5q-44 0 -94 -43l-51 64q31 26 68.5 43t87.5 17
q64 0 102.5 -31.5t38.5 -89.5q0 -47 -27 -84.5t-84 -90.5l-63 -58h181v-84h-303z" />
    <glyph glyph-name="threequarters" unicode="&#xbe;" horiz-adv-x="821" 
d="M165 278q-72 0 -132 32v81q33 -18 66 -29t66 -11q81 0 81 61q0 26 -21 42.5t-71 16.5h-55v69h49q51 0 69 17.5t18 41.5t-15.5 37t-41.5 13t-49 -9.5t-50 -28.5l-45 61q31 22 66.5 36.5t84.5 14.5q65 0 103.5 -31t38.5 -81q0 -73 -79 -99v-5q46 -9 69.5 -36t23.5 -64
q0 -59 -43 -94t-133 -35zM183 0l411 714h101l-411 -714h-101zM650 0v82h-190v67l192 282h99v-275h61v-74h-61v-82h-101zM543 156h107v85q0 20 1 45t2 49q-5 -13 -18 -37.5t-23 -39.5z" />
    <glyph glyph-name="questiondown" unicode="&#xbf;" horiz-adv-x="461" 
d="M325 309v-33q0 -52 -19.5 -87t-69.5 -74q-50 -38 -70.5 -63t-20.5 -62q0 -38 26.5 -58t75.5 -20q44 0 84 13t80 33l45 -94q-46 -25 -100 -40.5t-119 -15.5q-101 0 -156 48.5t-55 127.5q0 43 13.5 73.5t40 56.5t63.5 55q31 24 47 41t22 33.5t6 40.5v25h107zM344 468
q0 -42 -22.5 -59.5t-54.5 -17.5q-31 0 -53.5 17.5t-22.5 59.5q0 41 22.5 59t53.5 18q32 0 54.5 -18t22.5 -59z" />
    <glyph glyph-name="Agrave" unicode="&#xc0;" horiz-adv-x="671" 
d="M534 0l-65 189h-269l-64 -189h-136l262 717h146l262 -717h-136zM436 299l-62 184q-4 13 -12 37.5t-15 50t-12 42.5q-5 -21 -12.5 -47t-14 -49t-10.5 -34l-63 -184h201zM310 938q13 -22 32 -49.5t39.5 -53t35.5 -44.5v-13h-83q-25 18 -58.5 46t-63.5 57t-46 47v10h144z
" />
    <glyph glyph-name="Aacute" unicode="&#xc1;" horiz-adv-x="671" 
d="M534 0l-65 189h-269l-64 -189h-136l262 717h146l262 -717h-136zM436 299l-62 184q-4 13 -12 37.5t-15 50t-12 42.5q-5 -21 -12.5 -47t-14 -49t-10.5 -34l-63 -184h201zM507 938v-10q-17 -18 -47 -47t-63 -57t-57 -46h-84v13q16 19 36 44.5t39 53t32 49.5h144z" />
    <glyph glyph-name="Acircumflex" unicode="&#xc2;" horiz-adv-x="671" 
d="M534 0l-65 189h-269l-64 -189h-136l262 717h146l262 -717h-136zM436 299l-62 184q-4 13 -12 37.5t-15 50t-12 42.5q-5 -21 -12.5 -47t-14 -49t-10.5 -34l-63 -184h201zM407 938q13 -22 35.5 -49.5t47 -54t42.5 -44.5v-12h-85q-26 16 -56.5 38.5t-56.5 49.5
q-26 -27 -55 -49.5t-55 -38.5h-84v12q18 19 42 45t46 53.5t36 49.5h143z" />
    <glyph glyph-name="Atilde" unicode="&#xc3;" horiz-adv-x="671" 
d="M534 0l-65 189h-269l-64 -189h-136l262 717h146l262 -717h-136zM436 299l-62 184q-4 13 -12 37.5t-15 50t-12 42.5q-5 -21 -12.5 -47t-14 -49t-10.5 -34l-63 -184h201zM139 777q6 71 40 107t84 36q28 0 54 -13.5t50 -27t47 -13.5q39 0 51 55h65q-6 -71 -40.5 -107
t-83.5 -36q-27 0 -53 13.5t-50.5 27t-47.5 13.5q-39 0 -51 -55h-65z" />
    <glyph glyph-name="Adieresis" unicode="&#xc4;" horiz-adv-x="671" 
d="M534 0l-65 189h-269l-64 -189h-136l262 717h146l262 -717h-136zM436 299l-62 184q-4 13 -12 37.5t-15 50t-12 42.5q-5 -21 -12.5 -47t-14 -49t-10.5 -34l-63 -184h201zM177 856q0 32 17.5 46t42.5 14q24 0 42.5 -14t18.5 -46q0 -30 -18.5 -44.5t-42.5 -14.5
q-25 0 -42.5 14.5t-17.5 44.5zM371 856q0 32 17.5 46t42.5 14q24 0 42.5 -14t18.5 -46q0 -30 -18.5 -44.5t-42.5 -14.5q-25 0 -42.5 14.5t-17.5 44.5z" />
    <glyph glyph-name="Aring" unicode="&#xc5;" horiz-adv-x="671" 
d="M534 0l-65 189h-269l-64 -189h-136l262 717h146l262 -717h-136zM436 299l-62 184q-4 13 -12 37.5t-15 50t-12 42.5q-5 -21 -12.5 -47t-14 -49t-10.5 -34l-63 -184h201zM333 655q-52 0 -84 30t-32 83q0 52 32 81.5t84 29.5q50 0 85 -29.5t35 -80.5q0 -54 -34.5 -84
t-85.5 -30zM333 717q22 0 36.5 13.5t14.5 37.5q0 23 -14.5 36.5t-36.5 13.5q-21 0 -35.5 -13.5t-14.5 -36.5q0 -51 50 -51z" />
    <glyph glyph-name="AE" unicode="&#xc6;" horiz-adv-x="925" 
d="M866 0h-406v189h-244l-85 -189h-131l327 714h539v-107h-278v-182h259v-107h-259v-210h278v-108zM264 299h196v304h-60z" />
    <glyph glyph-name="Ccedilla" unicode="&#xc7;" horiz-adv-x="635" 
d="M397 616q-97 0 -151 -69.5t-54 -190.5q0 -122 50 -190t154 -68q45 0 88.5 9.5t89.5 25.5v-109q-44 -18 -88.5 -26t-102.5 -8q-110 0 -182 45.5t-107 128t-35 193.5q0 108 39 190.5t114.5 129.5t184.5 47q54 0 106.5 -12t98.5 -35l-44 -105q-38 17 -78.5 30.5t-82.5 13.5z
M481 -128q0 -53 -34.5 -82.5t-115.5 -29.5q-37 0 -63 8v72q12 -3 30.5 -5.5t33.5 -2.5q22 0 35.5 7.5t13.5 27.5q0 42 -84 54l39 79h81l-18 -39q32 -9 57 -30.5t25 -58.5z" />
    <glyph glyph-name="Egrave" unicode="&#xc8;" horiz-adv-x="558" 
d="M499 0h-406v714h406v-107h-278v-182h260v-107h-260v-210h278v-108zM278 938q13 -22 32 -49.5t39.5 -53t35.5 -44.5v-13h-83q-25 18 -58.5 46t-63.5 57t-46 47v10h144z" />
    <glyph glyph-name="Eacute" unicode="&#xc9;" horiz-adv-x="558" 
d="M499 0h-406v714h406v-107h-278v-182h260v-107h-260v-210h278v-108zM475 938v-10q-17 -18 -47 -47t-63 -57t-57 -46h-84v13q16 19 36 44.5t39 53t32 49.5h144z" />
    <glyph glyph-name="Ecircumflex" unicode="&#xca;" horiz-adv-x="558" 
d="M499 0h-406v714h406v-107h-278v-182h260v-107h-260v-210h278v-108zM375 938q13 -22 35.5 -49.5t47 -54t42.5 -44.5v-12h-85q-26 16 -56.5 38.5t-56.5 49.5q-26 -27 -55 -49.5t-55 -38.5h-84v12q18 19 42 45t46 53.5t36 49.5h143z" />
    <glyph glyph-name="Edieresis" unicode="&#xcb;" horiz-adv-x="558" 
d="M499 0h-406v714h406v-107h-278v-182h260v-107h-260v-210h278v-108zM145 856q0 32 17.5 46t42.5 14q24 0 42.5 -14t18.5 -46q0 -30 -18.5 -44.5t-42.5 -14.5q-25 0 -42.5 14.5t-17.5 44.5zM339 856q0 32 17.5 46t42.5 14q24 0 42.5 -14t18.5 -46q0 -30 -18.5 -44.5
t-42.5 -14.5q-25 0 -42.5 14.5t-17.5 44.5z" />
    <glyph glyph-name="Igrave" unicode="&#xcc;" horiz-adv-x="370" 
d="M335 0h-300v73l86 32v503l-86 33v73h300v-73l-86 -33v-503l86 -32v-73zM161 938q13 -22 32 -49.5t39.5 -53t35.5 -44.5v-13h-83q-25 18 -58.5 46t-63.5 57t-46 47v10h144z" />
    <glyph glyph-name="Iacute" unicode="&#xcd;" horiz-adv-x="370" 
d="M335 0h-300v73l86 32v503l-86 33v73h300v-73l-86 -33v-503l86 -32v-73zM358 938v-10q-17 -18 -47 -47t-63 -57t-57 -46h-84v13q16 19 36 44.5t39 53t32 49.5h144z" />
    <glyph glyph-name="Icircumflex" unicode="&#xce;" horiz-adv-x="370" 
d="M335 0h-300v73l86 32v503l-86 33v73h300v-73l-86 -33v-503l86 -32v-73zM258 938q13 -22 35.5 -49.5t47 -54t42.5 -44.5v-12h-85q-26 16 -56.5 38.5t-56.5 49.5q-26 -27 -55 -49.5t-55 -38.5h-84v12q18 19 42 45t46 53.5t36 49.5h143z" />
    <glyph glyph-name="Idieresis" unicode="&#xcf;" horiz-adv-x="370" 
d="M335 0h-300v73l86 32v503l-86 33v73h300v-73l-86 -33v-503l86 -32v-73zM28 856q0 32 17.5 46t42.5 14q24 0 42.5 -14t18.5 -46q0 -30 -18.5 -44.5t-42.5 -14.5q-25 0 -42.5 14.5t-17.5 44.5zM222 856q0 32 17.5 46t42.5 14q24 0 42.5 -14t18.5 -46q0 -30 -18.5 -44.5
t-42.5 -14.5q-25 0 -42.5 14.5t-17.5 44.5z" />
    <glyph glyph-name="Eth" unicode="&#xd0;" horiz-adv-x="736" 
d="M315 714q110 0 191.5 -40t126 -118t44.5 -192q0 -181 -101.5 -272.5t-282.5 -91.5h-198v300h-69v106h69v308h220zM315 608h-92v-202h140v-106h-140v-193h74q246 0 246 253q0 128 -59.5 188t-168.5 60z" />
    <glyph glyph-name="Ntilde" unicode="&#xd1;" horiz-adv-x="793" 
d="M700 0h-159l-338 560h-4q2 -45 4.5 -96.5t4.5 -103.5v-360h-115v714h158l337 -556h3q-1 40 -3.5 92t-3.5 101v363h116v-714zM201 777q6 71 40 107t84 36q28 0 54 -13.5t50 -27t47 -13.5q39 0 51 55h65q-6 -71 -40.5 -107t-83.5 -36q-27 0 -53 13.5t-50.5 27t-47.5 13.5
q-39 0 -51 -55h-65z" />
    <glyph glyph-name="Ograve" unicode="&#xd2;" horiz-adv-x="790" 
d="M731 358q0 -111 -36.5 -193.5t-111.5 -128.5t-188 -46q-115 0 -189 46t-110.5 129t-36.5 194q0 110 36.5 192.5t111 128t189.5 45.5q113 0 187.5 -45.5t111 -128t36.5 -193.5zM194 358q0 -121 48.5 -190t152.5 -69q107 0 154 69t47 190t-47 190t-153 69
q-105 0 -153.5 -69t-48.5 -190zM371 938q13 -22 32 -49.5t39.5 -53t35.5 -44.5v-13h-83q-25 18 -58.5 46t-63.5 57t-46 47v10h144z" />
    <glyph glyph-name="Oacute" unicode="&#xd3;" horiz-adv-x="790" 
d="M731 358q0 -111 -36.5 -193.5t-111.5 -128.5t-188 -46q-115 0 -189 46t-110.5 129t-36.5 194q0 110 36.5 192.5t111 128t189.5 45.5q113 0 187.5 -45.5t111 -128t36.5 -193.5zM194 358q0 -121 48.5 -190t152.5 -69q107 0 154 69t47 190t-47 190t-153 69
q-105 0 -153.5 -69t-48.5 -190zM568 938v-10q-17 -18 -47 -47t-63 -57t-57 -46h-84v13q16 19 36 44.5t39 53t32 49.5h144z" />
    <glyph glyph-name="Ocircumflex" unicode="&#xd4;" horiz-adv-x="790" 
d="M731 358q0 -111 -36.5 -193.5t-111.5 -128.5t-188 -46q-115 0 -189 46t-110.5 129t-36.5 194q0 110 36.5 192.5t111 128t189.5 45.5q113 0 187.5 -45.5t111 -128t36.5 -193.5zM194 358q0 -121 48.5 -190t152.5 -69q107 0 154 69t47 190t-47 190t-153 69
q-105 0 -153.5 -69t-48.5 -190zM468 938q13 -22 35.5 -49.5t47 -54t42.5 -44.5v-12h-85q-26 16 -56.5 38.5t-56.5 49.5q-26 -27 -55 -49.5t-55 -38.5h-84v12q18 19 42 45t46 53.5t36 49.5h143z" />
    <glyph glyph-name="Otilde" unicode="&#xd5;" horiz-adv-x="790" 
d="M731 358q0 -111 -36.5 -193.5t-111.5 -128.5t-188 -46q-115 0 -189 46t-110.5 129t-36.5 194q0 110 36.5 192.5t111 128t189.5 45.5q113 0 187.5 -45.5t111 -128t36.5 -193.5zM194 358q0 -121 48.5 -190t152.5 -69q107 0 154 69t47 190t-47 190t-153 69
q-105 0 -153.5 -69t-48.5 -190zM200 777q6 71 40 107t84 36q28 0 54 -13.5t50 -27t47 -13.5q39 0 51 55h65q-6 -71 -40.5 -107t-83.5 -36q-27 0 -53 13.5t-50.5 27t-47.5 13.5q-39 0 -51 -55h-65z" />
    <glyph glyph-name="Odieresis" unicode="&#xd6;" horiz-adv-x="790" 
d="M731 358q0 -111 -36.5 -193.5t-111.5 -128.5t-188 -46q-115 0 -189 46t-110.5 129t-36.5 194q0 110 36.5 192.5t111 128t189.5 45.5q113 0 187.5 -45.5t111 -128t36.5 -193.5zM194 358q0 -121 48.5 -190t152.5 -69q107 0 154 69t47 190t-47 190t-153 69
q-105 0 -153.5 -69t-48.5 -190zM238 856q0 32 17.5 46t42.5 14q24 0 42.5 -14t18.5 -46q0 -30 -18.5 -44.5t-42.5 -14.5q-25 0 -42.5 14.5t-17.5 44.5zM432 856q0 32 17.5 46t42.5 14q24 0 42.5 -14t18.5 -46q0 -30 -18.5 -44.5t-42.5 -14.5q-25 0 -42.5 14.5t-17.5 44.5z
" />
    <glyph glyph-name="multiply" unicode="&#xd7;" horiz-adv-x="572" 
d="M442 575l65 -65l-157 -157l156 -156l-65 -66l-157 156l-155 -155l-65 65l154 156l-155 155l66 67l155 -156z" />
    <glyph glyph-name="Oslash" unicode="&#xd8;" horiz-adv-x="790" 
d="M731 358q0 -111 -36.5 -193.5t-111.5 -128.5t-188 -46q-101 0 -172 38l-45 -67l-72 48l47 69q-48 49 -71 120.5t-23 160.5q0 110 36.5 192.5t111 128t189.5 45.5q50 0 93.5 -10t78.5 -28l43 63l72 -47l-46 -67q47 -48 70.5 -119t23.5 -159zM194 358q0 -51 8.5 -93.5
t26.5 -74.5l274 400q-22 13 -48.5 20t-58.5 7q-105 0 -153.5 -69t-48.5 -190zM596 358q0 104 -34 166l-273 -399q43 -26 106 -26q107 0 154 69t47 190z" />
    <glyph glyph-name="Ugrave" unicode="&#xd9;" horiz-adv-x="747" 
d="M659 714v-462q0 -74 -31.5 -133.5t-95.5 -94t-162 -34.5q-139 0 -211 72.5t-72 191.5v460h128v-447q0 -88 39.5 -128t119.5 -40q83 0 120.5 43.5t37.5 125.5v446h127zM349 938q13 -22 32 -49.5t39.5 -53t35.5 -44.5v-13h-83q-25 18 -58.5 46t-63.5 57t-46 47v10h144z" />
    <glyph glyph-name="Uacute" unicode="&#xda;" horiz-adv-x="747" 
d="M659 714v-462q0 -74 -31.5 -133.5t-95.5 -94t-162 -34.5q-139 0 -211 72.5t-72 191.5v460h128v-447q0 -88 39.5 -128t119.5 -40q83 0 120.5 43.5t37.5 125.5v446h127zM546 938v-10q-17 -18 -47 -47t-63 -57t-57 -46h-84v13q16 19 36 44.5t39 53t32 49.5h144z" />
    <glyph glyph-name="Ucircumflex" unicode="&#xdb;" horiz-adv-x="747" 
d="M659 714v-462q0 -74 -31.5 -133.5t-95.5 -94t-162 -34.5q-139 0 -211 72.5t-72 191.5v460h128v-447q0 -88 39.5 -128t119.5 -40q83 0 120.5 43.5t37.5 125.5v446h127zM446 938q13 -22 35.5 -49.5t47 -54t42.5 -44.5v-12h-85q-26 16 -56.5 38.5t-56.5 49.5
q-26 -27 -55 -49.5t-55 -38.5h-84v12q18 19 42 45t46 53.5t36 49.5h143z" />
    <glyph glyph-name="Udieresis" unicode="&#xdc;" horiz-adv-x="747" 
d="M659 714v-462q0 -74 -31.5 -133.5t-95.5 -94t-162 -34.5q-139 0 -211 72.5t-72 191.5v460h128v-447q0 -88 39.5 -128t119.5 -40q83 0 120.5 43.5t37.5 125.5v446h127zM216 856q0 32 17.5 46t42.5 14q24 0 42.5 -14t18.5 -46q0 -30 -18.5 -44.5t-42.5 -14.5
q-25 0 -42.5 14.5t-17.5 44.5zM410 856q0 32 17.5 46t42.5 14q24 0 42.5 -14t18.5 -46q0 -30 -18.5 -44.5t-42.5 -14.5q-25 0 -42.5 14.5t-17.5 44.5z" />
    <glyph glyph-name="Yacute" unicode="&#xdd;" horiz-adv-x="602" 
d="M301 399l163 315h138l-237 -436v-278h-128v273l-237 441h139zM473 938v-10q-17 -18 -47 -47t-63 -57t-57 -46h-84v13q16 19 36 44.5t39 53t32 49.5h144z" />
    <glyph glyph-name="Thorn" unicode="&#xde;" horiz-adv-x="619" 
d="M572 378q0 -60 -25.5 -112.5t-85 -85t-163.5 -32.5h-77v-148h-128v714h128v-117h90q137 0 199 -59t62 -160zM221 252h57q84 0 124 29t40 95q0 59 -36 87.5t-114 28.5h-71v-240z" />
    <glyph glyph-name="germandbls" unicode="&#xdf;" horiz-adv-x="681" 
d="M577 610q0 -36 -14 -62.5t-35 -46t-42 -35t-35 -29t-14 -28.5q0 -19 21.5 -35.5t77.5 -53.5q50 -33 78 -68.5t28 -94.5q0 -84 -55 -125.5t-155 -41.5q-93 0 -147 32v103q24 -16 63.5 -29t75.5 -13q90 0 90 70q0 20 -7.5 35t-27 31.5t-57.5 38.5q-62 37 -85.5 66t-23.5 69
q0 31 13.5 53t34 38.5t41 31.5t34 33t13.5 43q0 35 -33.5 54t-83.5 19q-52 0 -88.5 -23.5t-36.5 -78.5v-563h-126v567q0 69 33 113t89.5 64.5t128.5 20.5q71 0 126.5 -17.5t87 -52.5t31.5 -85z" />
    <glyph glyph-name="agrave" unicode="&#xe0;" horiz-adv-x="588" 
d="M297 552q105 0 159.5 -46t54.5 -142v-364h-89l-25 75h-4q-35 -44 -74 -64.5t-106 -20.5q-73 0 -121 41t-48 127q0 84 61.5 126t186.5 47l94 3v27q0 52 -25 74t-70 22q-41 0 -78.5 -11.5t-74.5 -28.5l-40 88q40 21 91.5 34t107.5 13zM386 256l-66 -2q-83 -3 -115 -28.5
t-32 -68.5q0 -39 22.5 -55.5t59.5 -16.5q55 0 93 31.5t38 93.5v46zM270 766q13 -22 32 -49.5t39.5 -53t35.5 -44.5v-13h-83q-25 18 -58.5 46t-63.5 57t-46 47v10h144z" />
    <glyph glyph-name="aacute" unicode="&#xe1;" horiz-adv-x="588" 
d="M297 552q105 0 159.5 -46t54.5 -142v-364h-89l-25 75h-4q-35 -44 -74 -64.5t-106 -20.5q-73 0 -121 41t-48 127q0 84 61.5 126t186.5 47l94 3v27q0 52 -25 74t-70 22q-41 0 -78.5 -11.5t-74.5 -28.5l-40 88q40 21 91.5 34t107.5 13zM386 256l-66 -2q-83 -3 -115 -28.5
t-32 -68.5q0 -39 22.5 -55.5t59.5 -16.5q55 0 93 31.5t38 93.5v46zM466 766v-10q-17 -18 -47 -47t-63 -57t-57 -46h-84v13q16 19 36 44.5t39 53t32 49.5h144z" />
    <glyph glyph-name="acircumflex" unicode="&#xe2;" horiz-adv-x="588" 
d="M297 552q105 0 159.5 -46t54.5 -142v-364h-89l-25 75h-4q-35 -44 -74 -64.5t-106 -20.5q-73 0 -121 41t-48 127q0 84 61.5 126t186.5 47l94 3v27q0 52 -25 74t-70 22q-41 0 -78.5 -11.5t-74.5 -28.5l-40 88q40 21 91.5 34t107.5 13zM386 256l-66 -2q-83 -3 -115 -28.5
t-32 -68.5q0 -39 22.5 -55.5t59.5 -16.5q55 0 93 31.5t38 93.5v46zM367 766q13 -22 35.5 -49.5t47 -54t42.5 -44.5v-12h-85q-26 16 -56.5 38.5t-56.5 49.5q-26 -27 -55 -49.5t-55 -38.5h-84v12q18 19 42 45t46 53.5t36 49.5h143z" />
    <glyph glyph-name="atilde" unicode="&#xe3;" horiz-adv-x="588" 
d="M297 552q105 0 159.5 -46t54.5 -142v-364h-89l-25 75h-4q-35 -44 -74 -64.5t-106 -20.5q-73 0 -121 41t-48 127q0 84 61.5 126t186.5 47l94 3v27q0 52 -25 74t-70 22q-41 0 -78.5 -11.5t-74.5 -28.5l-40 88q40 21 91.5 34t107.5 13zM386 256l-66 -2q-83 -3 -115 -28.5
t-32 -68.5q0 -39 22.5 -55.5t59.5 -16.5q55 0 93 31.5t38 93.5v46zM98 605q6 71 40 107t84 36q28 0 54 -13.5t50 -27t47 -13.5q39 0 51 55h65q-6 -71 -40.5 -107t-83.5 -36q-27 0 -53 13.5t-50.5 27t-47.5 13.5q-39 0 -51 -55h-65z" />
    <glyph glyph-name="adieresis" unicode="&#xe4;" horiz-adv-x="588" 
d="M297 552q105 0 159.5 -46t54.5 -142v-364h-89l-25 75h-4q-35 -44 -74 -64.5t-106 -20.5q-73 0 -121 41t-48 127q0 84 61.5 126t186.5 47l94 3v27q0 52 -25 74t-70 22q-41 0 -78.5 -11.5t-74.5 -28.5l-40 88q40 21 91.5 34t107.5 13zM386 256l-66 -2q-83 -3 -115 -28.5
t-32 -68.5q0 -39 22.5 -55.5t59.5 -16.5q55 0 93 31.5t38 93.5v46zM136 684q0 32 17.5 46t42.5 14q24 0 42.5 -14t18.5 -46q0 -30 -18.5 -44.5t-42.5 -14.5q-25 0 -42.5 14.5t-17.5 44.5zM330 684q0 32 17.5 46t42.5 14q24 0 42.5 -14t18.5 -46q0 -30 -18.5 -44.5
t-42.5 -14.5q-25 0 -42.5 14.5t-17.5 44.5z" />
    <glyph glyph-name="aring" unicode="&#xe5;" horiz-adv-x="588" 
d="M297 552q105 0 159.5 -46t54.5 -142v-364h-89l-25 75h-4q-35 -44 -74 -64.5t-106 -20.5q-73 0 -121 41t-48 127q0 84 61.5 126t186.5 47l94 3v27q0 52 -25 74t-70 22q-41 0 -78.5 -11.5t-74.5 -28.5l-40 88q40 21 91.5 34t107.5 13zM386 256l-66 -2q-83 -3 -115 -28.5
t-32 -68.5q0 -39 22.5 -55.5t59.5 -16.5q55 0 93 31.5t38 93.5v46zM295 605q-52 0 -84 30t-32 83q0 52 32 81.5t84 29.5q50 0 85 -29.5t35 -80.5q0 -54 -34.5 -84t-85.5 -30zM295 667q22 0 36.5 13.5t14.5 37.5q0 23 -14.5 36.5t-36.5 13.5q-21 0 -35.5 -13.5t-14.5 -36.5
q0 -51 50 -51z" />
    <glyph glyph-name="ae" unicode="&#xe6;" horiz-adv-x="897" 
d="M627 552q101 0 162.5 -65t61.5 -180v-65h-349q2 -76 39 -115.5t104 -39.5q49 0 92 10.5t86 30.5v-101q-41 -19 -83 -28t-101 -9q-67 0 -121 26.5t-88 79.5q-27 -35 -55.5 -58.5t-66.5 -35.5t-92 -12q-48 0 -87 18t-62 55t-23 95q0 84 59.5 126t179.5 47l91 3v38
q0 46 -25 65.5t-67 19.5q-40 0 -77.5 -11t-72.5 -28l-40 87q40 21 92 34t106 13q58 0 99 -17t67 -55q30 35 72 53.5t99 18.5zM624 459q-52 0 -83.5 -32.5t-36.5 -96.5h225q-1 57 -27 93t-78 36zM374 256l-63 -2q-78 -3 -108 -28.5t-30 -68.5q0 -39 21.5 -55.5t56.5 -16.5
q52 0 87.5 31.5t35.5 93.5v46z" />
    <glyph glyph-name="ccedilla" unicode="&#xe7;" horiz-adv-x="501" 
d="M300 -10q-116 0 -183.5 67t-67.5 211q0 100 33.5 162.5t92.5 92t135 29.5q50 0 90.5 -10t68.5 -24l-37 -99q-32 12 -63 20.5t-59 8.5q-132 0 -132 -179q0 -87 33.5 -131t96.5 -44q45 0 80.5 11t66.5 30v-109q-31 -19 -67 -27.5t-88 -8.5zM398 -128q0 -53 -34.5 -82.5
t-115.5 -29.5q-37 0 -63 8v72q12 -3 30.5 -5.5t33.5 -2.5q22 0 35.5 7.5t13.5 27.5q0 42 -84 54l39 79h81l-18 -39q32 -9 57 -30.5t25 -58.5z" />
    <glyph glyph-name="egrave" unicode="&#xe8;" horiz-adv-x="581" 
d="M299 552q109 0 172.5 -65t63.5 -181v-64h-358q2 -74 41 -114.5t108 -40.5q52 0 94 10.5t86 30.5v-101q-40 -19 -83 -28t-103 -9q-80 0 -141 30.5t-95.5 92t-34.5 154.5q0 139 68.5 212t181.5 73zM299 459q-51 0 -82.5 -32.5t-36.5 -96.5h233q-1 56 -28.5 92.5t-85.5 36.5
zM267 766q13 -22 32 -49.5t39.5 -53t35.5 -44.5v-13h-83q-25 18 -58.5 46t-63.5 57t-46 47v10h144z" />
    <glyph glyph-name="eacute" unicode="&#xe9;" horiz-adv-x="581" 
d="M299 552q109 0 172.5 -65t63.5 -181v-64h-358q2 -74 41 -114.5t108 -40.5q52 0 94 10.5t86 30.5v-101q-40 -19 -83 -28t-103 -9q-80 0 -141 30.5t-95.5 92t-34.5 154.5q0 139 68.5 212t181.5 73zM299 459q-51 0 -82.5 -32.5t-36.5 -96.5h233q-1 56 -28.5 92.5t-85.5 36.5
zM464 766v-10q-17 -18 -47 -47t-63 -57t-57 -46h-84v13q16 19 36 44.5t39 53t32 49.5h144z" />
    <glyph glyph-name="ecircumflex" unicode="&#xea;" horiz-adv-x="581" 
d="M299 552q109 0 172.5 -65t63.5 -181v-64h-358q2 -74 41 -114.5t108 -40.5q52 0 94 10.5t86 30.5v-101q-40 -19 -83 -28t-103 -9q-80 0 -141 30.5t-95.5 92t-34.5 154.5q0 139 68.5 212t181.5 73zM299 459q-51 0 -82.5 -32.5t-36.5 -96.5h233q-1 56 -28.5 92.5t-85.5 36.5
zM364 766q13 -22 35.5 -49.5t47 -54t42.5 -44.5v-12h-85q-26 16 -56.5 38.5t-56.5 49.5q-26 -27 -55 -49.5t-55 -38.5h-84v12q18 19 42 45t46 53.5t36 49.5h143z" />
    <glyph glyph-name="edieresis" unicode="&#xeb;" horiz-adv-x="581" 
d="M299 552q109 0 172.5 -65t63.5 -181v-64h-358q2 -74 41 -114.5t108 -40.5q52 0 94 10.5t86 30.5v-101q-40 -19 -83 -28t-103 -9q-80 0 -141 30.5t-95.5 92t-34.5 154.5q0 139 68.5 212t181.5 73zM299 459q-51 0 -82.5 -32.5t-36.5 -96.5h233q-1 56 -28.5 92.5t-85.5 36.5
zM134 684q0 32 17.5 46t42.5 14q24 0 42.5 -14t18.5 -46q0 -30 -18.5 -44.5t-42.5 -14.5q-25 0 -42.5 14.5t-17.5 44.5zM328 684q0 32 17.5 46t42.5 14q24 0 42.5 -14t18.5 -46q0 -30 -18.5 -44.5t-42.5 -14.5q-25 0 -42.5 14.5t-17.5 44.5z" />
    <glyph glyph-name="igrave" unicode="&#xec;" horiz-adv-x="287" 
d="M207 0h-126v542h126v-542zM120 766q13 -22 32 -49.5t39.5 -53t35.5 -44.5v-13h-83q-25 18 -58.5 46t-63.5 57t-46 47v10h144z" />
    <glyph glyph-name="iacute" unicode="&#xed;" horiz-adv-x="287" 
d="M207 0h-126v542h126v-542zM316 766v-10q-17 -18 -47 -47t-63 -57t-57 -46h-84v13q16 19 36 44.5t39 53t32 49.5h144z" />
    <glyph glyph-name="icircumflex" unicode="&#xee;" horiz-adv-x="287" 
d="M207 0h-126v542h126v-542zM217 766q13 -22 35.5 -49.5t47 -54t42.5 -44.5v-12h-85q-26 16 -56.5 38.5t-56.5 49.5q-26 -27 -55 -49.5t-55 -38.5h-84v12q18 19 42 45t46 53.5t36 49.5h143z" />
    <glyph glyph-name="idieresis" unicode="&#xef;" horiz-adv-x="287" 
d="M207 0h-126v542h126v-542zM-14 684q0 32 17.5 46t42.5 14q24 0 42.5 -14t18.5 -46q0 -30 -18.5 -44.5t-42.5 -14.5q-25 0 -42.5 14.5t-17.5 44.5zM180 684q0 32 17.5 46t42.5 14q24 0 42.5 -14t18.5 -46q0 -30 -18.5 -44.5t-42.5 -14.5q-25 0 -42.5 14.5t-17.5 44.5z" />
    <glyph glyph-name="eth" unicode="&#xf0;" horiz-adv-x="614" 
d="M221 765q34 -16 65.5 -33.5t60.5 -36.5l112 67l45 -67l-89 -53q71 -65 110.5 -154.5t39.5 -209.5q0 -140 -70 -214t-190 -74q-75 0 -132.5 29.5t-90.5 84.5t-33 133q0 77 29.5 131.5t82.5 83.5t123 29q103 0 142 -52l4 2q-16 47 -43 85t-62 71l-119 -71l-45 68l96 57
q-19 12 -39 24t-41 24zM307 386q-69 0 -99.5 -38.5t-30.5 -112.5q0 -66 31 -107.5t99 -41.5q69 0 99.5 43t30.5 128q0 52 -31.5 90.5t-98.5 38.5z" />
    <glyph glyph-name="ntilde" unicode="&#xf1;" horiz-adv-x="642" 
d="M371 552q91 0 142.5 -47t51.5 -152v-353h-126v328q0 61 -24 91.5t-76 30.5q-76 0 -104 -48t-28 -137v-265h-126v542h97l18 -71h7q26 42 71.5 61.5t96.5 19.5zM126 605q6 71 40 107t84 36q28 0 54 -13.5t50 -27t47 -13.5q39 0 51 55h65q-6 -71 -40.5 -107t-83.5 -36
q-27 0 -53 13.5t-50.5 27t-47.5 13.5q-39 0 -51 -55h-65z" />
    <glyph glyph-name="ograve" unicode="&#xf2;" horiz-adv-x="614" 
d="M565 272q0 -135 -70 -208.5t-190 -73.5q-74 0 -132 33t-91 96t-33 153q0 135 69.5 207.5t189.5 72.5q75 0 133 -32.5t91 -95t33 -152.5zM178 272q0 -86 30.5 -133t98.5 -47q67 0 98 47t31 133t-31 132t-99 46t-98 -46t-30 -132zM283 766q13 -22 32 -49.5t39.5 -53
t35.5 -44.5v-13h-83q-25 18 -58.5 46t-63.5 57t-46 47v10h144z" />
    <glyph glyph-name="oacute" unicode="&#xf3;" horiz-adv-x="614" 
d="M565 272q0 -135 -70 -208.5t-190 -73.5q-74 0 -132 33t-91 96t-33 153q0 135 69.5 207.5t189.5 72.5q75 0 133 -32.5t91 -95t33 -152.5zM178 272q0 -86 30.5 -133t98.5 -47q67 0 98 47t31 133t-31 132t-99 46t-98 -46t-30 -132zM480 766v-10q-17 -18 -47 -47t-63 -57
t-57 -46h-84v13q16 19 36 44.5t39 53t32 49.5h144z" />
    <glyph glyph-name="ocircumflex" unicode="&#xf4;" horiz-adv-x="614" 
d="M565 272q0 -135 -70 -208.5t-190 -73.5q-74 0 -132 33t-91 96t-33 153q0 135 69.5 207.5t189.5 72.5q75 0 133 -32.5t91 -95t33 -152.5zM178 272q0 -86 30.5 -133t98.5 -47q67 0 98 47t31 133t-31 132t-99 46t-98 -46t-30 -132zM380 766q13 -22 35.5 -49.5t47 -54
t42.5 -44.5v-12h-85q-26 16 -56.5 38.5t-56.5 49.5q-26 -27 -55 -49.5t-55 -38.5h-84v12q18 19 42 45t46 53.5t36 49.5h143z" />
    <glyph glyph-name="otilde" unicode="&#xf5;" horiz-adv-x="614" 
d="M565 272q0 -135 -70 -208.5t-190 -73.5q-74 0 -132 33t-91 96t-33 153q0 135 69.5 207.5t189.5 72.5q75 0 133 -32.5t91 -95t33 -152.5zM178 272q0 -86 30.5 -133t98.5 -47q67 0 98 47t31 133t-31 132t-99 46t-98 -46t-30 -132zM112 605q6 71 40 107t84 36q28 0 54 -13.5
t50 -27t47 -13.5q39 0 51 55h65q-6 -71 -40.5 -107t-83.5 -36q-27 0 -53 13.5t-50.5 27t-47.5 13.5q-39 0 -51 -55h-65z" />
    <glyph glyph-name="odieresis" unicode="&#xf6;" horiz-adv-x="614" 
d="M565 272q0 -135 -70 -208.5t-190 -73.5q-74 0 -132 33t-91 96t-33 153q0 135 69.5 207.5t189.5 72.5q75 0 133 -32.5t91 -95t33 -152.5zM178 272q0 -86 30.5 -133t98.5 -47q67 0 98 47t31 133t-31 132t-99 46t-98 -46t-30 -132zM150 684q0 32 17.5 46t42.5 14
q24 0 42.5 -14t18.5 -46q0 -30 -18.5 -44.5t-42.5 -14.5q-25 0 -42.5 14.5t-17.5 44.5zM344 684q0 32 17.5 46t42.5 14q24 0 42.5 -14t18.5 -46q0 -30 -18.5 -44.5t-42.5 -14.5q-25 0 -42.5 14.5t-17.5 44.5z" />
    <glyph glyph-name="divide" unicode="&#xf7;" horiz-adv-x="572" 
d="M285 454q-26 0 -44.5 16t-18.5 53q0 38 18.5 53.5t44.5 15.5q25 0 44 -15.5t19 -53.5q0 -37 -19 -53t-44 -16zM46 306v93h479v-93h-479zM285 113q-26 0 -44.5 16t-18.5 53q0 38 18.5 53.5t44.5 15.5q25 0 44 -15.5t19 -53.5q0 -37 -19 -53t-44 -16z" />
    <glyph glyph-name="oslash" unicode="&#xf8;" horiz-adv-x="614" 
d="M565 272q0 -135 -70 -208.5t-190 -73.5q-65 0 -119 26l-36 -51l-69 46l38 54q-34 37 -52 88t-18 119q0 135 69.5 207.5t189.5 72.5q70 0 125 -29l32 46l68 -47l-34 -50q31 -35 48.5 -85.5t17.5 -114.5zM178 272q0 -29 3 -54t11 -45l180 260q-26 17 -66 17q-68 0 -98 -46
t-30 -132zM436 272q0 53 -12 89l-177 -256q26 -13 60 -13q67 0 98 47t31 133z" />
    <glyph glyph-name="ugrave" unicode="&#xf9;" horiz-adv-x="642" 
d="M562 542v-542h-99l-17 70h-6q-26 -42 -72 -61t-97 -19q-91 0 -142.5 47t-51.5 151v354h126v-329q0 -61 24 -91t76 -30q76 0 104.5 48t28.5 137v265h126zM297 766q13 -22 32 -49.5t39.5 -53t35.5 -44.5v-13h-83q-25 18 -58.5 46t-63.5 57t-46 47v10h144z" />
    <glyph glyph-name="uacute" unicode="&#xfa;" horiz-adv-x="642" 
d="M562 542v-542h-99l-17 70h-6q-26 -42 -72 -61t-97 -19q-91 0 -142.5 47t-51.5 151v354h126v-329q0 -61 24 -91t76 -30q76 0 104.5 48t28.5 137v265h126zM494 766v-10q-17 -18 -47 -47t-63 -57t-57 -46h-84v13q16 19 36 44.5t39 53t32 49.5h144z" />
    <glyph glyph-name="ucircumflex" unicode="&#xfb;" horiz-adv-x="642" 
d="M562 542v-542h-99l-17 70h-6q-26 -42 -72 -61t-97 -19q-91 0 -142.5 47t-51.5 151v354h126v-329q0 -61 24 -91t76 -30q76 0 104.5 48t28.5 137v265h126zM394 766q13 -22 35.5 -49.5t47 -54t42.5 -44.5v-12h-85q-26 16 -56.5 38.5t-56.5 49.5q-26 -27 -55 -49.5t-55 -38.5
h-84v12q18 19 42 45t46 53.5t36 49.5h143z" />
    <glyph glyph-name="udieresis" unicode="&#xfc;" horiz-adv-x="642" 
d="M562 542v-542h-99l-17 70h-6q-26 -42 -72 -61t-97 -19q-91 0 -142.5 47t-51.5 151v354h126v-329q0 -61 24 -91t76 -30q76 0 104.5 48t28.5 137v265h126zM164 684q0 32 17.5 46t42.5 14q24 0 42.5 -14t18.5 -46q0 -30 -18.5 -44.5t-42.5 -14.5q-25 0 -42.5 14.5
t-17.5 44.5zM358 684q0 32 17.5 46t42.5 14q24 0 42.5 -14t18.5 -46q0 -30 -18.5 -44.5t-42.5 -14.5q-25 0 -42.5 14.5t-17.5 44.5z" />
    <glyph glyph-name="yacute" unicode="&#xfd;" horiz-adv-x="547" 
d="M0 542h137l108 -306q11 -29 18 -57.5t10 -56.5h4q4 26 12 55.5t18 58.5l104 306h136l-231 -614q-31 -81 -84.5 -124.5t-131.5 -43.5q-25 0 -43.5 2.5t-31.5 5.5v100q11 -2 26.5 -4t32.5 -2q46 0 74 27.5t43 68.5l16 44zM446 766v-10q-17 -18 -47 -47t-63 -57t-57 -46h-84
v13q16 19 36 44.5t39 53t32 49.5h144z" />
    <glyph glyph-name="thorn" unicode="&#xfe;" horiz-adv-x="626" 
d="M577 272q0 -139 -58 -210.5t-153 -71.5q-61 0 -98.5 21t-60.5 50h-7q2 -13 4.5 -38t2.5 -41v-222h-126v1000h126v-203q0 -21 -2.5 -46.5t-3.5 -39.5h6q23 34 60.5 57.5t98.5 23.5q94 0 152.5 -71t58.5 -209zM448 274q0 88 -28 132t-89 44q-67 0 -95 -40t-29 -120v-17
q0 -87 26.5 -133.5t98.5 -46.5q60 0 88 46.5t28 134.5z" />
    <glyph glyph-name="ydieresis" unicode="&#xff;" horiz-adv-x="547" 
d="M0 542h137l108 -306q11 -29 18 -57.5t10 -56.5h4q4 26 12 55.5t18 58.5l104 306h136l-231 -614q-31 -81 -84.5 -124.5t-131.5 -43.5q-25 0 -43.5 2.5t-31.5 5.5v100q11 -2 26.5 -4t32.5 -2q46 0 74 27.5t43 68.5l16 44zM116 684q0 32 17.5 46t42.5 14q24 0 42.5 -14
t18.5 -46q0 -30 -18.5 -44.5t-42.5 -14.5q-25 0 -42.5 14.5t-17.5 44.5zM310 684q0 32 17.5 46t42.5 14q24 0 42.5 -14t18.5 -46q0 -30 -18.5 -44.5t-42.5 -14.5q-25 0 -42.5 14.5t-17.5 44.5z" />
    <glyph glyph-name="Amacron" unicode="&#x100;" horiz-adv-x="671" 
d="M534 0l-65 189h-269l-64 -189h-136l262 717h146l262 -717h-136zM436 299l-62 184q-4 13 -12 37.5t-15 50t-12 42.5q-5 -21 -12.5 -47t-14 -49t-10.5 -34l-63 -184h201zM494 869v-91h-318v91h318z" />
    <glyph glyph-name="amacron" unicode="&#x101;" horiz-adv-x="588" 
d="M297 552q105 0 159.5 -46t54.5 -142v-364h-89l-25 75h-4q-35 -44 -74 -64.5t-106 -20.5q-73 0 -121 41t-48 127q0 84 61.5 126t186.5 47l94 3v27q0 52 -25 74t-70 22q-41 0 -78.5 -11.5t-74.5 -28.5l-40 88q40 21 91.5 34t107.5 13zM386 256l-66 -2q-83 -3 -115 -28.5
t-32 -68.5q0 -39 22.5 -55.5t59.5 -16.5q55 0 93 31.5t38 93.5v46zM453 697v-91h-318v91h318z" />
    <glyph glyph-name="Abreve" unicode="&#x102;" horiz-adv-x="671" 
d="M534 0l-65 189h-269l-64 -189h-136l262 717h146l262 -717h-136zM436 299l-62 184q-4 13 -12 37.5t-15 50t-12 42.5q-5 -21 -12.5 -47t-14 -49t-10.5 -34l-63 -184h201zM516 931q-5 -67 -53 -110t-127 -43q-82 0 -127 41.5t-49 111.5h72q4 -41 33 -51t72 -10q25 0 48 4.5
t39 17.5t19 39h73z" />
    <glyph glyph-name="abreve" unicode="&#x103;" horiz-adv-x="588" 
d="M297 552q105 0 159.5 -46t54.5 -142v-364h-89l-25 75h-4q-35 -44 -74 -64.5t-106 -20.5q-73 0 -121 41t-48 127q0 84 61.5 126t186.5 47l94 3v27q0 52 -25 74t-70 22q-41 0 -78.5 -11.5t-74.5 -28.5l-40 88q40 21 91.5 34t107.5 13zM386 256l-66 -2q-83 -3 -115 -28.5
t-32 -68.5q0 -39 22.5 -55.5t59.5 -16.5q55 0 93 31.5t38 93.5v46zM475 759q-5 -67 -53 -110t-127 -43q-82 0 -127 41.5t-49 111.5h72q4 -41 33 -51t72 -10q25 0 48 4.5t39 17.5t19 39h73z" />
    <glyph glyph-name="Aogonek" unicode="&#x104;" horiz-adv-x="671" 
d="M534 0l-65 189h-269l-64 -189h-136l262 717h146l262 -717h-136zM436 299l-62 184q-4 13 -12 37.5t-15 50t-12 42.5q-5 -21 -12.5 -47t-14 -49t-10.5 -34l-63 -184h201zM563 -113q0 -21 11.5 -31.5t30.5 -10.5q16 0 29.5 3t23.5 5v-75q-16 -4 -32 -7t-39 -3
q-55 0 -85 28.5t-30 76.5q0 43 31.5 81.5t71.5 61.5l59 -16q-34 -32 -52.5 -58.5t-18.5 -54.5z" />
    <glyph glyph-name="aogonek" unicode="&#x105;" horiz-adv-x="588" 
d="M297 552q105 0 159.5 -46t54.5 -142v-364h-89l-25 75h-4q-35 -44 -74 -64.5t-106 -20.5q-73 0 -121 41t-48 127q0 84 61.5 126t186.5 47l94 3v27q0 52 -25 74t-70 22q-41 0 -78.5 -11.5t-74.5 -28.5l-40 88q40 21 91.5 34t107.5 13zM386 256l-66 -2q-83 -3 -115 -28.5
t-32 -68.5q0 -39 22.5 -55.5t59.5 -16.5q55 0 93 31.5t38 93.5v46zM432 -113q0 -21 11.5 -31.5t30.5 -10.5q16 0 29.5 3t23.5 5v-75q-16 -4 -32 -7t-39 -3q-55 0 -85 28.5t-30 76.5q0 43 31.5 81.5t71.5 61.5l59 -16q-34 -32 -52.5 -58.5t-18.5 -54.5z" />
    <glyph glyph-name="Cacute" unicode="&#x106;" horiz-adv-x="635" 
d="M397 616q-97 0 -151 -69.5t-54 -190.5q0 -122 50 -190t154 -68q45 0 88.5 9.5t89.5 25.5v-109q-44 -18 -88.5 -26t-102.5 -8q-110 0 -182 45.5t-107 128t-35 193.5q0 108 39 190.5t114.5 129.5t184.5 47q54 0 106.5 -12t98.5 -35l-44 -105q-38 17 -78.5 30.5t-82.5 13.5z
M550 938v-10q-17 -18 -47 -47t-63 -57t-57 -46h-84v13q16 19 36 44.5t39 53t32 49.5h144z" />
    <glyph glyph-name="cacute" unicode="&#x107;" horiz-adv-x="501" 
d="M300 -10q-116 0 -183.5 67t-67.5 211q0 100 33.5 162.5t92.5 92t135 29.5q50 0 90.5 -10t68.5 -24l-37 -99q-32 12 -63 20.5t-59 8.5q-132 0 -132 -179q0 -87 33.5 -131t96.5 -44q45 0 80.5 11t66.5 30v-109q-31 -19 -67 -27.5t-88 -8.5zM458 766v-10q-17 -18 -47 -47
t-63 -57t-57 -46h-84v13q16 19 36 44.5t39 53t32 49.5h144z" />
    <glyph glyph-name="Ccircumflex" unicode="&#x108;" horiz-adv-x="635" 
d="M397 616q-97 0 -151 -69.5t-54 -190.5q0 -122 50 -190t154 -68q45 0 88.5 9.5t89.5 25.5v-109q-44 -18 -88.5 -26t-102.5 -8q-110 0 -182 45.5t-107 128t-35 193.5q0 108 39 190.5t114.5 129.5t184.5 47q54 0 106.5 -12t98.5 -35l-44 -105q-38 17 -78.5 30.5t-82.5 13.5z
M451 938q13 -22 35.5 -49.5t47 -54t42.5 -44.5v-12h-85q-26 16 -56.5 38.5t-56.5 49.5q-26 -27 -55 -49.5t-55 -38.5h-84v12q18 19 42 45t46 53.5t36 49.5h143z" />
    <glyph glyph-name="ccircumflex" unicode="&#x109;" horiz-adv-x="501" 
d="M300 -10q-116 0 -183.5 67t-67.5 211q0 100 33.5 162.5t92.5 92t135 29.5q50 0 90.5 -10t68.5 -24l-37 -99q-32 12 -63 20.5t-59 8.5q-132 0 -132 -179q0 -87 33.5 -131t96.5 -44q45 0 80.5 11t66.5 30v-109q-31 -19 -67 -27.5t-88 -8.5zM358 766q13 -22 35.5 -49.5
t47 -54t42.5 -44.5v-12h-85q-26 16 -56.5 38.5t-56.5 49.5q-26 -27 -55 -49.5t-55 -38.5h-84v12q18 19 42 45t46 53.5t36 49.5h143z" />
    <glyph glyph-name="Cdot" unicode="&#x10a;" horiz-adv-x="635" 
d="M397 616q-97 0 -151 -69.5t-54 -190.5q0 -122 50 -190t154 -68q45 0 88.5 9.5t89.5 25.5v-109q-44 -18 -88.5 -26t-102.5 -8q-110 0 -182 45.5t-107 128t-35 193.5q0 108 39 190.5t114.5 129.5t184.5 47q54 0 106.5 -12t98.5 -35l-44 -105q-38 17 -78.5 30.5t-82.5 13.5z
M380 923q28 0 49 -14.5t21 -51.5t-21 -52t-49 -15q-29 0 -49.5 15t-20.5 52t20.5 51.5t49.5 14.5z" />
    <glyph glyph-name="cdot" unicode="&#x10b;" horiz-adv-x="501" 
d="M300 -10q-116 0 -183.5 67t-67.5 211q0 100 33.5 162.5t92.5 92t135 29.5q50 0 90.5 -10t68.5 -24l-37 -99q-32 12 -63 20.5t-59 8.5q-132 0 -132 -179q0 -87 33.5 -131t96.5 -44q45 0 80.5 11t66.5 30v-109q-31 -19 -67 -27.5t-88 -8.5zM288 751q28 0 49 -14.5t21 -51.5
t-21 -52t-49 -15q-29 0 -49.5 15t-20.5 52t20.5 51.5t49.5 14.5z" />
    <glyph glyph-name="Ccaron" unicode="&#x10c;" horiz-adv-x="635" 
d="M397 616q-97 0 -151 -69.5t-54 -190.5q0 -122 50 -190t154 -68q45 0 88.5 9.5t89.5 25.5v-109q-44 -18 -88.5 -26t-102.5 -8q-110 0 -182 45.5t-107 128t-35 193.5q0 108 39 190.5t114.5 129.5t184.5 47q54 0 106.5 -12t98.5 -35l-44 -105q-38 17 -78.5 30.5t-82.5 13.5z
M308 778q-14 22 -36 49.5t-46 53t-42 44.5v13h84q26 -16 55 -38.5t55 -49.5q26 27 56.5 49.5t56.5 38.5h85v-13q-18 -19 -42.5 -44.5t-47 -53t-35.5 -49.5h-143z" />
    <glyph glyph-name="ccaron" unicode="&#x10d;" horiz-adv-x="501" 
d="M300 -10q-116 0 -183.5 67t-67.5 211q0 100 33.5 162.5t92.5 92t135 29.5q50 0 90.5 -10t68.5 -24l-37 -99q-32 12 -63 20.5t-59 8.5q-132 0 -132 -179q0 -87 33.5 -131t96.5 -44q45 0 80.5 11t66.5 30v-109q-31 -19 -67 -27.5t-88 -8.5zM215 606q-14 22 -36 49.5t-46 53
t-42 44.5v13h84q26 -16 55 -38.5t55 -49.5q26 27 56.5 49.5t56.5 38.5h85v-13q-18 -19 -42.5 -44.5t-47 -53t-35.5 -49.5h-143z" />
    <glyph glyph-name="Dcaron" unicode="&#x10e;" horiz-adv-x="736" 
d="M677 364q0 -181 -101 -272.5t-282 -91.5h-201v714h222q111 0 192 -40t125.5 -118t44.5 -192zM543 360q0 128 -59 188t-169 60h-94v-501h77q245 0 245 253zM296 778q-14 22 -36 49.5t-46 53t-42 44.5v13h84q26 -16 55 -38.5t55 -49.5q26 27 56.5 49.5t56.5 38.5h85v-13
q-18 -19 -42.5 -44.5t-47 -53t-35.5 -49.5h-143z" />
    <glyph glyph-name="dcaron" unicode="&#x10f;" horiz-adv-x="626" 
d="M260 -10q-94 0 -152.5 70.5t-58.5 209.5q0 140 59 211t155 71q60 0 98.5 -23t61.5 -56h6q-3 14 -6 42.5t-3 54.5v190h126v-760h-98l-23 71h-5q-23 -34 -61 -57.5t-99 -23.5zM298 92q70 0 98.5 40t29.5 121v16q0 87 -27.5 133.5t-102.5 46.5q-58 0 -88.5 -47.5
t-30.5 -133.5t31 -131t90 -45zM731 760v-10q-12 -31 -32.5 -71.5t-45.5 -78.5h-72v13q9 29 18 72t13 75h119z" />
    <glyph glyph-name="Dcroat" unicode="&#x110;" horiz-adv-x="736" 
d="M315 714q110 0 191.5 -40t126 -118t44.5 -192q0 -181 -101.5 -272.5t-282.5 -91.5h-198v300h-69v106h69v308h220zM315 608h-92v-202h140v-106h-140v-193h74q246 0 246 253q0 128 -59.5 188t-168.5 60z" />
    <glyph glyph-name="dcroat" unicode="&#x111;" horiz-adv-x="637" 
d="M260 -10q-94 0 -152.5 68t-58.5 202q0 136 59 204t155 68q60 0 98.5 -23t61.5 -56h6q-1 3 -3 20t-4 39t-2 41v39h-177v85h177v83h126v-83h76v-85h-76v-592h-99l-23 71h-5q-23 -34 -60.5 -57.5t-98.5 -23.5zM298 92q70 0 98.5 38t29.5 114v15q0 83 -27.5 127t-102.5 44
q-58 0 -88 -45t-30 -127q0 -81 30.5 -123.5t89.5 -42.5z" />
    <glyph glyph-name="Emacron" unicode="&#x112;" horiz-adv-x="558" 
d="M499 0h-406v714h406v-107h-278v-182h260v-107h-260v-210h278v-108zM462 869v-91h-318v91h318z" />
    <glyph glyph-name="emacron" unicode="&#x113;" horiz-adv-x="581" 
d="M299 552q109 0 172.5 -65t63.5 -181v-64h-358q2 -74 41 -114.5t108 -40.5q52 0 94 10.5t86 30.5v-101q-40 -19 -83 -28t-103 -9q-80 0 -141 30.5t-95.5 92t-34.5 154.5q0 139 68.5 212t181.5 73zM299 459q-51 0 -82.5 -32.5t-36.5 -96.5h233q-1 56 -28.5 92.5t-85.5 36.5
zM451 697v-91h-318v91h318z" />
    <glyph glyph-name="Ebreve" unicode="&#x114;" horiz-adv-x="558" 
d="M499 0h-406v714h406v-107h-278v-182h260v-107h-260v-210h278v-108zM484 931q-5 -67 -53 -110t-127 -43q-82 0 -127 41.5t-49 111.5h72q4 -41 33 -51t72 -10q25 0 48 4.5t39 17.5t19 39h73z" />
    <glyph glyph-name="ebreve" unicode="&#x115;" horiz-adv-x="581" 
d="M299 552q109 0 172.5 -65t63.5 -181v-64h-358q2 -74 41 -114.5t108 -40.5q52 0 94 10.5t86 30.5v-101q-40 -19 -83 -28t-103 -9q-80 0 -141 30.5t-95.5 92t-34.5 154.5q0 139 68.5 212t181.5 73zM299 459q-51 0 -82.5 -32.5t-36.5 -96.5h233q-1 56 -28.5 92.5t-85.5 36.5
zM473 759q-5 -67 -53 -110t-127 -43q-82 0 -127 41.5t-49 111.5h72q4 -41 33 -51t72 -10q25 0 48 4.5t39 17.5t19 39h73z" />
    <glyph glyph-name="Edotaccent" unicode="&#x116;" horiz-adv-x="558" 
d="M499 0h-406v714h406v-107h-278v-182h260v-107h-260v-210h278v-108zM305 923q28 0 49 -14.5t21 -51.5t-21 -52t-49 -15q-29 0 -49.5 15t-20.5 52t20.5 51.5t49.5 14.5z" />
    <glyph glyph-name="edotaccent" unicode="&#x117;" horiz-adv-x="581" 
d="M299 552q109 0 172.5 -65t63.5 -181v-64h-358q2 -74 41 -114.5t108 -40.5q52 0 94 10.5t86 30.5v-101q-40 -19 -83 -28t-103 -9q-80 0 -141 30.5t-95.5 92t-34.5 154.5q0 139 68.5 212t181.5 73zM299 459q-51 0 -82.5 -32.5t-36.5 -96.5h233q-1 56 -28.5 92.5t-85.5 36.5
zM294 751q28 0 49 -14.5t21 -51.5t-21 -52t-49 -15q-29 0 -49.5 15t-20.5 52t20.5 51.5t49.5 14.5z" />
    <glyph glyph-name="Eogonek" unicode="&#x118;" horiz-adv-x="558" 
d="M499 0h-406v714h406v-107h-278v-182h260v-107h-260v-210h278v-108zM403 -113q0 -21 11.5 -31.5t30.5 -10.5q16 0 29.5 3t23.5 5v-75q-16 -4 -32 -7t-39 -3q-55 0 -85 28.5t-30 76.5q0 43 31.5 81.5t71.5 61.5l59 -16q-34 -32 -52.5 -58.5t-18.5 -54.5z" />
    <glyph glyph-name="eogonek" unicode="&#x119;" horiz-adv-x="581" 
d="M404 -113q0 -21 11 -31.5t30 -10.5q17 0 30.5 3l22.5 5v-75q-15 -4 -31.5 -7t-39.5 -3q-55 0 -84.5 28.5t-29.5 76.5q0 34 20.5 65t49.5 55q-29 -3 -63 -3q-80 0 -141 30.5t-95.5 92t-34.5 154.5q0 139 68.5 212t181.5 73q109 0 172.5 -65t63.5 -181v-64h-358
q2 -74 41 -114.5t108 -40.5q52 0 94 10.5t86 30.5v-101q-60 -51 -81 -81.5t-21 -58.5zM299 459q-51 0 -82.5 -32.5t-36.5 -96.5h233q-1 56 -28.5 92.5t-85.5 36.5z" />
    <glyph glyph-name="Ecaron" unicode="&#x11a;" horiz-adv-x="558" 
d="M499 0h-406v714h406v-107h-278v-182h260v-107h-260v-210h278v-108zM232 778q-14 22 -36 49.5t-46 53t-42 44.5v13h84q26 -16 55 -38.5t55 -49.5q26 27 56.5 49.5t56.5 38.5h85v-13q-18 -19 -42.5 -44.5t-47 -53t-35.5 -49.5h-143z" />
    <glyph glyph-name="ecaron" unicode="&#x11b;" horiz-adv-x="581" 
d="M299 552q109 0 172.5 -65t63.5 -181v-64h-358q2 -74 41 -114.5t108 -40.5q52 0 94 10.5t86 30.5v-101q-40 -19 -83 -28t-103 -9q-80 0 -141 30.5t-95.5 92t-34.5 154.5q0 139 68.5 212t181.5 73zM299 459q-51 0 -82.5 -32.5t-36.5 -96.5h233q-1 56 -28.5 92.5t-85.5 36.5
zM221 606q-14 22 -36 49.5t-46 53t-42 44.5v13h84q26 -16 55 -38.5t55 -49.5q26 27 56.5 49.5t56.5 38.5h85v-13q-18 -19 -42.5 -44.5t-47 -53t-35.5 -49.5h-143z" />
    <glyph glyph-name="Gcircumflex" unicode="&#x11c;" horiz-adv-x="726" 
d="M378 392h270v-363q-57 -19 -117 -29t-136 -10q-162 0 -249 96t-87 272q0 112 43.5 194t126.5 127t202 45q59 0 113 -12t99 -31l-44 -105q-35 16 -79 28t-92 12q-73 0 -126 -32t-81.5 -90.5t-28.5 -137.5q0 -76 22 -134t70 -91t125 -33q38 0 64.5 4t48.5 9v172h-144v109z
M474 938q13 -22 35.5 -49.5t47 -54t42.5 -44.5v-12h-85q-26 16 -56.5 38.5t-56.5 49.5q-26 -27 -55 -49.5t-55 -38.5h-84v12q18 19 42 45t46 53.5t36 49.5h143z" />
    <glyph glyph-name="gcircumflex" unicode="&#x11d;" horiz-adv-x="626" 
d="M263 552q105 0 161 -80h5l12 70h105v-546q0 -116 -65 -176t-196 -60q-58 0 -107 7.5t-93 25.5v104q46 -20 98.5 -31t109.5 -11q61 0 94 34.5t33 100.5v14q0 15 1 35t3 32h-4q-28 -42 -68.5 -61.5t-91.5 -19.5q-99 0 -155 74t-56 206t56.5 207t157.5 75zM296 449
q-118 0 -118 -181q0 -178 120 -178q66 0 97.5 36.5t31.5 123.5v19q0 96 -31.5 138t-99.5 42zM380 766q13 -22 35.5 -49.5t47 -54t42.5 -44.5v-12h-85q-26 16 -56.5 38.5t-56.5 49.5q-26 -27 -55 -49.5t-55 -38.5h-84v12q18 19 42 45t46 53.5t36 49.5h143z" />
    <glyph glyph-name="Gbreve" unicode="&#x11e;" horiz-adv-x="726" 
d="M378 392h270v-363q-57 -19 -117 -29t-136 -10q-162 0 -249 96t-87 272q0 112 43.5 194t126.5 127t202 45q59 0 113 -12t99 -31l-44 -105q-35 16 -79 28t-92 12q-73 0 -126 -32t-81.5 -90.5t-28.5 -137.5q0 -76 22 -134t70 -91t125 -33q38 0 64.5 4t48.5 9v172h-144v109z
M583 931q-5 -67 -53 -110t-127 -43q-82 0 -127 41.5t-49 111.5h72q4 -41 33 -51t72 -10q25 0 48 4.5t39 17.5t19 39h73z" />
    <glyph glyph-name="gbreve" unicode="&#x11f;" horiz-adv-x="626" 
d="M263 552q105 0 161 -80h5l12 70h105v-546q0 -116 -65 -176t-196 -60q-58 0 -107 7.5t-93 25.5v104q46 -20 98.5 -31t109.5 -11q61 0 94 34.5t33 100.5v14q0 15 1 35t3 32h-4q-28 -42 -68.5 -61.5t-91.5 -19.5q-99 0 -155 74t-56 206t56.5 207t157.5 75zM296 449
q-118 0 -118 -181q0 -178 120 -178q66 0 97.5 36.5t31.5 123.5v19q0 96 -31.5 138t-99.5 42zM489 759q-5 -67 -53 -110t-127 -43q-82 0 -127 41.5t-49 111.5h72q4 -41 33 -51t72 -10q25 0 48 4.5t39 17.5t19 39h73z" />
    <glyph glyph-name="Gdot" unicode="&#x120;" horiz-adv-x="726" 
d="M378 392h270v-363q-57 -19 -117 -29t-136 -10q-162 0 -249 96t-87 272q0 112 43.5 194t126.5 127t202 45q59 0 113 -12t99 -31l-44 -105q-35 16 -79 28t-92 12q-73 0 -126 -32t-81.5 -90.5t-28.5 -137.5q0 -76 22 -134t70 -91t125 -33q38 0 64.5 4t48.5 9v172h-144v109z
M404 923q28 0 49 -14.5t21 -51.5t-21 -52t-49 -15q-29 0 -49.5 15t-20.5 52t20.5 51.5t49.5 14.5z" />
    <glyph glyph-name="gdot" unicode="&#x121;" horiz-adv-x="626" 
d="M263 552q105 0 161 -80h5l12 70h105v-546q0 -116 -65 -176t-196 -60q-58 0 -107 7.5t-93 25.5v104q46 -20 98.5 -31t109.5 -11q61 0 94 34.5t33 100.5v14q0 15 1 35t3 32h-4q-28 -42 -68.5 -61.5t-91.5 -19.5q-99 0 -155 74t-56 206t56.5 207t157.5 75zM296 449
q-118 0 -118 -181q0 -178 120 -178q66 0 97.5 36.5t31.5 123.5v19q0 96 -31.5 138t-99.5 42zM310 751q28 0 49 -14.5t21 -51.5t-21 -52t-49 -15q-29 0 -49.5 15t-20.5 52t20.5 51.5t49.5 14.5z" />
    <glyph glyph-name="uni0122" unicode="&#x122;" horiz-adv-x="726" 
d="M378 392h270v-363q-57 -19 -117 -29t-136 -10q-162 0 -249 96t-87 272q0 112 43.5 194t126.5 127t202 45q59 0 113 -12t99 -31l-44 -105q-35 16 -79 28t-92 12q-73 0 -126 -32t-81.5 -90.5t-28.5 -137.5q0 -76 22 -134t70 -91t125 -33q38 0 64.5 4t48.5 9v172h-144v109z
M471 -61v-10q-12 -31 -33.5 -72t-47.5 -78h-72v13q6 18 13 44.5t13 54t8 48.5h119z" />
    <glyph glyph-name="uni0123" unicode="&#x123;" horiz-adv-x="626" 
d="M263 552q105 0 161 -80h5l12 70h105v-546q0 -116 -65 -176t-196 -60q-58 0 -107 7.5t-93 25.5v104q46 -20 98.5 -31t109.5 -11q61 0 94 34.5t33 100.5v14q0 15 1 35t3 32h-4q-28 -42 -68.5 -61.5t-91.5 -19.5q-99 0 -155 74t-56 206t56.5 207t157.5 75zM296 449
q-118 0 -118 -181q0 -178 120 -178q66 0 97.5 36.5t31.5 123.5v19q0 96 -31.5 138t-99.5 42zM381 766v-13q-7 -19 -14 -45t-13 -53t-8 -49h-119v10q13 31 34 71.5t47 78.5h73z" />
    <glyph glyph-name="Hcircumflex" unicode="&#x124;" horiz-adv-x="756" 
d="M663 0h-128v317h-314v-317h-128v714h128v-288h314v288h128v-714zM451 938q13 -22 35.5 -49.5t47 -54t42.5 -44.5v-12h-85q-26 16 -56.5 38.5t-56.5 49.5q-26 -27 -55 -49.5t-55 -38.5h-84v12q18 19 42 45t46 53.5t36 49.5h143z" />
    <glyph glyph-name="hcircumflex" unicode="&#x125;" horiz-adv-x="642" 
d="M207 760v-181q0 -32 -2.5 -62.5t-4.5 -45.5h8q26 41 68 61t93 20q92 0 144 -47.5t52 -151.5v-353h-126v328q0 61 -24 91.5t-76 30.5q-76 0 -104 -48t-28 -137v-265h-126v760h126zM218 984q13 -22 35.5 -49.5t47 -54t42.5 -44.5v-12h-85q-26 16 -56.5 38.5t-56.5 49.5
q-26 -27 -55 -49.5t-55 -38.5h-84v12q18 19 42 45t46 53.5t36 49.5h143z" />
    <glyph glyph-name="Hbar" unicode="&#x126;" horiz-adv-x="756" 
d="M93 0v522h-93v88h93v104h128v-104h314v104h128v-104h93v-88h-93v-522h-128v317h-314v-317h-128zM221 426h314v96h-314v-96z" />
    <glyph glyph-name="hbar" unicode="&#x127;" horiz-adv-x="642" 
d="M207 760v-83h176v-85h-176v-39q0 -32 -2.5 -62.5t-4.5 -45.5h8q26 41 68 61t94 20q92 0 143.5 -47.5t51.5 -151.5v-327h-126v302q0 61 -24 91.5t-76 30.5q-76 0 -104 -48t-28 -137v-239h-126v592h-76v85h76v83h126z" />
    <glyph glyph-name="Itilde" unicode="&#x128;" horiz-adv-x="370" 
d="M335 0h-300v73l86 32v503l-86 33v73h300v-73l-86 -33v-503l86 -32v-73zM-10 777q6 71 40 107t84 36q28 0 54 -13.5t50 -27t47 -13.5q39 0 51 55h65q-6 -71 -40.5 -107t-83.5 -36q-27 0 -53 13.5t-50.5 27t-47.5 13.5q-39 0 -51 -55h-65z" />
    <glyph glyph-name="itilde" unicode="&#x129;" horiz-adv-x="287" 
d="M207 0h-126v542h126v-542zM-52 605q6 71 40 107t84 36q28 0 54 -13.5t50 -27t47 -13.5q39 0 51 55h65q-6 -71 -40.5 -107t-83.5 -36q-27 0 -53 13.5t-50.5 27t-47.5 13.5q-39 0 -51 -55h-65z" />
    <glyph glyph-name="Imacron" unicode="&#x12a;" horiz-adv-x="370" 
d="M335 0h-300v73l86 32v503l-86 33v73h300v-73l-86 -33v-503l86 -32v-73zM345 869v-91h-318v91h318z" />
    <glyph glyph-name="imacron" unicode="&#x12b;" horiz-adv-x="287" 
d="M207 0h-126v542h126v-542zM303 697v-91h-318v91h318z" />
    <glyph glyph-name="Ibreve" unicode="&#x12c;" horiz-adv-x="370" 
d="M335 0h-300v73l86 32v503l-86 33v73h300v-73l-86 -33v-503l86 -32v-73zM367 931q-5 -67 -53 -110t-127 -43q-82 0 -127 41.5t-49 111.5h72q4 -41 33 -51t72 -10q25 0 48 4.5t39 17.5t19 39h73z" />
    <glyph glyph-name="ibreve" unicode="&#x12d;" horiz-adv-x="287" 
d="M207 0h-126v542h126v-542zM325 759q-5 -67 -53 -110t-127 -43q-82 0 -127 41.5t-49 111.5h72q4 -41 33 -51t72 -10q25 0 48 4.5t39 17.5t19 39h73z" />
    <glyph glyph-name="Iogonek" unicode="&#x12e;" horiz-adv-x="370" 
d="M335 0h-300v73l86 32v503l-86 33v73h300v-73l-86 -33v-503l86 -32v-73zM236 -113q0 -21 11.5 -31.5t30.5 -10.5q16 0 29.5 3t23.5 5v-75q-16 -4 -32 -7t-39 -3q-55 0 -85 28.5t-30 76.5q0 43 31.5 81.5t71.5 61.5l59 -16q-34 -32 -52.5 -58.5t-18.5 -54.5z" />
    <glyph glyph-name="iogonek" unicode="&#x12f;" horiz-adv-x="287" 
d="M144 751q28 0 49 -14.5t21 -51.5t-21 -52t-49 -15q-29 0 -49.5 15t-20.5 52t20.5 51.5t49.5 14.5zM207 542v-542h-126v542h126zM129 -113q0 -21 11.5 -31.5t30.5 -10.5q16 0 29.5 3t23.5 5v-75q-16 -4 -32 -7t-39 -3q-55 0 -85 28.5t-30 76.5q0 43 31.5 81.5t71.5 61.5
l59 -16q-34 -32 -52.5 -58.5t-18.5 -54.5z" />
    <glyph glyph-name="Idotaccent" unicode="&#x130;" horiz-adv-x="370" 
d="M335 0h-300v73l86 32v503l-86 33v73h300v-73l-86 -33v-503l86 -32v-73zM188 923q28 0 49 -14.5t21 -51.5t-21 -52t-49 -15q-29 0 -49.5 15t-20.5 52t20.5 51.5t49.5 14.5z" />
    <glyph glyph-name="dotlessi" unicode="&#x131;" horiz-adv-x="287" 
d="M207 0h-126v542h126v-542z" />
    <glyph glyph-name="IJ" unicode="&#x132;" horiz-adv-x="679" 
d="M335 0h-300v73l86 32v503l-86 33v73h300v-73l-86 -33v-503l86 -32v-73zM378 -202q-28 0 -48.5 3t-35.5 8v107q16 -4 34 -7t38 -3q26 0 47.5 10t34.5 37t13 77v684h128v-681q0 -125 -58.5 -180t-152.5 -55z" />
    <glyph glyph-name="ij" unicode="&#x133;" horiz-adv-x="575" 
d="M144 751q28 0 49 -14.5t21 -51.5t-21 -52t-49 -15q-29 0 -49.5 15t-20.5 52t20.5 51.5t49.5 14.5zM207 542v-542h-126v542h126zM361 685q0 37 20.5 51.5t49.5 14.5q28 0 49 -14.5t21 -51.5t-21 -52t-49 -15q-29 0 -49.5 15t-20.5 52zM316 -240q-25 0 -49 3.5t-41 8.5v100
q17 -4 33 -7t36 -3q31 0 52 17t21 67v596h126v-609q0 -75 -41.5 -124t-136.5 -49z" />
    <glyph glyph-name="Jcircumflex" unicode="&#x134;" horiz-adv-x="309" 
d="M8 -202q-28 0 -48.5 3t-35.5 8v107q16 -4 34 -7t38 -3q26 0 47.5 10t34.5 37t13 77v684h128v-681q0 -125 -58.5 -180t-152.5 -55zM228 938q13 -22 35.5 -49.5t47 -54t42.5 -44.5v-12h-85q-26 16 -56.5 38.5t-56.5 49.5q-26 -27 -55 -49.5t-55 -38.5h-84v12q18 19 42 45
t46 53.5t36 49.5h143z" />
    <glyph glyph-name="jcircumflex" unicode="&#x135;" horiz-adv-x="287" 
d="M29 -240q-25 0 -49 3.5t-41 8.5v100q17 -4 33 -7t36 -3q31 0 52 17t21 67v596h126v-609q0 -75 -41.5 -124t-136.5 -49zM217 766q13 -22 35.5 -49.5t47 -54t42.5 -44.5v-12h-85q-26 16 -56.5 38.5t-56.5 49.5q-26 -27 -55 -49.5t-55 -38.5h-84v12q18 19 42 45t46 53.5
t36 49.5h143z" />
    <glyph glyph-name="uni0136" unicode="&#x136;" horiz-adv-x="647" 
d="M647 0h-147l-212 316l-67 -53v-263h-128v714h128v-336q20 26 41 51.5t42 51.5l193 233h145l-262 -314zM418 -61v-10q-12 -31 -33.5 -72t-47.5 -78h-72v13q6 18 13 44.5t13 54t8 48.5h119z" />
    <glyph glyph-name="uni0137" unicode="&#x137;" horiz-adv-x="588" 
d="M206 760v-361q0 -25 -2 -54.5t-4 -55.5h3q13 18 30 41t34 41l160 171h143l-217 -234l231 -308h-147l-168 232l-63 -52v-180h-125v760h125zM370 -61v-10q-12 -31 -33.5 -72t-47.5 -78h-72v13q6 18 13 44.5t13 54t8 48.5h119z" />
    <glyph glyph-name="kgreenlandic" unicode="&#x138;" horiz-adv-x="588" 
d="M570 542l-210 -245l224 -297h-145l-162 221l-68 -48v-173h-128v542h128v-141q-1 -34 -2 -67t-3 -59h2q14 18 29 36t29 35l167 196h139z" />
    <glyph glyph-name="Lacute" unicode="&#x139;" horiz-adv-x="550" 
d="M93 0v714h128v-606h298v-108h-426zM327 938v-10q-17 -18 -47 -47t-63 -57t-57 -46h-84v13q16 19 36 44.5t39 53t32 49.5h144z" />
    <glyph glyph-name="lacute" unicode="&#x13a;" horiz-adv-x="287" 
d="M207 0h-126v760h126v-760zM316 984v-10q-17 -18 -47 -47t-63 -57t-57 -46h-84v13q16 19 36 44.5t39 53t32 49.5h144z" />
    <glyph glyph-name="uni013B" unicode="&#x13b;" horiz-adv-x="550" 
d="M93 0v714h128v-606h298v-108h-426zM382 -61v-10q-12 -31 -33.5 -72t-47.5 -78h-72v13q6 18 13 44.5t13 54t8 48.5h119z" />
    <glyph glyph-name="uni013C" unicode="&#x13c;" horiz-adv-x="287" 
d="M207 0h-126v760h126v-760zM220 -61v-10q-12 -31 -33.5 -72t-47.5 -78h-72v13q6 18 13 44.5t13 54t8 48.5h119z" />
    <glyph glyph-name="Lcaron" unicode="&#x13d;" horiz-adv-x="550" 
d="M93 0v714h128v-606h298v-108h-426zM536 714v-10q-12 -31 -32.5 -71.5t-45.5 -78.5h-72v13q9 29 18 72t13 75h119z" />
    <glyph glyph-name="lcaron" unicode="&#x13e;" horiz-adv-x="287" 
d="M207 0h-126v760h126v-760zM390 760v-10q-12 -31 -32.5 -71.5t-45.5 -78.5h-72v13q9 29 18 72t13 75h119z" />
    <glyph glyph-name="Ldot" unicode="&#x13f;" horiz-adv-x="550" 
d="M93 0v714h128v-606h298v-108h-426zM418 445q28 0 49 -14.5t21 -51.5t-21 -52t-49 -15q-29 0 -49.5 15t-20.5 52t20.5 51.5t49.5 14.5z" />
    <glyph glyph-name="ldot" unicode="&#x140;" horiz-adv-x="327" 
d="M207 0h-126v760h126v-760zM307 445q28 0 49 -14.5t21 -51.5t-21 -52t-49 -15q-29 0 -49.5 15t-20.5 52t20.5 51.5t49.5 14.5z" />
    <glyph glyph-name="Lslash" unicode="&#x141;" horiz-adv-x="550" 
d="M93 0v243l-40 -23l-47 82l87 53v359h128v-282l95 57l49 -83l-144 -86v-212h298v-108h-426z" />
    <glyph glyph-name="lslash" unicode="&#x142;" horiz-adv-x="287" 
d="M78 0v253l-41 -26l-48 83l89 55v395h126v-317l45 30l50 -82l-95 -60v-331h-126z" />
    <glyph glyph-name="Nacute" unicode="&#x143;" horiz-adv-x="793" 
d="M700 0h-159l-338 560h-4q2 -45 4.5 -96.5t4.5 -103.5v-360h-115v714h158l337 -556h3q-1 40 -3.5 92t-3.5 101v363h116v-714zM569 938v-10q-17 -18 -47 -47t-63 -57t-57 -46h-84v13q16 19 36 44.5t39 53t32 49.5h144z" />
    <glyph glyph-name="nacute" unicode="&#x144;" horiz-adv-x="642" 
d="M371 552q91 0 142.5 -47t51.5 -152v-353h-126v328q0 61 -24 91.5t-76 30.5q-76 0 -104 -48t-28 -137v-265h-126v542h97l18 -71h7q26 42 71.5 61.5t96.5 19.5zM494 766v-10q-17 -18 -47 -47t-63 -57t-57 -46h-84v13q16 19 36 44.5t39 53t32 49.5h144z" />
    <glyph glyph-name="uni0145" unicode="&#x145;" horiz-adv-x="793" 
d="M700 0h-159l-338 560h-4q2 -45 4.5 -96.5t4.5 -103.5v-360h-115v714h158l337 -556h3q-1 40 -3.5 92t-3.5 101v363h116v-714zM473 -61v-10q-12 -31 -33.5 -72t-47.5 -78h-72v13q6 18 13 44.5t13 54t8 48.5h119z" />
    <glyph glyph-name="uni0146" unicode="&#x146;" horiz-adv-x="642" 
d="M371 552q91 0 142.5 -47t51.5 -152v-353h-126v328q0 61 -24 91.5t-76 30.5q-76 0 -104 -48t-28 -137v-265h-126v542h97l18 -71h7q26 42 71.5 61.5t96.5 19.5zM398 -61v-10q-12 -31 -33.5 -72t-47.5 -78h-72v13q6 18 13 44.5t13 54t8 48.5h119z" />
    <glyph glyph-name="Ncaron" unicode="&#x147;" horiz-adv-x="793" 
d="M700 0h-159l-338 560h-4q2 -45 4.5 -96.5t4.5 -103.5v-360h-115v714h158l337 -556h3q-1 40 -3.5 92t-3.5 101v363h116v-714zM326 778q-14 22 -36 49.5t-46 53t-42 44.5v13h84q26 -16 55 -38.5t55 -49.5q26 27 56.5 49.5t56.5 38.5h85v-13q-18 -19 -42.5 -44.5t-47 -53
t-35.5 -49.5h-143z" />
    <glyph glyph-name="ncaron" unicode="&#x148;" horiz-adv-x="642" 
d="M371 552q91 0 142.5 -47t51.5 -152v-353h-126v328q0 61 -24 91.5t-76 30.5q-76 0 -104 -48t-28 -137v-265h-126v542h97l18 -71h7q26 42 71.5 61.5t96.5 19.5zM251 606q-14 22 -36 49.5t-46 53t-42 44.5v13h84q26 -16 55 -38.5t55 -49.5q26 27 56.5 49.5t56.5 38.5h85v-13
q-18 -19 -42.5 -44.5t-47 -53t-35.5 -49.5h-143z" />
    <glyph glyph-name="napostrophe" unicode="&#x149;" horiz-adv-x="739" 
d="M468 552q91 0 142.5 -47t51.5 -152v-353h-126v328q0 61 -24 91.5t-76 30.5q-76 0 -104 -48t-28 -137v-265h-126v542h97l18 -71h7q26 42 71.5 61.5t96.5 19.5zM172 714l7 -11q-13 -53 -37 -116.5t-49 -117.5h-91q14 58 28 125.5t21 119.5h121z" />
    <glyph glyph-name="Eng" unicode="&#x14a;" horiz-adv-x="793" 
d="M488 -202q-29 0 -51 3t-37 8v102q16 -4 36 -7t43 -3q49 0 77 22.5t30 77.5l-383 559h-4q1 -6 2.5 -28t3 -53t2.5 -64t1 -60v-355h-115v714h158l337 -490h3q-1 6 -2 27.5t-2 51.5t-2 61.5t-1 57.5v292h116v-712q0 -106 -58 -155t-154 -49z" />
    <glyph glyph-name="eng" unicode="&#x14b;" horiz-adv-x="642" 
d="M401 -240q-24 0 -46 3.5t-37 8.5v100q14 -4 28 -7t31 -3q26 0 44 17t18 67v389q0 115 -99 115q-76 0 -104.5 -47.5t-28.5 -137.5v-265h-126v542h97l18 -71h8q26 42 71 61.5t96 19.5q91 0 142.5 -47t51.5 -151v-421q0 -75 -38 -124t-126 -49z" />
    <glyph glyph-name="Omacron" unicode="&#x14c;" horiz-adv-x="790" 
d="M731 358q0 -111 -36.5 -193.5t-111.5 -128.5t-188 -46q-115 0 -189 46t-110.5 129t-36.5 194q0 110 36.5 192.5t111 128t189.5 45.5q113 0 187.5 -45.5t111 -128t36.5 -193.5zM194 358q0 -121 48.5 -190t152.5 -69q107 0 154 69t47 190t-47 190t-153 69
q-105 0 -153.5 -69t-48.5 -190zM554 869v-91h-318v91h318z" />
    <glyph glyph-name="omacron" unicode="&#x14d;" horiz-adv-x="614" 
d="M565 272q0 -135 -70 -208.5t-190 -73.5q-74 0 -132 33t-91 96t-33 153q0 135 69.5 207.5t189.5 72.5q75 0 133 -32.5t91 -95t33 -152.5zM178 272q0 -86 30.5 -133t98.5 -47q67 0 98 47t31 133t-31 132t-99 46t-98 -46t-30 -132zM466 697v-91h-318v91h318z" />
    <glyph glyph-name="Obreve" unicode="&#x14e;" horiz-adv-x="790" 
d="M731 358q0 -111 -36.5 -193.5t-111.5 -128.5t-188 -46q-115 0 -189 46t-110.5 129t-36.5 194q0 110 36.5 192.5t111 128t189.5 45.5q113 0 187.5 -45.5t111 -128t36.5 -193.5zM194 358q0 -121 48.5 -190t152.5 -69q107 0 154 69t47 190t-47 190t-153 69
q-105 0 -153.5 -69t-48.5 -190zM577 931q-5 -67 -53 -110t-127 -43q-82 0 -127 41.5t-49 111.5h72q4 -41 33 -51t72 -10q25 0 48 4.5t39 17.5t19 39h73z" />
    <glyph glyph-name="obreve" unicode="&#x14f;" horiz-adv-x="614" 
d="M565 272q0 -135 -70 -208.5t-190 -73.5q-74 0 -132 33t-91 96t-33 153q0 135 69.5 207.5t189.5 72.5q75 0 133 -32.5t91 -95t33 -152.5zM178 272q0 -86 30.5 -133t98.5 -47q67 0 98 47t31 133t-31 132t-99 46t-98 -46t-30 -132zM489 759q-5 -67 -53 -110t-127 -43
q-82 0 -127 41.5t-49 111.5h72q4 -41 33 -51t72 -10q25 0 48 4.5t39 17.5t19 39h73z" />
    <glyph glyph-name="Ohungarumlaut" unicode="&#x150;" horiz-adv-x="790" 
d="M731 358q0 -111 -36.5 -193.5t-111.5 -128.5t-188 -46q-115 0 -189 46t-110.5 129t-36.5 194q0 110 36.5 192.5t111 128t189.5 45.5q113 0 187.5 -45.5t111 -128t36.5 -193.5zM194 358q0 -121 48.5 -190t152.5 -69q107 0 154 69t47 190t-47 190t-153 69
q-105 0 -153.5 -69t-48.5 -190zM667 938v-10q-8 -13 -25.5 -33t-40 -42t-45.5 -41.5t-41 -33.5h-68v13q14 19 31 45t33.5 53t27.5 49h128zM480 938v-10q-8 -13 -25.5 -33t-40 -42t-45.5 -41.5t-41 -33.5h-68v13q14 19 31 45t33 53t28 49h128z" />
    <glyph glyph-name="ohungarumlaut" unicode="&#x151;" horiz-adv-x="614" 
d="M565 272q0 -135 -70 -208.5t-190 -73.5q-74 0 -132 33t-91 96t-33 153q0 135 69.5 207.5t189.5 72.5q75 0 133 -32.5t91 -95t33 -152.5zM178 272q0 -86 30.5 -133t98.5 -47q67 0 98 47t31 133t-31 132t-99 46t-98 -46t-30 -132zM579 766v-10q-8 -13 -25.5 -33t-40 -42
t-45.5 -41.5t-41 -33.5h-68v13q14 19 31 45t33.5 53t27.5 49h128zM392 766v-10q-8 -13 -25.5 -33t-40 -42t-45.5 -41.5t-41 -33.5h-68v13q14 19 31 45t33 53t28 49h128z" />
    <glyph glyph-name="OE" unicode="&#x152;" horiz-adv-x="956" 
d="M382 725q26 0 54.5 -3t50.5 -8h410v-107h-280v-182h261v-107h-261v-210h280v-108h-409q-22 -4 -51 -7t-54 -3q-111 0 -182.5 46t-106.5 129t-35 194t35 193t106.5 127.5t181.5 45.5zM385 617q-100 0 -146.5 -69t-46.5 -190t46.5 -190t145.5 -69q28 0 57 4.5t49 13.5v481
q-20 9 -48 14t-57 5z" />
    <glyph glyph-name="oe" unicode="&#x153;" horiz-adv-x="966" 
d="M681 552q110 0 174.5 -65t64.5 -181v-64h-361q2 -76 40.5 -115.5t107.5 -39.5q54 0 97 10.5t87 30.5v-101q-41 -19 -84 -28t-104 -9q-65 0 -117 22t-87 67q-33 -44 -83 -66.5t-111 -22.5q-75 0 -133 33t-91 96t-33 153q0 134 68 207t189 73q58 0 107.5 -23t81.5 -66
q66 89 187 89zM682 459q-51 0 -83 -32.5t-37 -96.5h235q0 57 -28 93t-87 36zM304 450q-67 0 -96.5 -45t-29.5 -133t30 -134t97 -46t96.5 45t29.5 134t-30 134t-97 45z" />
    <glyph glyph-name="Racute" unicode="&#x154;" horiz-adv-x="646" 
d="M296 714q141 0 208.5 -52t67.5 -158q0 -52 -19.5 -89t-51 -61.5t-66.5 -39.5l205 -314h-144l-171 282h-104v-282h-128v714h203zM288 607h-67v-220h71q80 0 115 28.5t35 84.5q0 58 -37.5 82.5t-116.5 24.5zM500 938v-10q-17 -18 -47 -47t-63 -57t-57 -46h-84v13
q16 19 36 44.5t39 53t32 49.5h144z" />
    <glyph glyph-name="racute" unicode="&#x155;" horiz-adv-x="439" 
d="M365 552q13 0 29 -1.5t26 -3.5l-11 -117q-10 2 -24.5 3.5t-24.5 1.5q-40 0 -75 -16.5t-56.5 -50.5t-21.5 -87v-281h-126v542h97l18 -94h6q24 43 66 73.5t97 30.5zM421 766v-10q-17 -18 -47 -47t-63 -57t-57 -46h-84v13q16 19 36 44.5t39 53t32 49.5h144z" />
    <glyph glyph-name="uni0156" unicode="&#x156;" horiz-adv-x="646" 
d="M296 714q141 0 208.5 -52t67.5 -158q0 -52 -19.5 -89t-51 -61.5t-66.5 -39.5l205 -314h-144l-171 282h-104v-282h-128v714h203zM288 607h-67v-220h71q80 0 115 28.5t35 84.5q0 58 -37.5 82.5t-116.5 24.5zM423 -61v-10q-12 -31 -33.5 -72t-47.5 -78h-72v13q6 18 13 44.5
t13 54t8 48.5h119z" />
    <glyph glyph-name="uni0157" unicode="&#x157;" horiz-adv-x="439" 
d="M365 552q13 0 29 -1.5t26 -3.5l-11 -117q-10 2 -24.5 3.5t-24.5 1.5q-40 0 -75 -16.5t-56.5 -50.5t-21.5 -87v-281h-126v542h97l18 -94h6q24 43 66 73.5t97 30.5zM221 -61v-10q-12 -31 -33.5 -72t-47.5 -78h-72v13q6 18 13 44.5t13 54t8 48.5h119z" />
    <glyph glyph-name="Rcaron" unicode="&#x158;" horiz-adv-x="646" 
d="M296 714q141 0 208.5 -52t67.5 -158q0 -52 -19.5 -89t-51 -61.5t-66.5 -39.5l205 -314h-144l-171 282h-104v-282h-128v714h203zM288 607h-67v-220h71q80 0 115 28.5t35 84.5q0 58 -37.5 82.5t-116.5 24.5zM257 778q-14 22 -36 49.5t-46 53t-42 44.5v13h84
q26 -16 55 -38.5t55 -49.5q26 27 56.5 49.5t56.5 38.5h85v-13q-18 -19 -42.5 -44.5t-47 -53t-35.5 -49.5h-143z" />
    <glyph glyph-name="rcaron" unicode="&#x159;" horiz-adv-x="439" 
d="M365 552q13 0 29 -1.5t26 -3.5l-11 -117q-10 2 -24.5 3.5t-24.5 1.5q-40 0 -75 -16.5t-56.5 -50.5t-21.5 -87v-281h-126v542h97l18 -94h6q24 43 66 73.5t97 30.5zM178 606q-14 22 -36 49.5t-46 53t-42 44.5v13h84q26 -16 55 -38.5t55 -49.5q26 27 56.5 49.5t56.5 38.5h85
v-13q-18 -19 -42.5 -44.5t-47 -53t-35.5 -49.5h-143z" />
    <glyph glyph-name="Sacute" unicode="&#x15a;" horiz-adv-x="550" 
d="M508 195q0 -95 -69 -150t-191 -55q-118 0 -200 40v120q45 -20 99.5 -36.5t109.5 -16.5q65 0 94.5 25.5t29.5 65.5q0 44 -38 70.5t-111 57.5q-44 18 -84.5 44.5t-66 67t-25.5 101.5q0 91 64.5 143t172.5 52q56 0 106.5 -12t99.5 -34l-41 -103q-45 19 -85.5 30t-83.5 11
q-52 0 -79 -23t-27 -61q0 -29 15 -49.5t46.5 -37.5t81.5 -39q58 -25 98.5 -52.5t62 -65t21.5 -93.5zM457 938v-10q-17 -18 -47 -47t-63 -57t-57 -46h-84v13q16 19 36 44.5t39 53t32 49.5h144z" />
    <glyph glyph-name="sacute" unicode="&#x15b;" horiz-adv-x="490" 
d="M450 157q0 -82 -58.5 -124.5t-167.5 -42.5q-57 0 -97.5 8t-78.5 25v107q40 -19 88.5 -32t91.5 -13q52 0 75 16t23 43q0 16 -9 28.5t-35 27.5t-79 37q-52 21 -86.5 42t-52 50t-17.5 75q0 73 58 110.5t153 37.5q50 0 94.5 -10t89.5 -30l-40 -93q-38 16 -74 27t-74 11
q-83 0 -83 -47q0 -17 10.5 -29t37 -25.5t75.5 -32.5q48 -19 83 -39.5t54 -50t19 -76.5zM418 766v-10q-17 -18 -47 -47t-63 -57t-57 -46h-84v13q16 19 36 44.5t39 53t32 49.5h144z" />
    <glyph glyph-name="Scircumflex" unicode="&#x15c;" horiz-adv-x="550" 
d="M508 195q0 -95 -69 -150t-191 -55q-118 0 -200 40v120q45 -20 99.5 -36.5t109.5 -16.5q65 0 94.5 25.5t29.5 65.5q0 44 -38 70.5t-111 57.5q-44 18 -84.5 44.5t-66 67t-25.5 101.5q0 91 64.5 143t172.5 52q56 0 106.5 -12t99.5 -34l-41 -103q-45 19 -85.5 30t-83.5 11
q-52 0 -79 -23t-27 -61q0 -29 15 -49.5t46.5 -37.5t81.5 -39q58 -25 98.5 -52.5t62 -65t21.5 -93.5zM357 938q13 -22 35.5 -49.5t47 -54t42.5 -44.5v-12h-85q-26 16 -56.5 38.5t-56.5 49.5q-26 -27 -55 -49.5t-55 -38.5h-84v12q18 19 42 45t46 53.5t36 49.5h143z" />
    <glyph glyph-name="scircumflex" unicode="&#x15d;" horiz-adv-x="490" 
d="M450 157q0 -82 -58.5 -124.5t-167.5 -42.5q-57 0 -97.5 8t-78.5 25v107q40 -19 88.5 -32t91.5 -13q52 0 75 16t23 43q0 16 -9 28.5t-35 27.5t-79 37q-52 21 -86.5 42t-52 50t-17.5 75q0 73 58 110.5t153 37.5q50 0 94.5 -10t89.5 -30l-40 -93q-38 16 -74 27t-74 11
q-83 0 -83 -47q0 -17 10.5 -29t37 -25.5t75.5 -32.5q48 -19 83 -39.5t54 -50t19 -76.5zM318 766q13 -22 35.5 -49.5t47 -54t42.5 -44.5v-12h-85q-26 16 -56.5 38.5t-56.5 49.5q-26 -27 -55 -49.5t-55 -38.5h-84v12q18 19 42 45t46 53.5t36 49.5h143z" />
    <glyph glyph-name="Scedilla" unicode="&#x15e;" horiz-adv-x="550" 
d="M508 195q0 -95 -69 -150t-191 -55q-118 0 -200 40v120q45 -20 99.5 -36.5t109.5 -16.5q65 0 94.5 25.5t29.5 65.5q0 44 -38 70.5t-111 57.5q-44 18 -84.5 44.5t-66 67t-25.5 101.5q0 91 64.5 143t172.5 52q56 0 106.5 -12t99.5 -34l-41 -103q-45 19 -85.5 30t-83.5 11
q-52 0 -79 -23t-27 -61q0 -29 15 -49.5t46.5 -37.5t81.5 -39q58 -25 98.5 -52.5t62 -65t21.5 -93.5zM374 -128q0 -53 -34.5 -82.5t-115.5 -29.5q-37 0 -63 8v72q12 -3 30.5 -5.5t33.5 -2.5q22 0 35.5 7.5t13.5 27.5q0 42 -84 54l39 79h81l-18 -39q32 -9 57 -30.5t25 -58.5z
" />
    <glyph glyph-name="scedilla" unicode="&#x15f;" horiz-adv-x="490" 
d="M450 157q0 -82 -58.5 -124.5t-167.5 -42.5q-57 0 -97.5 8t-78.5 25v107q40 -19 88.5 -32t91.5 -13q52 0 75 16t23 43q0 16 -9 28.5t-35 27.5t-79 37q-52 21 -86.5 42t-52 50t-17.5 75q0 73 58 110.5t153 37.5q50 0 94.5 -10t89.5 -30l-40 -93q-38 16 -74 27t-74 11
q-83 0 -83 -47q0 -17 10.5 -29t37 -25.5t75.5 -32.5q48 -19 83 -39.5t54 -50t19 -76.5zM356 -128q0 -53 -34.5 -82.5t-115.5 -29.5q-37 0 -63 8v72q12 -3 30.5 -5.5t33.5 -2.5q22 0 35.5 7.5t13.5 27.5q0 42 -84 54l39 79h81l-18 -39q32 -9 57 -30.5t25 -58.5z" />
    <glyph glyph-name="Scaron" unicode="&#x160;" horiz-adv-x="550" 
d="M508 195q0 -95 -69 -150t-191 -55q-118 0 -200 40v120q45 -20 99.5 -36.5t109.5 -16.5q65 0 94.5 25.5t29.5 65.5q0 44 -38 70.5t-111 57.5q-44 18 -84.5 44.5t-66 67t-25.5 101.5q0 91 64.5 143t172.5 52q56 0 106.5 -12t99.5 -34l-41 -103q-45 19 -85.5 30t-83.5 11
q-52 0 -79 -23t-27 -61q0 -29 15 -49.5t46.5 -37.5t81.5 -39q58 -25 98.5 -52.5t62 -65t21.5 -93.5zM214 778q-14 22 -36 49.5t-46 53t-42 44.5v13h84q26 -16 55 -38.5t55 -49.5q26 27 56.5 49.5t56.5 38.5h85v-13q-18 -19 -42.5 -44.5t-47 -53t-35.5 -49.5h-143z" />
    <glyph glyph-name="scaron" unicode="&#x161;" horiz-adv-x="490" 
d="M450 157q0 -82 -58.5 -124.5t-167.5 -42.5q-57 0 -97.5 8t-78.5 25v107q40 -19 88.5 -32t91.5 -13q52 0 75 16t23 43q0 16 -9 28.5t-35 27.5t-79 37q-52 21 -86.5 42t-52 50t-17.5 75q0 73 58 110.5t153 37.5q50 0 94.5 -10t89.5 -30l-40 -93q-38 16 -74 27t-74 11
q-83 0 -83 -47q0 -17 10.5 -29t37 -25.5t75.5 -32.5q48 -19 83 -39.5t54 -50t19 -76.5zM175 606q-14 22 -36 49.5t-46 53t-42 44.5v13h84q26 -16 55 -38.5t55 -49.5q26 27 56.5 49.5t56.5 38.5h85v-13q-18 -19 -42.5 -44.5t-47 -53t-35.5 -49.5h-143z" />
    <glyph glyph-name="uni0162" unicode="&#x162;" horiz-adv-x="570" 
d="M349 0h-128v606h-205v108h538v-108h-205v-606zM396 -128q0 -53 -34.5 -82.5t-115.5 -29.5q-37 0 -63 8v72q12 -3 30.5 -5.5t33.5 -2.5q22 0 35.5 7.5t13.5 27.5q0 42 -84 54l39 79h81l-18 -39q32 -9 57 -30.5t25 -58.5z" />
    <glyph glyph-name="uni0163" unicode="&#x163;" horiz-adv-x="406" 
d="M291 91q23 0 45.5 4.5t41.5 10.5v-94q-20 -10 -52 -16t-67 -6q-47 0 -84.5 15t-59.5 53t-22 107v282h-73v55l80 44l40 115h79v-119h154v-95h-154v-281q0 -38 20.5 -56.5t51.5 -18.5zM341 -128q0 -53 -34.5 -82.5t-115.5 -29.5q-37 0 -63 8v72q12 -3 30.5 -5.5t33.5 -2.5
q22 0 35.5 7.5t13.5 27.5q0 42 -84 54l39 79h81l-18 -39q32 -9 57 -30.5t25 -58.5z" />
    <glyph glyph-name="Tcaron" unicode="&#x164;" horiz-adv-x="570" 
d="M349 0h-128v606h-205v108h538v-108h-205v-606zM215 778q-14 22 -36 49.5t-46 53t-42 44.5v13h84q26 -16 55 -38.5t55 -49.5q26 27 56.5 49.5t56.5 38.5h85v-13q-18 -19 -42.5 -44.5t-47 -53t-35.5 -49.5h-143z" />
    <glyph glyph-name="tcaron" unicode="&#x165;" horiz-adv-x="406" 
d="M291 91q23 0 45.5 4.5t41.5 10.5v-94q-20 -10 -52 -16t-67 -6q-47 0 -84.5 15t-59.5 53t-22 107v282h-73v55l80 44l40 115h79v-119h154v-95h-154v-281q0 -38 20.5 -56.5t51.5 -18.5zM532 760v-10q-12 -31 -32.5 -71.5t-45.5 -78.5h-72v13q9 29 18 72t13 75h119z" />
    <glyph glyph-name="Tbar" unicode="&#x166;" horiz-adv-x="570" 
d="M221 0v304h-132v105h132v196h-205v109h538v-109h-205v-196h131v-105h-131v-304h-128z" />
    <glyph glyph-name="tbar" unicode="&#x167;" horiz-adv-x="406" 
d="M29 257v85h64v105h-73v55l80 44l40 115h79v-119h154v-95h-154v-105h140v-85h-140v-91q0 -38 20.5 -56.5t51.5 -18.5q23 0 45.5 4.5t41.5 10.5v-94q-20 -10 -52 -16t-67 -6q-47 0 -84.5 15t-59.5 53t-22 107v92h-64z" />
    <glyph glyph-name="Utilde" unicode="&#x168;" horiz-adv-x="747" 
d="M659 714v-462q0 -74 -31.5 -133.5t-95.5 -94t-162 -34.5q-139 0 -211 72.5t-72 191.5v460h128v-447q0 -88 39.5 -128t119.5 -40q83 0 120.5 43.5t37.5 125.5v446h127zM178 777q6 71 40 107t84 36q28 0 54 -13.5t50 -27t47 -13.5q39 0 51 55h65q-6 -71 -40.5 -107
t-83.5 -36q-27 0 -53 13.5t-50.5 27t-47.5 13.5q-39 0 -51 -55h-65z" />
    <glyph glyph-name="utilde" unicode="&#x169;" horiz-adv-x="642" 
d="M562 542v-542h-99l-17 70h-6q-26 -42 -72 -61t-97 -19q-91 0 -142.5 47t-51.5 151v354h126v-329q0 -61 24 -91t76 -30q76 0 104.5 48t28.5 137v265h126zM126 605q6 71 40 107t84 36q28 0 54 -13.5t50 -27t47 -13.5q39 0 51 55h65q-6 -71 -40.5 -107t-83.5 -36
q-27 0 -53 13.5t-50.5 27t-47.5 13.5q-39 0 -51 -55h-65z" />
    <glyph glyph-name="Umacron" unicode="&#x16a;" horiz-adv-x="747" 
d="M659 714v-462q0 -74 -31.5 -133.5t-95.5 -94t-162 -34.5q-139 0 -211 72.5t-72 191.5v460h128v-447q0 -88 39.5 -128t119.5 -40q83 0 120.5 43.5t37.5 125.5v446h127zM533 869v-91h-318v91h318z" />
    <glyph glyph-name="umacron" unicode="&#x16b;" horiz-adv-x="642" 
d="M562 542v-542h-99l-17 70h-6q-26 -42 -72 -61t-97 -19q-91 0 -142.5 47t-51.5 151v354h126v-329q0 -61 24 -91t76 -30q76 0 104.5 48t28.5 137v265h126zM480 697v-91h-318v91h318z" />
    <glyph glyph-name="Ubreve" unicode="&#x16c;" horiz-adv-x="747" 
d="M659 714v-462q0 -74 -31.5 -133.5t-95.5 -94t-162 -34.5q-139 0 -211 72.5t-72 191.5v460h128v-447q0 -88 39.5 -128t119.5 -40q83 0 120.5 43.5t37.5 125.5v446h127zM555 931q-5 -67 -53 -110t-127 -43q-82 0 -127 41.5t-49 111.5h72q4 -41 33 -51t72 -10q25 0 48 4.5
t39 17.5t19 39h73z" />
    <glyph glyph-name="ubreve" unicode="&#x16d;" horiz-adv-x="642" 
d="M562 542v-542h-99l-17 70h-6q-26 -42 -72 -61t-97 -19q-91 0 -142.5 47t-51.5 151v354h126v-329q0 -61 24 -91t76 -30q76 0 104.5 48t28.5 137v265h126zM503 759q-5 -67 -53 -110t-127 -43q-82 0 -127 41.5t-49 111.5h72q4 -41 33 -51t72 -10q25 0 48 4.5t39 17.5t19 39
h73z" />
    <glyph glyph-name="Uring" unicode="&#x16e;" horiz-adv-x="747" 
d="M659 714v-462q0 -74 -31.5 -133.5t-95.5 -94t-162 -34.5q-139 0 -211 72.5t-72 191.5v460h128v-447q0 -88 39.5 -128t119.5 -40q83 0 120.5 43.5t37.5 125.5v446h127zM374 777q-52 0 -84 30t-32 83q0 52 32 81.5t84 29.5q50 0 85 -29.5t35 -80.5q0 -54 -34.5 -84
t-85.5 -30zM374 839q22 0 36.5 13.5t14.5 37.5q0 23 -14.5 36.5t-36.5 13.5q-21 0 -35.5 -13.5t-14.5 -36.5q0 -51 50 -51z" />
    <glyph glyph-name="uring" unicode="&#x16f;" horiz-adv-x="642" 
d="M562 542v-542h-99l-17 70h-6q-26 -42 -72 -61t-97 -19q-91 0 -142.5 47t-51.5 151v354h126v-329q0 -61 24 -91t76 -30q76 0 104.5 48t28.5 137v265h126zM322 605q-52 0 -84 30t-32 83q0 52 32 81.5t84 29.5q50 0 85 -29.5t35 -80.5q0 -54 -34.5 -84t-85.5 -30zM322 667
q22 0 36.5 13.5t14.5 37.5q0 23 -14.5 36.5t-36.5 13.5q-21 0 -35.5 -13.5t-14.5 -36.5q0 -51 50 -51z" />
    <glyph glyph-name="Uhungarumlaut" unicode="&#x170;" horiz-adv-x="747" 
d="M659 714v-462q0 -74 -31.5 -133.5t-95.5 -94t-162 -34.5q-139 0 -211 72.5t-72 191.5v460h128v-447q0 -88 39.5 -128t119.5 -40q83 0 120.5 43.5t37.5 125.5v446h127zM645 938v-10q-8 -13 -25.5 -33t-40 -42t-45.5 -41.5t-41 -33.5h-68v13q14 19 31 45t33.5 53t27.5 49
h128zM458 938v-10q-8 -13 -25.5 -33t-40 -42t-45.5 -41.5t-41 -33.5h-68v13q14 19 31 45t33 53t28 49h128z" />
    <glyph glyph-name="uhungarumlaut" unicode="&#x171;" horiz-adv-x="642" 
d="M562 542v-542h-99l-17 70h-6q-26 -42 -72 -61t-97 -19q-91 0 -142.5 47t-51.5 151v354h126v-329q0 -61 24 -91t76 -30q76 0 104.5 48t28.5 137v265h126zM593 766v-10q-8 -13 -25.5 -33t-40 -42t-45.5 -41.5t-41 -33.5h-68v13q14 19 31 45t33.5 53t27.5 49h128zM406 766
v-10q-8 -13 -25.5 -33t-40 -42t-45.5 -41.5t-41 -33.5h-68v13q14 19 31 45t33 53t28 49h128z" />
    <glyph glyph-name="Uogonek" unicode="&#x172;" horiz-adv-x="747" 
d="M478 -103q0 -27 11.5 -39.5t30.5 -12.5q16 0 29.5 3l22.5 5v-75q-15 -4 -31.5 -7t-39.5 -3q-55 0 -84.5 29.5t-29.5 83.5q0 31 14 60.5t35 53.5q-31 -5 -66 -5q-139 0 -211 72.5t-72 191.5v460h128v-447q0 -88 39.5 -128t119.5 -40q83 0 120.5 43.5t37.5 125.5v446h127
v-462q0 -63 -23 -116.5t-70 -88.5q-46 -47 -67 -82.5t-21 -67.5z" />
    <glyph glyph-name="uogonek" unicode="&#x173;" horiz-adv-x="642" 
d="M562 542v-542h-99l-17 70h-6q-26 -42 -72 -61t-97 -19q-91 0 -142.5 47t-51.5 151v354h126v-329q0 -61 24 -91t76 -30q76 0 104.5 48t28.5 137v265h126zM465 -113q0 -21 11.5 -31.5t30.5 -10.5q16 0 29.5 3t23.5 5v-75q-16 -4 -32 -7t-39 -3q-55 0 -85 28.5t-30 76.5
q0 43 31.5 81.5t71.5 61.5l59 -16q-34 -32 -52.5 -58.5t-18.5 -54.5z" />
    <glyph glyph-name="Wcircumflex" unicode="&#x174;" horiz-adv-x="953" 
d="M948 714l-185 -714h-141l-113 410q-5 20 -12.5 51.5t-14 61t-7.5 44.5q-2 -15 -8 -44.5t-13 -61t-13 -53.5l-110 -408h-142l-184 714h128l98 -407q7 -26 13.5 -59t12.5 -65.5t9 -56.5q3 26 9 58.5t12.5 64t13.5 53.5l112 412h124l114 -413q7 -23 14 -55t13 -64t9 -56
q3 24 9 56.5t13 65t13 59.5l98 407h128zM549 938q13 -22 35.5 -49.5t47 -54t42.5 -44.5v-12h-85q-26 16 -56.5 38.5t-56.5 49.5q-26 -27 -55 -49.5t-55 -38.5h-84v12q18 19 42 45t46 53.5t36 49.5h143z" />
    <glyph glyph-name="wcircumflex" unicode="&#x175;" horiz-adv-x="830" 
d="M525 0l-60 233q-5 18 -12 47t-14.5 60t-13.5 57.5t-9 39.5h-4q-3 -13 -9 -39.5t-13.5 -57.5t-14.5 -60t-12 -48l-63 -232h-138l-152 543h127l67 -259q7 -27 13.5 -60t11.5 -63t7 -49h4q2 18 7.5 49t11.5 60.5t10 44.5l78 277h138l75 -277q4 -18 10.5 -47t11.5 -58t6 -48
h4q2 17 7 46.5t12 63t15 61.5l68 259h125l-154 -543h-140zM487 766q13 -22 35.5 -49.5t47 -54t42.5 -44.5v-12h-85q-26 16 -56.5 38.5t-56.5 49.5q-26 -27 -55 -49.5t-55 -38.5h-84v12q18 19 42 45t46 53.5t36 49.5h143z" />
    <glyph glyph-name="Ycircumflex" unicode="&#x176;" horiz-adv-x="602" 
d="M301 399l163 315h138l-237 -436v-278h-128v273l-237 441h139zM374 938q13 -22 35.5 -49.5t47 -54t42.5 -44.5v-12h-85q-26 16 -56.5 38.5t-56.5 49.5q-26 -27 -55 -49.5t-55 -38.5h-84v12q18 19 42 45t46 53.5t36 49.5h143z" />
    <glyph glyph-name="ycircumflex" unicode="&#x177;" horiz-adv-x="547" 
d="M0 542h137l108 -306q11 -29 18 -57.5t10 -56.5h4q4 26 12 55.5t18 58.5l104 306h136l-231 -614q-31 -81 -84.5 -124.5t-131.5 -43.5q-25 0 -43.5 2.5t-31.5 5.5v100q11 -2 26.5 -4t32.5 -2q46 0 74 27.5t43 68.5l16 44zM346 766q13 -22 35.5 -49.5t47 -54t42.5 -44.5v-12
h-85q-26 16 -56.5 38.5t-56.5 49.5q-26 -27 -55 -49.5t-55 -38.5h-84v12q18 19 42 45t46 53.5t36 49.5h143z" />
    <glyph glyph-name="Ydieresis" unicode="&#x178;" horiz-adv-x="602" 
d="M301 399l163 315h138l-237 -436v-278h-128v273l-237 441h139zM143 856q0 32 17.5 46t42.5 14q24 0 42.5 -14t18.5 -46q0 -30 -18.5 -44.5t-42.5 -14.5q-25 0 -42.5 14.5t-17.5 44.5zM337 856q0 32 17.5 46t42.5 14q24 0 42.5 -14t18.5 -46q0 -30 -18.5 -44.5t-42.5 -14.5
q-25 0 -42.5 14.5t-17.5 44.5z" />
    <glyph glyph-name="Zacute" unicode="&#x179;" horiz-adv-x="576" 
d="M547 0h-518v87l355 519h-345v108h498v-87l-354 -519h364v-108zM465 938v-10q-17 -18 -47 -47t-63 -57t-57 -46h-84v13q16 19 36 44.5t39 53t32 49.5h144z" />
    <glyph glyph-name="zacute" unicode="&#x17a;" horiz-adv-x="481" 
d="M448 0h-416v77l266 369h-251v96h393v-85l-261 -360h269v-97zM413 766v-10q-17 -18 -47 -47t-63 -57t-57 -46h-84v13q16 19 36 44.5t39 53t32 49.5h144z" />
    <glyph glyph-name="Zdotaccent" unicode="&#x17b;" horiz-adv-x="576" 
d="M547 0h-518v87l355 519h-345v108h498v-87l-354 -519h364v-108zM295 923q28 0 49 -14.5t21 -51.5t-21 -52t-49 -15q-29 0 -49.5 15t-20.5 52t20.5 51.5t49.5 14.5z" />
    <glyph glyph-name="zdotaccent" unicode="&#x17c;" horiz-adv-x="481" 
d="M448 0h-416v77l266 369h-251v96h393v-85l-261 -360h269v-97zM243 751q28 0 49 -14.5t21 -51.5t-21 -52t-49 -15q-29 0 -49.5 15t-20.5 52t20.5 51.5t49.5 14.5z" />
    <glyph glyph-name="Zcaron" unicode="&#x17d;" horiz-adv-x="576" 
d="M547 0h-518v87l355 519h-345v108h498v-87l-354 -519h364v-108zM223 778q-14 22 -36 49.5t-46 53t-42 44.5v13h84q26 -16 55 -38.5t55 -49.5q26 27 56.5 49.5t56.5 38.5h85v-13q-18 -19 -42.5 -44.5t-47 -53t-35.5 -49.5h-143z" />
    <glyph glyph-name="zcaron" unicode="&#x17e;" horiz-adv-x="481" 
d="M448 0h-416v77l266 369h-251v96h393v-85l-261 -360h269v-97zM170 606q-14 22 -36 49.5t-46 53t-42 44.5v13h84q26 -16 55 -38.5t55 -49.5q26 27 56.5 49.5t56.5 38.5h85v-13q-18 -19 -42.5 -44.5t-47 -53t-35.5 -49.5h-143z" />
    <glyph glyph-name="longs" unicode="&#x17f;" horiz-adv-x="362" 
d="M278 664q-71 0 -71 -85v-579h-126v583q0 69 23 108.5t64.5 56.5t98.5 17q41 0 71 -6.5t51 -14.5l-30 -94q-17 5 -37 9.5t-44 4.5z" />
    <glyph glyph-name="uni0180" unicode="&#x180;" horiz-adv-x="626" 
d="M363 -10q-61 0 -97.5 22t-58.5 51h-9l-23 -63h-94v592h-76v85h76v83h126v-83h176v-85h-176v-20q0 -30 -2 -57t-4 -50h6q22 34 60 57.5t99 23.5q94 0 152.5 -65.5t58.5 -208.5q0 -140 -59 -211t-155 -71zM332 93q56 0 86 46.5t30 133.5q0 89 -30.5 130t-87.5 41
q-64 0 -93 -41t-30 -126v-5q0 -87 26.5 -133t98.5 -46z" />
    <glyph glyph-name="uni0181" unicode="&#x181;" horiz-adv-x="770" 
d="M199 0v608h-26q-31 0 -46 -15.5t-15 -38.5q0 -17 3.5 -30t6.5 -20h-103q-4 9 -7.5 24.5t-3.5 32.5q0 67 38 110t130 43h239q139 0 210 -40t71 -139q0 -62 -31 -103.5t-89 -52.5v-5q40 -8 71.5 -26t50 -52.5t18.5 -90.5q0 -97 -69 -151t-187 -54h-261zM327 423h104
q76 0 105 24.5t29 70.5q0 48 -35 69t-109 21h-94v-185zM327 107h116q78 0 108.5 30.5t30.5 79.5q0 47 -31 75t-114 28h-110v-213z" />
    <glyph glyph-name="uni0182" unicode="&#x182;" horiz-adv-x="629" 
d="M93 0v714h440v-108h-312v-177h77q103 0 165.5 -27.5t90.5 -75t28 -108.5q0 -104 -66 -161t-215 -57h-208zM221 106h73q79 0 118.5 26.5t39.5 85.5q0 62 -43 83.5t-128 21.5h-60v-217z" />
    <glyph glyph-name="uni0183" unicode="&#x183;" horiz-adv-x="626" 
d="M363 -10q-61 0 -97.5 22t-58.5 51h-9l-23 -63h-94v760h442v-98h-316v-88q0 -33 -2.5 -65.5t-3.5 -43.5h6q22 34 60 57.5t99 23.5q94 0 152.5 -65.5t58.5 -208.5q0 -140 -59 -211t-155 -71zM332 93q56 0 86 46.5t30 133.5q0 89 -30.5 130t-87.5 41q-64 0 -93 -41t-30 -126
v-5q0 -87 26.5 -133t98.5 -46z" />
    <glyph glyph-name="uni0184" unicode="&#x184;" horiz-adv-x="651" 
d="M346 -10q-131 0 -195 55t-64 165v504h128v-285h105q100 0 162.5 -28t92 -77t29.5 -111q0 -101 -64 -162t-194 -61zM343 96q63 0 97 28.5t34 88.5q0 64 -45 87t-126 23h-88v-108q0 -64 31.5 -91.5t96.5 -27.5z" />
    <glyph glyph-name="uni0185" unicode="&#x185;" horiz-adv-x="626" 
d="M330 -10q-118 0 -185 70.5t-67 206.5v493h126v-180q0 -32 -2 -61.5t-4 -47.5h6q22 34 61 57.5t100 23.5q95 0 153.5 -71t58.5 -210q0 -94 -31.5 -156.5t-87 -93.5t-128.5 -31zM329 92q59 0 89 44t30 135q0 90 -30.5 134.5t-87.5 44.5q-69 0 -97.5 -42t-28.5 -125v-18
q0 -88 32 -130.5t93 -42.5z" />
    <glyph glyph-name="uni0186" unicode="&#x186;" horiz-adv-x="635" 
d="M245 -10q-58 0 -101.5 8t-86.5 26v109q47 -16 88.5 -25.5t85.5 -9.5q102 0 157 69t55 191q0 120 -53.5 189t-154.5 69q-44 0 -83.5 -13.5t-73.5 -30.5l-45 105q44 23 99.5 35t117.5 12q108 0 180.5 -45.5t109 -127.5t36.5 -192t-37.5 -193t-111 -129.5t-182.5 -46.5z" />
    <glyph glyph-name="uni0187" unicode="&#x187;" horiz-adv-x="635" 
d="M636 871q21 0 38.5 -4.5t27.5 -9.5v-98q-8 3 -22.5 6.5t-31.5 3.5q-48 0 -48 -53v-44l-44 -100q-38 17 -77.5 30.5t-81.5 13.5q-97 0 -151 -69.5t-54 -190.5q0 -122 50 -190t154 -68q45 0 88.5 9.5t89.5 25.5v-109q-44 -18 -88.5 -26t-102.5 -8q-110 0 -182 45.5
t-107 128t-35 193.5q0 108 39 190.5t114.5 129.5t184.5 47q52 0 100 -12v11q0 74 38 111t101 37z" />
    <glyph glyph-name="uni0188" unicode="&#x188;" horiz-adv-x="510" 
d="M300 -10q-116 0 -183.5 67t-67.5 211q0 100 33.5 162.5t92.5 92t135 29.5q14 0 28 -1.5t28 -3.5v60q0 82 37 120t103 38q21 0 38.5 -4.5t27.5 -9.5v-99q-8 3 -23 6.5t-31 3.5q-49 0 -49 -53v-94l-37 -96q-32 12 -63 20.5t-59 8.5q-132 0 -132 -179q0 -87 33.5 -131
t96.5 -44q45 0 80.5 11t66.5 30v-109q-31 -19 -67 -27.5t-88 -8.5z" />
    <glyph glyph-name="uni0189" unicode="&#x189;" horiz-adv-x="736" 
d="M315 714q110 0 191.5 -40t126 -118t44.5 -192q0 -181 -101.5 -272.5t-282.5 -91.5h-198v300h-69v106h69v308h220zM315 608h-92v-202h140v-106h-140v-193h74q246 0 246 253q0 128 -59.5 188t-168.5 60z" />
    <glyph glyph-name="uni018A" unicode="&#x18a;" horiz-adv-x="842" 
d="M199 0v608h-26q-31 0 -46 -15.5t-15 -38.5q0 -17 3.5 -30t6.5 -20h-103q-5 9 -8.5 24.5t-3.5 32.5q0 67 38.5 110t129.5 43h246q111 0 192 -40t125.5 -118t44.5 -192q0 -181 -100.5 -272.5t-282.5 -91.5h-201zM327 107h77q246 0 246 253q0 128 -59.5 188t-169.5 60h-94
v-501z" />
    <glyph glyph-name="uni018B" unicode="&#x18b;" horiz-adv-x="629" 
d="M325 0q-146 0 -212 55t-66 156q0 61 29.5 110t94 78.5t169.5 29.5h69v177h-313v108h441v-714h-212zM339 106h70v217h-56q-84 0 -129.5 -23t-45.5 -86q0 -58 41 -83t120 -25z" />
    <glyph glyph-name="uni018C" unicode="&#x18c;" horiz-adv-x="626" 
d="M260 -10q-94 0 -152.5 70.5t-58.5 209.5q0 134 59 205t155 71q60 0 98.5 -23t61.5 -57h6q-1 4 -3 21t-4 38.5t-2 38.5v98h-317v98h443v-760h-98l-23 71h-5q-23 -34 -61 -57.5t-99 -23.5zM298 92q70 0 98.5 40t29.5 121v16q0 83 -27.5 128.5t-102.5 45.5
q-58 0 -88.5 -46.5t-30.5 -128.5q0 -86 31 -131t90 -45z" />
    <glyph glyph-name="uni018D" unicode="&#x18d;" horiz-adv-x="613" 
d="M279 -221q-68 0 -119 15.5t-99 38.5l51 91q43 -21 84.5 -35t87.5 -14q42 0 60 16.5t18 39.5q0 30 -32.5 56t-102.5 63q-90 47 -134.5 106.5t-44.5 140.5q0 129 71.5 192t189.5 63q74 0 132 -26t91 -76t33 -122q0 -67 -26.5 -114t-71.5 -77t-101 -46q49 -31 84 -71t35 -95
q0 -71 -57 -108.5t-149 -37.5zM286 143q32 9 66.5 29t58.5 57t24 96q0 54 -33.5 89.5t-93.5 35.5q-62 0 -96.5 -38t-34.5 -108q0 -58 29.5 -96t79.5 -65z" />
    <glyph glyph-name="uni018E" unicode="&#x18e;" horiz-adv-x="558" 
d="M59 0v108h279v210h-261v107h261v182h-279v107h407v-714h-407z" />
    <glyph glyph-name="uni018F" unicode="&#x18f;" horiz-adv-x="788" 
d="M374 617q-56 0 -105.5 -11t-90 -26t-66.5 -28v113q44 22 105.5 41t158.5 19q115 0 193.5 -46t118.5 -129t40 -194q0 -112 -38.5 -194t-112.5 -127t-182 -45q-116 0 -187 46.5t-103.5 131t-32.5 198.5v35h522q-7 101 -60.5 158.5t-159.5 57.5zM395 98q85 0 138 50t60 145
h-387q0 -91 41.5 -143t147.5 -52z" />
    <glyph glyph-name="uni0190" unicode="&#x190;" horiz-adv-x="625" 
d="M325 724q82 0 144 -21t112 -55l-57 -86q-41 26 -87 42.5t-105 16.5q-63 0 -97.5 -24.5t-34.5 -67.5q0 -49 46.5 -78.5t161.5 -29.5h74v-101h-80q-110 0 -168 -26.5t-58 -84.5q0 -55 45 -86t138 -31q53 0 113 13t107 36v-110q-93 -41 -242 -41t-219.5 58t-70.5 151
q0 74 51 119t144 55v3q-74 12 -121.5 52t-47.5 113q0 82 67 132.5t185 50.5z" />
    <glyph glyph-name="uni0191" unicode="&#x191;" horiz-adv-x="538" 
d="M56 -240q-23 0 -41.5 4.5t-29.5 9.5v100q8 -4 21.5 -7t29.5 -3q26 0 41.5 16t15.5 52v782h405v-107h-279v-210h260v-107h-260v-361q0 -89 -43.5 -129t-119.5 -40z" />
    <glyph glyph-name="florin" unicode="&#x192;" horiz-adv-x="572" 
d="M400 724q40 0 69 -7t49 -15l-30 -94q-16 5 -34 10t-40 5q-34 0 -49 -20.5t-15 -61.5v-48h120v-95h-120v-459q0 -83 -41.5 -131t-131.5 -48q-22 0 -44.5 3t-37.5 8v100q15 -4 29 -6.5t31 -2.5q31 0 50 19t19 72v445h-91v60l91 36v50q0 69 21 108.5t60.5 55.5t94.5 16z" />
    <glyph glyph-name="uni0193" unicode="&#x193;" horiz-adv-x="726" 
d="M680 871q21 0 38.5 -4.5t27.5 -9.5v-98q-8 3 -22.5 6.5t-31.5 3.5q-48 0 -48 -53v-41l-45 -99q-35 16 -79 28t-92 12q-73 0 -126 -32t-81.5 -90.5t-28.5 -137.5q0 -76 22 -134t70 -91t125 -33q38 0 64.5 4t48.5 9v172h-144v109h270v-363q-57 -19 -117 -29t-136 -10
q-162 0 -249 96t-87 272q0 112 43.5 194t126.5 127t202 45q57 0 110 -12v12q0 74 38 110.5t101 36.5z" />
    <glyph glyph-name="uni0194" unicode="&#x194;" horiz-adv-x="620" 
d="M306 -240q-63 0 -97 39t-34 101q0 47 18.5 102t47.5 116l-241 596h133l128 -334q11 -31 24.5 -72.5t20.5 -73.5q8 32 21.5 72t26.5 74l133 334h133l-249 -597q32 -64 50 -120t18 -98q0 -59 -34.5 -99t-98.5 -40zM307 -155q16 0 25 13t9 42q0 22 -8.5 56.5t-25.5 68.5
q-19 -35 -26.5 -68.5t-7.5 -54.5q0 -30 9.5 -43.5t24.5 -13.5z" />
    <glyph glyph-name="uni0195" unicode="&#x195;" horiz-adv-x="967" 
d="M656 -10q-117 0 -174.5 50t-57.5 165v123q0 122 -94 122q-69 0 -96 -48t-27 -137v-265h-126v760h126v-180q0 -28 -2 -56t-5 -53h8q26 41 66 61t89 20q86 0 136.5 -48.5t50.5 -153.5v-129q0 -129 106 -129q56 0 82 34t26 111v305h126v-314q0 -124 -58.5 -181t-175.5 -57z
" />
    <glyph glyph-name="uni0196" unicode="&#x196;" horiz-adv-x="382" 
d="M256 -10q-48 0 -86.5 16t-60.5 55t-22 108v545h132v-533q0 -82 69 -82q24 0 45 4.5t39 10.5v-102q-20 -10 -51 -16t-65 -6z" />
    <glyph glyph-name="uni0197" unicode="&#x197;" horiz-adv-x="370" 
d="M335 714v-73l-86 -33v-194h91v-107h-91v-202l86 -32v-73h-300v73l86 32v202h-91v107h91v194l-86 33v73h300z" />
    <glyph glyph-name="uni0198" unicode="&#x198;" horiz-adv-x="647" 
d="M569 723q23 0 39 -3.5t27 -8.5v-101q-7 2 -20.5 4.5t-26.5 2.5q-36 0 -71 -44l-137 -172l267 -401h-147l-210 316l-69 -57v-259h-128v714h128v-341q20 28 42.5 56t42.5 56l97 124q42 55 79 84.5t87 29.5z" />
    <glyph glyph-name="uni0199" unicode="&#x199;" horiz-adv-x="588" 
d="M235 766q23 0 43 -5t30 -9v-99q-8 3 -22 6.5t-31 3.5q-23 0 -36 -13t-13 -43v-208q0 -25 -2 -55t-4 -55h3q11 18 29 41t35 41l160 171h143l-217 -234l231 -308h-147l-168 232l-63 -52v-180h-125v606q0 84 41.5 122t112.5 38z" />
    <glyph glyph-name="uni019A" unicode="&#x19a;" horiz-adv-x="303" 
d="M88 0v325h-76v95h76v340h126v-340h77v-95h-77v-325h-126z" />
    <glyph glyph-name="uni019B" unicode="&#x19b;" horiz-adv-x="587" 
d="M0 0l231 520l-15 41l-103 -30l-22 74l89 27q-15 16 -32.5 22.5t-41.5 6.5q-15 0 -28.5 -2t-23.5 -4v103q14 3 35.5 5.5t39.5 2.5q66 0 105 -24.5t65 -72.5l99 31l23 -76l-91 -27l152 -420q18 -49 34 -65.5t36 -16.5q15 0 32 5v-96q-11 -6 -33.5 -10t-41.5 -4
q-52 0 -79.5 26t-44.5 74l-57 160q-12 34 -24 70.5t-17 60.5h-4q-8 -29 -19.5 -63.5t-24.5 -63.5l-109 -254h-130z" />
    <glyph glyph-name="uni019C" unicode="&#x19c;" horiz-adv-x="1033" 
d="M288 -10q-95 0 -148 50t-53 159v515h128v-488q0 -63 24 -95t76 -32q73 0 103.5 45.5t30.5 130.5v439h128v-488q0 -127 101 -127q76 0 104.5 50t28.5 144v421h129v-714h-98l-18 78h-8q-26 -44 -73 -66t-100 -22q-64 0 -105.5 24t-64.5 70h-6q-28 -46 -74.5 -70t-104.5 -24
z" />
    <glyph glyph-name="uni019D" unicode="&#x19d;" horiz-adv-x="793" 
d="M51 -240q-22 0 -38.5 4.5t-27.5 9.5v100q8 -4 21.5 -7t29.5 -3q26 0 41.5 16t15.5 52v782h158l337 -556h3q0 4 -1.5 25.5t-2.5 51t-2 60.5t-1 56v363h116v-714h-159l-338 560h-4q1 -9 3 -43t4 -77.5t2 -79.5v-431q0 -89 -42 -129t-115 -40z" />
    <glyph glyph-name="uni019E" unicode="&#x19e;" horiz-adv-x="642" 
d="M371 552q91 0 142.5 -47t51.5 -152v-593h-126v568q0 61 -23.5 91.5t-76.5 30.5q-76 0 -104 -48t-28 -137v-265h-126v542h97l18 -71h7q26 42 71.5 61.5t96.5 19.5z" />
    <glyph glyph-name="uni019F" unicode="&#x19f;" horiz-adv-x="791" 
d="M731 358q0 -111 -36.5 -193.5t-111.5 -128.5t-188 -46q-115 0 -189 46t-110.5 129t-36.5 194q0 110 36.5 192.5t111 128t189.5 45.5q113 0 187.5 -45.5t111 -128t36.5 -193.5zM396 617q-92 0 -141 -52.5t-60 -145.5h399q-10 93 -58 145.5t-140 52.5zM395 99q95 0 144 56
t57 156h-402q8 -100 57 -156t144 -56z" />
    <glyph glyph-name="Ohorn" unicode="&#x1a0;" horiz-adv-x="810" 
d="M731 358q0 -111 -36.5 -193.5t-111.5 -128.5t-188 -46q-115 0 -189 46t-110.5 129t-36.5 194q0 110 36.5 192.5t111.5 128t190 45.5q85 0 148.5 -26.5t104.5 -74.5q29 14 40.5 50t11.5 86h127l7 -11q-14 -73 -46 -123.5t-95 -75.5q36 -81 36 -192zM194 358
q0 -121 48 -190t153 -69q107 0 154 69t47 190t-47 190t-153 69t-154 -69t-48 -190z" />
    <glyph glyph-name="ohorn" unicode="&#x1a1;" horiz-adv-x="655" 
d="M565 272q0 -135 -70 -208.5t-190 -73.5q-74 0 -132 33t-91 96t-33 153q0 135 69.5 207.5t189.5 72.5q54 0 101.5 -17.5t80.5 -50.5q42 13 56.5 50.5t14.5 89.5h127l7 -11q-9 -47 -26 -86.5t-48 -68t-84 -43.5q13 -30 20.5 -65.5t7.5 -77.5zM178 272q0 -88 30.5 -134
t98.5 -46t98.5 46t30.5 134t-30.5 133t-99.5 45q-68 0 -98 -45t-30 -133z" />
    <glyph glyph-name="uni01A2" unicode="&#x1a2;" horiz-adv-x="1110" 
d="M707 358q0 -111 -35.5 -194t-107.5 -128.5t-181 -45.5q-111 0 -182.5 46t-106.5 129t-35 194q0 110 35 192.5t107 128t183 45.5q77 0 135 -23.5t98 -66.5q34 41 84.5 65.5t114.5 24.5q96 0 151.5 -54.5t55.5 -174.5v-496h-128v489q0 128 -110 128q-47 0 -75.5 -13.5
t-45.5 -36.5q43 -89 43 -209zM194 358q0 -121 45.5 -190t143.5 -69q100 0 144.5 69t44.5 190t-44.5 190t-143.5 69t-144.5 -69t-45.5 -190z" />
    <glyph glyph-name="uni01A3" unicode="&#x1a3;" horiz-adv-x="897" 
d="M543 272q0 -135 -66.5 -208.5t-181.5 -73.5q-71 0 -127 32.5t-87.5 95t-31.5 154.5q0 135 66.5 207.5t181.5 72.5q55 0 101 -19t79 -57q30 40 71.5 58t90.5 18q85 0 133 -47t48 -152v-593h-126v569q0 121 -89 121q-59 0 -88 -38q26 -58 26 -140zM178 272q0 -86 28 -133
t90 -47t90 47t28 133t-28 132t-90 46t-90 -46t-28 -132z" />
    <glyph glyph-name="uni01A4" unicode="&#x1a4;" horiz-adv-x="725" 
d="M199 0v608h-26q-31 0 -46 -15.5t-15 -38.5q0 -17 3.5 -30t6.5 -20h-103q-5 9 -8.5 24.5t-3.5 32.5q0 67 38.5 110t129.5 43h237q139 0 202.5 -57.5t63.5 -160.5q0 -61 -26 -114t-87.5 -86t-166.5 -33h-71v-263h-128zM327 369h58q78 0 120.5 28.5t42.5 93.5q0 59 -35 88
t-109 29h-77v-239z" />
    <glyph glyph-name="uni01A5" unicode="&#x1a5;" horiz-adv-x="626" 
d="M236 765q22 0 42 -4.5t31 -9.5v-99q-7 3 -22 6.5t-32 3.5q-48 0 -48 -56v-48q0 -20 -2.5 -43t-3.5 -45h6q22 34 60 58t99 24q94 0 152.5 -70.5t58.5 -209.5t-58 -210.5t-153 -71.5q-61 0 -98.5 21t-60.5 50h-6q3 -19 4.5 -40.5t1.5 -41.5v-219h-126v845q0 83 41.5 121.5
t113.5 38.5zM330 450q-67 0 -94.5 -40t-28.5 -121v-16q0 -87 26.5 -133.5t98.5 -46.5q59 0 87.5 48.5t28.5 132.5t-28.5 130t-89.5 46z" />
    <glyph glyph-name="uni01A6" unicode="&#x1a6;" horiz-adv-x="646" 
d="M496 -100l-171 282h-104v-182h-128v714h128v-100h75q141 0 208.5 -52t67.5 -158q0 -52 -19.5 -89t-51 -61.5t-66.5 -39.5l205 -314h-144zM221 287h71q80 0 115 28.5t35 84.5q0 58 -37.5 82.5t-116.5 24.5h-67v-220z" />
    <glyph glyph-name="uni01A7" unicode="&#x1a7;" horiz-adv-x="550" 
d="M277 724q103 0 165.5 -50t62.5 -141q0 -61 -24 -101.5t-65 -67t-92 -46.5q-75 -29 -114.5 -56t-39.5 -73q0 -43 32 -67.5t94 -24.5q55 0 107.5 13.5t98.5 33.5v-111q-40 -19 -94 -31t-117 -12q-120 0 -183.5 53.5t-63.5 148.5q0 82 49.5 130.5t136.5 83.5
q52 20 84.5 37.5t48 38.5t15.5 52q0 38 -27 60t-80 22q-41 0 -81 -11t-84 -30l-39 103q47 21 99 33.5t111 12.5z" />
    <glyph glyph-name="uni01A8" unicode="&#x1a8;" horiz-adv-x="490" 
d="M243 552q91 0 147 -36t56 -110q0 -46 -18 -75.5t-53 -51t-87 -41.5t-79 -35t-36 -28t-9 -29q0 -61 103 -61q42 0 87 11t85 32v-101q-37 -19 -80 -28t-99 -9q-108 0 -163.5 41t-55.5 119q0 69 41.5 106.5t114.5 64.5q49 19 76 31.5t38 25t11 29.5q0 23 -22.5 36.5
t-63.5 13.5q-34 0 -69 -11t-73 -27l-36 93q44 20 91 30t94 10z" />
    <glyph glyph-name="uni01A9" unicode="&#x1a9;" horiz-adv-x="584" 
d="M37 0v102l232 272l-226 239v101h482v-107h-230q-25 0 -57.5 0.5t-55.5 2.5l224 -235l-234 -271q35 2 71 3t72 1h239v-108h-517z" />
    <glyph glyph-name="uni01AA" unicode="&#x1aa;" horiz-adv-x="395" 
d="M131 768q80 0 117.5 -43t37.5 -122v-667q0 -75 70 -75q23 0 46.5 4.5t42.5 10.5v-94q-19 -10 -50 -16t-65 -6q-48 0 -86.5 15t-60.5 53.5t-22 107.5v599h-34q-71 0 -103 33t-32 85q0 29 14.5 55.5t45 43t79.5 16.5zM115 690q-18 0 -27.5 -11t-9.5 -26q0 -20 14 -31.5
t39 -11.5h30v24q0 26 -11.5 41t-34.5 15z" />
    <glyph glyph-name="uni01AB" unicode="&#x1ab;" horiz-adv-x="406" 
d="M246 -240q-22 0 -40.5 4t-32.5 9v92q10 -4 22.5 -6.5t26.5 -2.5q24 0 36.5 12.5t12.5 43.5v78h-16q-45 0 -81.5 15t-58.5 53t-22 107v282h-73v55l80 44l40 115h79v-119h154v-95h-154v-281q0 -38 19.5 -56.5t52.5 -18.5q23 0 45.5 4.5t41.5 10.5v-192q0 -79 -33 -116.5
t-99 -37.5z" />
    <glyph glyph-name="uni01AC" unicode="&#x1ac;" horiz-adv-x="602" 
d="M253 0v606h-80q-31 0 -46 -15t-15 -38q0 -17 3.5 -29.5t6.5 -19.5h-103q-5 9 -8.5 24.5t-3.5 32.5q0 67 38.5 110t129.5 43h411v-108h-205v-606h-128z" />
    <glyph glyph-name="uni01AD" unicode="&#x1ad;" horiz-adv-x="406" 
d="M267 765q26 0 49.5 -5t36.5 -10v-98q-11 3 -32 6.5t-44 3.5q-58 0 -58 -60v-60h154v-95h-154v-281q0 -38 20.5 -56.5t51.5 -18.5q23 0 45.5 4.5t41.5 10.5v-94q-20 -10 -52 -16t-67 -6q-47 0 -84.5 15t-59.5 53t-22 107v282h-73v55l74 40v58q0 86 45.5 125.5t127.5 39.5z
" />
    <glyph glyph-name="uni01AE" unicode="&#x1ae;" horiz-adv-x="570" 
d="M381 -240q-77 0 -118.5 39.5t-41.5 129.5v677h-205v108h538v-108h-205v-674q0 -37 15.5 -52.5t41.5 -15.5q16 0 29 3t22 7v-100q-11 -5 -32 -9.5t-44 -4.5z" />
    <glyph glyph-name="Uhorn" unicode="&#x1af;" horiz-adv-x="845" 
d="M659 714v-94q41 10 57 47.5t16 92.5h127l7 -11q-10 -51 -30.5 -94.5t-62 -73t-114.5 -40.5v-289q0 -74 -30.5 -133.5t-94 -94t-161.5 -34.5q-140 0 -213 72.5t-73 191.5v460h128v-455q0 -82 40.5 -121t120.5 -39q83 0 119.5 42.5t36.5 118.5v454h127z" />
    <glyph glyph-name="uhorn" unicode="&#x1b0;" horiz-adv-x="728" 
d="M762 625l7 -11q-10 -52 -30.5 -96t-61.5 -74t-115 -39v-405h-99l-17 70h-7q-26 -42 -71.5 -61t-95.5 -19q-92 0 -143.5 47t-51.5 151v354h126v-329q0 -61 24 -91t76 -30q76 0 104.5 48t28.5 137v265h126v-58q41 10 57 48t16 93h127z" />
    <glyph glyph-name="uni01B1" unicode="&#x1b1;" horiz-adv-x="784" 
d="M392 98q99 0 150.5 57t51.5 162q0 91 -31 163t-113 122v112h303v-109h-180q68 -45 111 -124.5t43 -184.5q0 -93 -40 -161.5t-115.5 -106.5t-179.5 -38q-105 0 -180 37.5t-115 106.5t-40 163q0 105 43 183.5t112 124.5h-181v109h304v-112q-82 -49 -114 -121.5t-32 -163.5
q0 -105 52.5 -162t150.5 -57z" />
    <glyph glyph-name="uni01B2" unicode="&#x1b2;" horiz-adv-x="747" 
d="M370 -10q-139 0 -211 72.5t-72 191.5v460h128v-447q0 -88 39.5 -128t119.5 -40q83 0 120.5 43.5t37.5 125.5v283q0 37 -16 51t-42 14q-42 0 -74 -18v102q19 10 48.5 17t61.5 7q149 0 149 -153v-319q0 -74 -31.5 -133.5t-95.5 -94t-162 -34.5z" />
    <glyph glyph-name="uni01B3" unicode="&#x1b3;" horiz-adv-x="602" 
d="M71 724q49 0 78 -25t53 -77l102 -222l160 314h138l-235 -436v-278h-128v272l-129 273q-22 47 -37 60t-35 13t-38 -9v101q11 5 30 9.5t41 4.5z" />
    <glyph glyph-name="uni01B4" unicode="&#x1b4;" horiz-adv-x="587" 
d="M513 552q43 0 71 -14v-96q-17 5 -32 5q-20 0 -36 -16.5t-34 -65.5l-159 -433q-29 -80 -81.5 -126t-137.5 -46q-20 0 -39.5 2.5t-32.5 5.5v100q10 -2 26 -4t31 -2q44 0 73 25.5t45 69.5l16 45l-216 540h136l97 -273q11 -31 21.5 -65.5t15.5 -67.5h4q5 23 15.5 58t23.5 72
l62 174q18 51 48 81.5t83 30.5z" />
    <glyph glyph-name="uni01B5" unicode="&#x1b5;" horiz-adv-x="576" 
d="M68 412h184l132 194h-345v108h498v-87l-147 -215h104v-104h-176l-135 -200h364v-108h-518v87l151 221h-112v104z" />
    <glyph glyph-name="uni01B6" unicode="&#x1b6;" horiz-adv-x="481" 
d="M440 542v-85l-98 -135h85v-87h-148l-100 -138h269v-97h-416v77l114 158h-91v87h154l89 124h-251v96h393z" />
    <glyph glyph-name="uni01B7" unicode="&#x1b7;" horiz-adv-x="588" 
d="M512 714v-87l-224 -214q124 -5 189.5 -58t65.5 -149q0 -62 -32 -111t-98.5 -77t-167.5 -28q-60 0 -113.5 9.5t-100.5 29.5v111q48 -23 104.5 -35t104.5 -12q94 0 134 32t40 87q0 53 -50 81t-159 28h-62v93l198 192h-288v108h459z" />
    <glyph glyph-name="uni01B8" unicode="&#x1b8;" horiz-adv-x="588" 
d="M335 -10q-99 0 -163 28t-95.5 77t-31.5 111q0 70 30.5 117t85 72t125.5 30l-210 202v87h459v-108h-288l188 -182v-91h-67q-99 0 -146 -30.5t-47 -88.5q0 -57 41 -89t132 -32q49 0 105 12t105 35v-111q-46 -20 -101 -29.5t-122 -9.5z" />
    <glyph glyph-name="uni01B9" unicode="&#x1b9;" horiz-adv-x="550" 
d="M309 -240q-89 0 -149.5 30t-91.5 83.5t-31 122.5q0 103 61.5 166.5t179.5 77.5l-214 218v84h448v-99h-294l202 -208v-89h-58q-105 0 -151.5 -38t-46.5 -106q0 -60 40 -100t121 -40q50 0 101.5 12.5t94.5 32.5v-108q-41 -19 -92.5 -29t-119.5 -10z" />
    <glyph glyph-name="uni01BA" unicode="&#x1ba;" horiz-adv-x="550" 
d="M241 -240q-88 0 -144.5 34.5t-56.5 107.5q0 40 18 72t59.5 52t112.5 23q75 3 106 21.5t31 64.5q0 44 -39 61.5t-123 17.5h-65v85l162 144h-255v99h424v-84l-181 -151q92 -6 148 -48t56 -125q0 -48 -21 -89.5t-76 -68t-157 -32.5q-46 -2 -67.5 -12t-21.5 -31
q0 -22 26.5 -33.5t75.5 -11.5q59 0 106 12.5t81 25.5v-99q-33 -14 -85.5 -24.5t-113.5 -10.5z" />
    <glyph glyph-name="uni01BB" unicode="&#x1bb;" horiz-adv-x="570" 
d="M265 765q101 0 159.5 -54.5t58.5 -141.5q0 -79 -42 -150h81v-87h-141l-200 -229v-6h343v-97h-489v97l204 235h-182v87h251q26 37 36.5 71.5t10.5 72.5q0 47 -27.5 73t-73.5 26t-81 -20t-69 -51l-64 79q24 22 55.5 43.5t73.5 36.5t96 15z" />
    <glyph glyph-name="uni01BC" unicode="&#x1bc;" horiz-adv-x="580" 
d="M234 -10q-57 0 -110 9.5t-93 29.5v112q41 -21 97 -33.5t103 -12.5q81 0 127.5 30.5t46.5 95.5q0 64 -42.5 93.5t-115.5 29.5h-126v261h-91v109h481v-109h-263v-155h32q75 0 132.5 -26.5t90 -76t32.5 -120.5q0 -108 -74.5 -172.5t-226.5 -64.5z" />
    <glyph glyph-name="uni01BD" unicode="&#x1bd;" horiz-adv-x="530" 
d="M227 -10q-55 0 -106.5 9t-84.5 25v107q34 -17 85 -29.5t101 -12.5q64 0 104.5 18.5t40.5 62.5q0 41 -39.5 59.5t-111.5 18.5h-93v197h-79v97h422v-97h-226v-105h21q110 0 169.5 -41t59.5 -125q0 -80 -64 -132t-199 -52z" />
    <glyph glyph-name="uni01BE" unicode="&#x1be;" horiz-adv-x="484" 
d="M218 -10q-53 0 -101.5 9t-80.5 25v107q32 -17 80.5 -31.5t93.5 -14.5q58 0 84.5 16.5t26.5 46.5q0 28 -23 43t-67 37q-29 16 -51 34t-34.5 48t-12.5 78v59h-94v55l96 44l39 115h79v-119h145v-95h-145v-57q0 -31 10.5 -44.5t35.5 -26.5q40 -20 73 -40t52.5 -49.5
t19.5 -75.5q0 -74 -55 -119t-171 -45z" />
    <glyph glyph-name="uni01BF" unicode="&#x1bf;" horiz-adv-x="616" 
d="M363 552q61 0 107.5 -29t73 -83t26.5 -129q0 -85 -40.5 -154.5t-121 -115t-201.5 -57.5v-224h-126v782h102l18 -72h6q22 34 59 58t97 24zM326 450q-65 0 -92 -41t-27 -122v-196q107 13 170.5 71.5t63.5 149.5q0 61 -29.5 99.5t-85.5 38.5z" />
    <glyph glyph-name="uni01C0" unicode="&#x1c0;" horiz-adv-x="308" 
d="M106 0v760h96v-760h-96z" />
    <glyph glyph-name="uni01C1" unicode="&#x1c1;" horiz-adv-x="553" 
d="M106 0v760h96v-760h-96zM351 0v760h96v-760h-96z" />
    <glyph glyph-name="uni01C2" unicode="&#x1c2;" horiz-adv-x="516" 
d="M306 760v-238h154v-88h-154v-89h154v-88h-154v-257h-96v257h-154v88h154v89h-154v88h154v238h96z" />
    <glyph glyph-name="uni01C3" unicode="&#x1c3;" horiz-adv-x="280" 
d="M188 223h-96l-25 491h146zM63 64q0 42 22.5 59.5t54.5 17.5q31 0 53.5 -17.5t22.5 -59.5q0 -41 -22.5 -59t-53.5 -18q-32 0 -54.5 18t-22.5 59z" />
    <glyph glyph-name="uni01C4" unicode="&#x1c4;" horiz-adv-x="1303" 
d="M677 364q0 -181 -101 -272.5t-282 -91.5h-201v714h222q111 0 192 -40t125.5 -118t44.5 -192zM543 360q0 128 -59 188t-169 60h-94v-501h77q245 0 245 253zM1273 0h-518v87l355 519h-345v108h498v-87l-354 -519h364v-108zM949 778q-14 22 -36 49.5t-46 53t-42 44.5v13h84
q26 -16 55 -38.5t55 -49.5q26 27 56.5 49.5t56.5 38.5h85v-13q-18 -19 -42.5 -44.5t-47 -53t-35.5 -49.5h-143z" />
    <glyph glyph-name="uni01C5" unicode="&#x1c5;" horiz-adv-x="1217" 
d="M677 364q0 -181 -101 -272.5t-282 -91.5h-201v714h222q111 0 192 -40t125.5 -118t44.5 -192zM543 360q0 128 -59 188t-169 60h-94v-501h77q245 0 245 253zM1184 0h-416v77l266 369h-251v96h393v-85l-261 -360h269v-97zM906 606q-14 22 -36 49.5t-46 53t-42 44.5v13h84
q26 -16 55 -38.5t55 -49.5q26 27 56.5 49.5t56.5 38.5h85v-13q-18 -19 -42.5 -44.5t-47 -53t-35.5 -49.5h-143z" />
    <glyph glyph-name="uni01C6" unicode="&#x1c6;" horiz-adv-x="1107" 
d="M260 -10q-94 0 -152.5 70.5t-58.5 209.5q0 140 59 211t155 71q60 0 98.5 -23t61.5 -56h6q-3 14 -6 42.5t-3 54.5v190h126v-760h-98l-23 71h-5q-23 -34 -61 -57.5t-99 -23.5zM298 92q70 0 98.5 40t29.5 121v16q0 87 -27.5 133.5t-102.5 46.5q-58 0 -88.5 -47.5
t-30.5 -133.5t31 -131t90 -45zM1074 0h-416v77l266 369h-251v96h393v-85l-261 -360h269v-97zM796 606q-14 22 -36 49.5t-46 53t-42 44.5v13h84q26 -16 55 -38.5t55 -49.5q26 27 56.5 49.5t56.5 38.5h85v-13q-18 -19 -42.5 -44.5t-47 -53t-35.5 -49.5h-143z" />
    <glyph glyph-name="uni01C7" unicode="&#x1c7;" horiz-adv-x="859" 
d="M93 0v714h128v-606h298v-108h-426zM558 -202q-28 0 -48.5 3t-35.5 8v107q16 -4 34 -7t38 -3q26 0 47.5 10t34.5 37t13 77v684h128v-681q0 -125 -58.5 -180t-152.5 -55z" />
    <glyph glyph-name="uni01C8" unicode="&#x1c8;" horiz-adv-x="837" 
d="M93 0v714h128v-606h298v-108h-426zM624 685q0 37 20.5 51.5t49.5 14.5q28 0 49 -14.5t21 -51.5t-21 -52t-49 -15q-29 0 -49.5 15t-20.5 52zM579 -240q-25 0 -49 3.5t-41 8.5v100q17 -4 33 -7t36 -3q31 0 52 17t21 67v596h126v-609q0 -75 -41.5 -124t-136.5 -49z" />
    <glyph glyph-name="uni01C9" unicode="&#x1c9;" horiz-adv-x="575" 
d="M207 0h-126v760h126v-760zM361 685q0 37 20.5 51.5t49.5 14.5q28 0 49 -14.5t21 -51.5t-21 -52t-49 -15q-29 0 -49.5 15t-20.5 52zM316 -240q-25 0 -49 3.5t-41 8.5v100q17 -4 33 -7t36 -3q31 0 52 17t21 67v596h126v-609q0 -75 -41.5 -124t-136.5 -49z" />
    <glyph glyph-name="uni01CA" unicode="&#x1ca;" horiz-adv-x="1102" 
d="M700 0h-159l-338 560h-4q2 -45 4.5 -96.5t4.5 -103.5v-360h-115v714h158l337 -556h3q-1 40 -3.5 92t-3.5 101v363h116v-714zM801 -202q-28 0 -48.5 3t-35.5 8v107q16 -4 34 -7t38 -3q26 0 47.5 10t34.5 37t13 77v684h128v-681q0 -125 -58.5 -180t-152.5 -55z" />
    <glyph glyph-name="uni01CB" unicode="&#x1cb;" horiz-adv-x="1080" 
d="M700 0h-159l-338 560h-4q2 -45 4.5 -96.5t4.5 -103.5v-360h-115v714h158l337 -556h3q-1 40 -3.5 92t-3.5 101v363h116v-714zM867 685q0 37 20.5 51.5t49.5 14.5q28 0 49 -14.5t21 -51.5t-21 -52t-49 -15q-29 0 -49.5 15t-20.5 52zM822 -240q-25 0 -49 3.5t-41 8.5v100
q17 -4 33 -7t36 -3q31 0 52 17t21 67v596h126v-609q0 -75 -41.5 -124t-136.5 -49z" />
    <glyph glyph-name="uni01CC" unicode="&#x1cc;" horiz-adv-x="930" 
d="M371 552q91 0 142.5 -47t51.5 -152v-353h-126v328q0 61 -24 91.5t-76 30.5q-76 0 -104 -48t-28 -137v-265h-126v542h97l18 -71h7q26 42 71.5 61.5t96.5 19.5zM716 685q0 37 20.5 51.5t49.5 14.5q28 0 49 -14.5t21 -51.5t-21 -52t-49 -15q-29 0 -49.5 15t-20.5 52z
M671 -240q-25 0 -49 3.5t-41 8.5v100q17 -4 33 -7t36 -3q31 0 52 17t21 67v596h126v-609q0 -75 -41.5 -124t-136.5 -49z" />
    <glyph glyph-name="uni01CD" unicode="&#x1cd;" horiz-adv-x="671" 
d="M534 0l-65 189h-269l-64 -189h-136l262 717h146l262 -717h-136zM436 299l-62 184q-4 13 -12 37.5t-15 50t-12 42.5q-5 -21 -12.5 -47t-14 -49t-10.5 -34l-63 -184h201zM264 778q-14 22 -36 49.5t-46 53t-42 44.5v13h84q26 -16 55 -38.5t55 -49.5q26 27 56.5 49.5
t56.5 38.5h85v-13q-18 -19 -42.5 -44.5t-47 -53t-35.5 -49.5h-143z" />
    <glyph glyph-name="uni01CE" unicode="&#x1ce;" horiz-adv-x="588" 
d="M297 552q105 0 159.5 -46t54.5 -142v-364h-89l-25 75h-4q-35 -44 -74 -64.5t-106 -20.5q-73 0 -121 41t-48 127q0 84 61.5 126t186.5 47l94 3v27q0 52 -25 74t-70 22q-41 0 -78.5 -11.5t-74.5 -28.5l-40 88q40 21 91.5 34t107.5 13zM386 256l-66 -2q-83 -3 -115 -28.5
t-32 -68.5q0 -39 22.5 -55.5t59.5 -16.5q55 0 93 31.5t38 93.5v46zM224 606q-14 22 -36 49.5t-46 53t-42 44.5v13h84q26 -16 55 -38.5t55 -49.5q26 27 56.5 49.5t56.5 38.5h85v-13q-18 -19 -42.5 -44.5t-47 -53t-35.5 -49.5h-143z" />
    <glyph glyph-name="uni01CF" unicode="&#x1cf;" horiz-adv-x="370" 
d="M335 0h-300v73l86 32v503l-86 33v73h300v-73l-86 -33v-503l86 -32v-73zM115 778q-14 22 -36 49.5t-46 53t-42 44.5v13h84q26 -16 55 -38.5t55 -49.5q26 27 56.5 49.5t56.5 38.5h85v-13q-18 -19 -42.5 -44.5t-47 -53t-35.5 -49.5h-143z" />
    <glyph glyph-name="uni01D0" unicode="&#x1d0;" horiz-adv-x="287" 
d="M207 0h-126v542h126v-542zM73 606q-14 22 -36 49.5t-46 53t-42 44.5v13h84q26 -16 55 -38.5t55 -49.5q26 27 56.5 49.5t56.5 38.5h85v-13q-18 -19 -42.5 -44.5t-47 -53t-35.5 -49.5h-143z" />
    <glyph glyph-name="uni01D1" unicode="&#x1d1;" horiz-adv-x="790" 
d="M731 358q0 -111 -36.5 -193.5t-111.5 -128.5t-188 -46q-115 0 -189 46t-110.5 129t-36.5 194q0 110 36.5 192.5t111 128t189.5 45.5q113 0 187.5 -45.5t111 -128t36.5 -193.5zM194 358q0 -121 48.5 -190t152.5 -69q107 0 154 69t47 190t-47 190t-153 69
q-105 0 -153.5 -69t-48.5 -190zM325 778q-14 22 -36 49.5t-46 53t-42 44.5v13h84q26 -16 55 -38.5t55 -49.5q26 27 56.5 49.5t56.5 38.5h85v-13q-18 -19 -42.5 -44.5t-47 -53t-35.5 -49.5h-143z" />
    <glyph glyph-name="uni01D2" unicode="&#x1d2;" horiz-adv-x="614" 
d="M565 272q0 -135 -70 -208.5t-190 -73.5q-74 0 -132 33t-91 96t-33 153q0 135 69.5 207.5t189.5 72.5q75 0 133 -32.5t91 -95t33 -152.5zM178 272q0 -86 30.5 -133t98.5 -47q67 0 98 47t31 133t-31 132t-99 46t-98 -46t-30 -132zM237 606q-14 22 -36 49.5t-46 53t-42 44.5
v13h84q26 -16 55 -38.5t55 -49.5q26 27 56.5 49.5t56.5 38.5h85v-13q-18 -19 -42.5 -44.5t-47 -53t-35.5 -49.5h-143z" />
    <glyph glyph-name="uni01D3" unicode="&#x1d3;" horiz-adv-x="747" 
d="M659 714v-462q0 -74 -31.5 -133.5t-95.5 -94t-162 -34.5q-139 0 -211 72.5t-72 191.5v460h128v-447q0 -88 39.5 -128t119.5 -40q83 0 120.5 43.5t37.5 125.5v446h127zM303 778q-14 22 -36 49.5t-46 53t-42 44.5v13h84q26 -16 55 -38.5t55 -49.5q26 27 56.5 49.5
t56.5 38.5h85v-13q-18 -19 -42.5 -44.5t-47 -53t-35.5 -49.5h-143z" />
    <glyph glyph-name="uni01D4" unicode="&#x1d4;" horiz-adv-x="642" 
d="M562 542v-542h-99l-17 70h-6q-26 -42 -72 -61t-97 -19q-91 0 -142.5 47t-51.5 151v354h126v-329q0 -61 24 -91t76 -30q76 0 104.5 48t28.5 137v265h126zM251 606q-14 22 -36 49.5t-46 53t-42 44.5v13h84q26 -16 55 -38.5t55 -49.5q26 27 56.5 49.5t56.5 38.5h85v-13
q-18 -19 -42.5 -44.5t-47 -53t-35.5 -49.5h-143z" />
    <glyph glyph-name="uni01D5" unicode="&#x1d5;" horiz-adv-x="747" 
d="M659 714v-462q0 -74 -31.5 -133.5t-95.5 -94t-162 -34.5q-139 0 -211 72.5t-72 191.5v460h128v-447q0 -88 39.5 -128t119.5 -40q83 0 120.5 43.5t37.5 125.5v446h127zM532 1020v-85h-318v85h318zM276 884q24 0 40.5 -14t16.5 -42t-16.5 -42t-40.5 -14q-25 0 -41 14
t-16 42t16 42t41 14zM469 884q25 0 41.5 -14t16.5 -42t-16.5 -42t-41.5 -14t-41 14t-16 42t16 42t41 14z" />
    <glyph glyph-name="uni01D6" unicode="&#x1d6;" horiz-adv-x="642" 
d="M562 542v-542h-99l-17 70h-6q-26 -42 -72 -61t-97 -19q-91 0 -142.5 47t-51.5 151v354h126v-329q0 -61 24 -91t76 -30q76 0 104.5 48t28.5 137v265h126zM480 848v-85h-318v85h318zM224 712q24 0 40.5 -14t16.5 -42t-16.5 -42t-40.5 -14q-25 0 -41 14t-16 42t16 42t41 14z
M417 712q25 0 41.5 -14t16.5 -42t-16.5 -42t-41.5 -14t-41 14t-16 42t16 42t41 14z" />
    <glyph glyph-name="uni01D7" unicode="&#x1d7;" horiz-adv-x="747" 
d="M659 714v-462q0 -74 -31.5 -133.5t-95.5 -94t-162 -34.5q-139 0 -211 72.5t-72 191.5v460h128v-447q0 -88 39.5 -128t119.5 -40q83 0 120.5 43.5t37.5 125.5v446h127zM312 904v13q24 28 50 63t44 69h140v-10q-15 -19 -41 -44.5t-55 -49.5t-53 -41h-85zM276 772
q-25 0 -41 14t-16 42t16 42t41 14q24 0 40.5 -14t16.5 -42t-16.5 -42t-40.5 -14zM469 772q-25 0 -41 14t-16 42t16 42t41 14t41.5 -14t16.5 -42t-16.5 -42t-41.5 -14z" />
    <glyph glyph-name="uni01D8" unicode="&#x1d8;" horiz-adv-x="642" 
d="M562 542v-542h-99l-17 70h-6q-26 -42 -72 -61t-97 -19q-91 0 -142.5 47t-51.5 151v354h126v-329q0 -61 24 -91t76 -30q76 0 104.5 48t28.5 137v265h126zM260 732v13q24 28 50 63t44 69h140v-10q-15 -19 -41 -44.5t-55 -49.5t-53 -41h-85zM224 600q-25 0 -41 14t-16 42
t16 42t41 14q24 0 40.5 -14t16.5 -42t-16.5 -42t-40.5 -14zM417 600q-25 0 -41 14t-16 42t16 42t41 14t41.5 -14t16.5 -42t-16.5 -42t-41.5 -14z" />
    <glyph glyph-name="uni01D9" unicode="&#x1d9;" horiz-adv-x="747" 
d="M659 714v-462q0 -74 -31.5 -133.5t-95.5 -94t-162 -34.5q-139 0 -211 72.5t-72 191.5v460h128v-447q0 -88 39.5 -128t119.5 -40q83 0 120.5 43.5t37.5 125.5v446h127zM314 910q-22 34 -55.5 68t-62.5 63v13h66q29 -16 57 -34.5t53 -42.5q27 24 55.5 42.5t56.5 34.5h66
v-13l-62.5 -62.5t-56.5 -68.5h-117zM276 772q-25 0 -41 14t-16 42t16 42t41 14q24 0 40.5 -14t16.5 -42t-16.5 -42t-40.5 -14zM469 772q-25 0 -41 14t-16 42t16 42t41 14t41.5 -14t16.5 -42t-16.5 -42t-41.5 -14z" />
    <glyph glyph-name="uni01DA" unicode="&#x1da;" horiz-adv-x="642" 
d="M562 542v-542h-99l-17 70h-6q-26 -42 -72 -61t-97 -19q-91 0 -142.5 47t-51.5 151v354h126v-329q0 -61 24 -91t76 -30q76 0 104.5 48t28.5 137v265h126zM262 738q-22 34 -55.5 68t-62.5 63v13h66q29 -16 57 -34.5t53 -42.5q27 24 55.5 42.5t56.5 34.5h66v-13l-62.5 -62.5
t-56.5 -68.5h-117zM224 600q-25 0 -41 14t-16 42t16 42t41 14q24 0 40.5 -14t16.5 -42t-16.5 -42t-40.5 -14zM417 600q-25 0 -41 14t-16 42t16 42t41 14t41.5 -14t16.5 -42t-16.5 -42t-41.5 -14z" />
    <glyph glyph-name="uni01DB" unicode="&#x1db;" horiz-adv-x="747" 
d="M659 714v-462q0 -74 -31.5 -133.5t-95.5 -94t-162 -34.5q-139 0 -211 72.5t-72 191.5v460h128v-447q0 -88 39.5 -128t119.5 -40q83 0 120.5 43.5t37.5 125.5v446h127zM340 1049q18 -34 44 -69t50 -63v-13h-85q-24 17 -53 41t-55 49.5t-41 44.5v10h140zM276 884
q24 0 40.5 -14t16.5 -42t-16.5 -42t-40.5 -14q-25 0 -41 14t-16 42t16 42t41 14zM469 884q25 0 41.5 -14t16.5 -42t-16.5 -42t-41.5 -14t-41 14t-16 42t16 42t41 14z" />
    <glyph glyph-name="uni01DC" unicode="&#x1dc;" horiz-adv-x="642" 
d="M562 542v-542h-99l-17 70h-6q-26 -42 -72 -61t-97 -19q-91 0 -142.5 47t-51.5 151v354h126v-329q0 -61 24 -91t76 -30q76 0 104.5 48t28.5 137v265h126zM288 877q18 -34 44 -69t50 -63v-13h-85q-24 17 -53 41t-55 49.5t-41 44.5v10h140zM224 712q24 0 40.5 -14t16.5 -42
t-16.5 -42t-40.5 -14q-25 0 -41 14t-16 42t16 42t41 14zM417 712q25 0 41.5 -14t16.5 -42t-16.5 -42t-41.5 -14t-41 14t-16 42t16 42t41 14z" />
    <glyph glyph-name="uni01DD" unicode="&#x1dd;" horiz-adv-x="581" 
d="M260 552q80 0 141.5 -30.5t96 -92t34.5 -154.5t-31.5 -156.5t-88 -96t-130.5 -32.5q-110 0 -173 65t-63 181v65h358q-2 73 -41 113.5t-109 40.5q-52 0 -94 -10.5t-86 -30.5v101q41 19 83.5 28t102.5 9zM401 213h-233q1 -57 28.5 -93.5t85.5 -36.5q51 0 82.5 32.5
t36.5 97.5z" />
    <glyph glyph-name="uni01DE" unicode="&#x1de;" horiz-adv-x="671" 
d="M534 0l-65 189h-269l-64 -189h-136l262 717h146l262 -717h-136zM436 299l-62 184q-4 13 -12 37.5t-15 50t-12 42.5q-5 -21 -12.5 -47t-14 -49t-10.5 -34l-63 -184h201zM494 1020v-85h-318v85h318zM238 884q24 0 40.5 -14t16.5 -42t-16.5 -42t-40.5 -14q-25 0 -41 14
t-16 42t16 42t41 14zM431 884q25 0 41.5 -14t16.5 -42t-16.5 -42t-41.5 -14t-41 14t-16 42t16 42t41 14z" />
    <glyph glyph-name="uni01DF" unicode="&#x1df;" horiz-adv-x="588" 
d="M297 552q105 0 159.5 -46t54.5 -142v-364h-89l-25 75h-4q-35 -44 -74 -64.5t-106 -20.5q-73 0 -121 41t-48 127q0 84 61.5 126t186.5 47l94 3v27q0 52 -25 74t-70 22q-41 0 -78.5 -11.5t-74.5 -28.5l-40 88q40 21 91.5 34t107.5 13zM386 256l-66 -2q-83 -3 -115 -28.5
t-32 -68.5q0 -39 22.5 -55.5t59.5 -16.5q55 0 93 31.5t38 93.5v46zM453 848v-85h-318v85h318zM197 712q24 0 40.5 -14t16.5 -42t-16.5 -42t-40.5 -14q-25 0 -41 14t-16 42t16 42t41 14zM390 712q25 0 41.5 -14t16.5 -42t-16.5 -42t-41.5 -14t-41 14t-16 42t16 42t41 14z" />
    <glyph glyph-name="uni01E0" unicode="&#x1e0;" horiz-adv-x="671" 
d="M534 0l-65 189h-269l-64 -189h-136l262 717h146l262 -717h-136zM436 299l-62 184q-4 13 -12 37.5t-15 50t-12 42.5q-5 -21 -12.5 -47t-14 -49t-10.5 -34l-63 -184h201zM494 1013v-85h-318v85h318zM335 884q26 0 42.5 -14.5t16.5 -44.5q0 -29 -16.5 -44t-42.5 -15t-42 15
t-16 44q0 30 16 44.5t42 14.5z" />
    <glyph glyph-name="uni01E1" unicode="&#x1e1;" horiz-adv-x="588" 
d="M297 552q105 0 159.5 -46t54.5 -142v-364h-89l-25 75h-4q-35 -44 -74 -64.5t-106 -20.5q-73 0 -121 41t-48 127q0 84 61.5 126t186.5 47l94 3v27q0 52 -25 74t-70 22q-41 0 -78.5 -11.5t-74.5 -28.5l-40 88q40 21 91.5 34t107.5 13zM386 256l-66 -2q-83 -3 -115 -28.5
t-32 -68.5q0 -39 22.5 -55.5t59.5 -16.5q55 0 93 31.5t38 93.5v46zM453 848v-84h-318v84h318zM294 719q25 0 42 -14.5t17 -44.5q0 -28 -17 -43t-42 -15q-26 0 -42.5 15t-16.5 43q0 30 16.5 44.5t42.5 14.5z" />
    <glyph glyph-name="uni01E2" unicode="&#x1e2;" horiz-adv-x="925" 
d="M866 0h-406v189h-244l-85 -189h-131l327 714h539v-107h-278v-182h259v-107h-259v-210h278v-108zM264 299h196v304h-60zM660 869v-91h-318v91h318z" />
    <glyph glyph-name="uni01E3" unicode="&#x1e3;" horiz-adv-x="897" 
d="M627 552q101 0 162.5 -65t61.5 -180v-65h-349q2 -76 39 -115.5t104 -39.5q49 0 92 10.5t86 30.5v-101q-41 -19 -83 -28t-101 -9q-67 0 -121 26.5t-88 79.5q-27 -35 -55.5 -58.5t-66.5 -35.5t-92 -12q-48 0 -87 18t-62 55t-23 95q0 84 59.5 126t179.5 47l91 3v38
q0 46 -25 65.5t-67 19.5q-40 0 -77.5 -11t-72.5 -28l-40 87q40 21 92 34t106 13q58 0 99 -17t67 -55q30 35 72 53.5t99 18.5zM624 459q-52 0 -83.5 -32.5t-36.5 -96.5h225q-1 57 -27 93t-78 36zM374 256l-63 -2q-78 -3 -108 -28.5t-30 -68.5q0 -39 21.5 -55.5t56.5 -16.5
q52 0 87.5 31.5t35.5 93.5v46zM615 697v-91h-318v91h318z" />
    <glyph glyph-name="uni01E4" unicode="&#x1e4;" horiz-adv-x="726" 
d="M399 -10q-168 0 -254 96t-86 270q0 112 43.5 194.5t126.5 128t202 45.5q59 0 113 -12t99 -31l-44 -105q-35 16 -79.5 28t-92.5 12q-109 0 -172 -69.5t-63 -190.5q0 -126 52 -195t168 -69q34 0 60.5 3.5t49.5 8.5v55h-134v87h134v60h-144v102h270v-162h64v-87h-64v-128
q-55 -19 -113.5 -30t-135.5 -11z" />
    <glyph glyph-name="uni01E5" unicode="&#x1e5;" horiz-adv-x="626" 
d="M263 552q105 0 161 -80h5l12 70h105v-563h58v-75h-69q-19 -69 -81.5 -106.5t-168.5 -37.5q-58 0 -107 7.5t-93 25.5v101q46 -20 98.5 -31t109.5 -11q43 0 72 13t39 39h-153v75h169v56q0 17 1 36t3 34h-4q-28 -43 -68.5 -62t-91.5 -19q-99 0 -155 67t-56 193t56.5 197
t157.5 71zM296 449q-118 0 -118 -165q0 -163 120 -163q66 0 97.5 32.5t31.5 113.5v13q0 89 -31.5 129t-99.5 40z" />
    <glyph glyph-name="uni01E6" unicode="&#x1e6;" horiz-adv-x="726" 
d="M378 392h270v-363q-57 -19 -117 -29t-136 -10q-162 0 -249 96t-87 272q0 112 43.5 194t126.5 127t202 45q59 0 113 -12t99 -31l-44 -105q-35 16 -79 28t-92 12q-73 0 -126 -32t-81.5 -90.5t-28.5 -137.5q0 -76 22 -134t70 -91t125 -33q38 0 64.5 4t48.5 9v172h-144v109z
M331 778q-14 22 -36 49.5t-46 53t-42 44.5v13h84q26 -16 55 -38.5t55 -49.5q26 27 56.5 49.5t56.5 38.5h85v-13q-18 -19 -42.5 -44.5t-47 -53t-35.5 -49.5h-143z" />
    <glyph glyph-name="uni01E7" unicode="&#x1e7;" horiz-adv-x="626" 
d="M263 552q105 0 161 -80h5l12 70h105v-546q0 -116 -65 -176t-196 -60q-58 0 -107 7.5t-93 25.5v104q46 -20 98.5 -31t109.5 -11q61 0 94 34.5t33 100.5v14q0 15 1 35t3 32h-4q-28 -42 -68.5 -61.5t-91.5 -19.5q-99 0 -155 74t-56 206t56.5 207t157.5 75zM296 449
q-118 0 -118 -181q0 -178 120 -178q66 0 97.5 36.5t31.5 123.5v19q0 96 -31.5 138t-99.5 42zM237 606q-14 22 -36 49.5t-46 53t-42 44.5v13h84q26 -16 55 -38.5t55 -49.5q26 27 56.5 49.5t56.5 38.5h85v-13q-18 -19 -42.5 -44.5t-47 -53t-35.5 -49.5h-143z" />
    <glyph glyph-name="uni01E8" unicode="&#x1e8;" horiz-adv-x="647" 
d="M647 0h-147l-212 316l-67 -53v-263h-128v714h128v-336q20 26 41 51.5t42 51.5l193 233h145l-262 -314zM276 778q-14 22 -36 49.5t-46 53t-42 44.5v13h84q26 -16 55 -38.5t55 -49.5q26 27 56.5 49.5t56.5 38.5h85v-13q-18 -19 -42.5 -44.5t-47 -53t-35.5 -49.5h-143z" />
    <glyph glyph-name="uni01E9" unicode="&#x1e9;" horiz-adv-x="588" 
d="M206 760v-361q0 -25 -2 -54.5t-4 -55.5h3q13 18 30 41t34 41l160 171h143l-217 -234l231 -308h-147l-168 232l-63 -52v-180h-125v760h125zM77 824q-14 22 -36 49.5t-46 53t-42 44.5v13h84q26 -16 55 -38.5t55 -49.5q26 27 56.5 49.5t56.5 38.5h85v-13
q-18 -19 -42.5 -44.5t-47 -53t-35.5 -49.5h-143z" />
    <glyph glyph-name="uni01EA" unicode="&#x1ea;" horiz-adv-x="790" 
d="M731 358q0 -111 -36.5 -193.5t-111.5 -128.5t-188 -46q-115 0 -189 46t-110.5 129t-36.5 194q0 110 36.5 192.5t111 128t189.5 45.5q113 0 187.5 -45.5t111 -128t36.5 -193.5zM194 358q0 -121 48.5 -190t152.5 -69q107 0 154 69t47 190t-47 190t-153 69
q-105 0 -153.5 -69t-48.5 -190zM398 -113q0 -21 11.5 -31.5t30.5 -10.5q16 0 29.5 3t23.5 5v-75q-16 -4 -32 -7t-39 -3q-55 0 -85 28.5t-30 76.5q0 43 31.5 81.5t71.5 61.5l59 -16q-34 -32 -52.5 -58.5t-18.5 -54.5z" />
    <glyph glyph-name="uni01EB" unicode="&#x1eb;" horiz-adv-x="614" 
d="M565 272q0 -135 -70 -208.5t-190 -73.5q-74 0 -132 33t-91 96t-33 153q0 135 69.5 207.5t189.5 72.5q75 0 133 -32.5t91 -95t33 -152.5zM178 272q0 -86 30.5 -133t98.5 -47q67 0 98 47t31 133t-31 132t-99 46t-98 -46t-30 -132zM304 -113q0 -21 11.5 -31.5t30.5 -10.5
q16 0 29.5 3t23.5 5v-75q-16 -4 -32 -7t-39 -3q-55 0 -85 28.5t-30 76.5q0 43 31.5 81.5t71.5 61.5l59 -16q-34 -32 -52.5 -58.5t-18.5 -54.5z" />
    <glyph glyph-name="uni01EC" unicode="&#x1ec;" horiz-adv-x="790" 
d="M731 358q0 -111 -36.5 -193.5t-111.5 -128.5t-188 -46q-115 0 -189 46t-110.5 129t-36.5 194q0 110 36.5 192.5t111 128t189.5 45.5q113 0 187.5 -45.5t111 -128t36.5 -193.5zM194 358q0 -121 48.5 -190t152.5 -69q107 0 154 69t47 190t-47 190t-153 69
q-105 0 -153.5 -69t-48.5 -190zM554 869v-91h-318v91h318zM403 -113q0 -21 11.5 -31.5t30.5 -10.5q16 0 29.5 3t23.5 5v-75q-16 -4 -32 -7t-39 -3q-55 0 -85 28.5t-30 76.5q0 43 31.5 81.5t71.5 61.5l59 -16q-34 -32 -52.5 -58.5t-18.5 -54.5z" />
    <glyph glyph-name="uni01ED" unicode="&#x1ed;" horiz-adv-x="614" 
d="M565 272q0 -135 -70 -208.5t-190 -73.5q-74 0 -132 33t-91 96t-33 153q0 135 69.5 207.5t189.5 72.5q75 0 133 -32.5t91 -95t33 -152.5zM178 272q0 -86 30.5 -133t98.5 -47q67 0 98 47t31 133t-31 132t-99 46t-98 -46t-30 -132zM466 697v-91h-318v91h318zM304 -113
q0 -21 11.5 -31.5t30.5 -10.5q16 0 29.5 3t23.5 5v-75q-16 -4 -32 -7t-39 -3q-55 0 -85 28.5t-30 76.5q0 43 31.5 81.5t71.5 61.5l59 -16q-34 -32 -52.5 -58.5t-18.5 -54.5z" />
    <glyph glyph-name="uni01EE" unicode="&#x1ee;" horiz-adv-x="588" 
d="M512 714v-87l-224 -214q124 -5 189.5 -58t65.5 -149q0 -62 -32 -111t-98.5 -77t-167.5 -28q-60 0 -113.5 9.5t-100.5 29.5v111q48 -23 104.5 -35t104.5 -12q94 0 134 32t40 87q0 53 -50 81t-159 28h-62v93l198 192h-288v108h459zM213 778q-14 22 -36 49.5t-46 53
t-42 44.5v13h84q26 -16 55 -38.5t55 -49.5q26 27 56.5 49.5t56.5 38.5h85v-13q-18 -19 -42.5 -44.5t-47 -53t-35.5 -49.5h-143z" />
    <glyph glyph-name="uni01EF" unicode="&#x1ef;" horiz-adv-x="550" 
d="M489 542v-84l-217 -218q120 -12 180.5 -75.5t60.5 -163.5q0 -69 -32.5 -123.5t-96.5 -86t-157 -31.5q-119 0 -204 37v110q42 -20 95 -32.5t104 -12.5q86 0 124.5 41t38.5 102q0 65 -46 103t-151 38h-59v89l206 208h-295v99h449zM196 606q-14 22 -36 49.5t-46 53t-42 44.5
v13h84q26 -16 55 -38.5t55 -49.5q26 27 56.5 49.5t56.5 38.5h85v-13q-18 -19 -42.5 -44.5t-47 -53t-35.5 -49.5h-143z" />
    <glyph glyph-name="uni01F0" unicode="&#x1f0;" horiz-adv-x="287" 
d="M29 -240q-25 0 -49 3.5t-41 8.5v100q17 -4 33 -7t36 -3q31 0 52 17t21 67v596h126v-609q0 -75 -41.5 -124t-136.5 -49zM73 606q-14 22 -36 49.5t-46 53t-42 44.5v13h84q26 -16 55 -38.5t55 -49.5q26 27 56.5 49.5t56.5 38.5h85v-13q-18 -19 -42.5 -44.5t-47 -53
t-35.5 -49.5h-143z" />
    <glyph glyph-name="uni01F1" unicode="&#x1f1;" horiz-adv-x="1303" 
d="M677 364q0 -181 -101 -272.5t-282 -91.5h-201v714h222q111 0 192 -40t125.5 -118t44.5 -192zM543 360q0 128 -59 188t-169 60h-94v-501h77q245 0 245 253zM1273 0h-518v87l355 519h-345v108h498v-87l-354 -519h364v-108z" />
    <glyph glyph-name="uni01F2" unicode="&#x1f2;" horiz-adv-x="1217" 
d="M677 364q0 -181 -101 -272.5t-282 -91.5h-201v714h222q111 0 192 -40t125.5 -118t44.5 -192zM543 360q0 128 -59 188t-169 60h-94v-501h77q245 0 245 253zM1184 0h-416v77l266 369h-251v96h393v-85l-261 -360h269v-97z" />
    <glyph glyph-name="uni01F3" unicode="&#x1f3;" horiz-adv-x="1107" 
d="M260 -10q-94 0 -152.5 70.5t-58.5 209.5q0 140 59 211t155 71q60 0 98.5 -23t61.5 -56h6q-3 14 -6 42.5t-3 54.5v190h126v-760h-98l-23 71h-5q-23 -34 -61 -57.5t-99 -23.5zM298 92q70 0 98.5 40t29.5 121v16q0 87 -27.5 133.5t-102.5 46.5q-58 0 -88.5 -47.5
t-30.5 -133.5t31 -131t90 -45zM1074 0h-416v77l266 369h-251v96h393v-85l-261 -360h269v-97z" />
    <glyph glyph-name="uni01F4" unicode="&#x1f4;" horiz-adv-x="726" 
d="M378 392h270v-363q-57 -19 -117 -29t-136 -10q-162 0 -249 96t-87 272q0 112 43.5 194t126.5 127t202 45q59 0 113 -12t99 -31l-44 -105q-35 16 -79 28t-92 12q-73 0 -126 -32t-81.5 -90.5t-28.5 -137.5q0 -76 22 -134t70 -91t125 -33q38 0 64.5 4t48.5 9v172h-144v109z
M574 938v-10q-17 -18 -47 -47t-63 -57t-57 -46h-84v13q16 19 36 44.5t39 53t32 49.5h144z" />
    <glyph glyph-name="uni01F5" unicode="&#x1f5;" horiz-adv-x="626" 
d="M263 552q105 0 161 -80h5l12 70h105v-546q0 -116 -65 -176t-196 -60q-58 0 -107 7.5t-93 25.5v104q46 -20 98.5 -31t109.5 -11q61 0 94 34.5t33 100.5v14q0 15 1 35t3 32h-4q-28 -42 -68.5 -61.5t-91.5 -19.5q-99 0 -155 74t-56 206t56.5 207t157.5 75zM296 449
q-118 0 -118 -181q0 -178 120 -178q66 0 97.5 36.5t31.5 123.5v19q0 96 -31.5 138t-99.5 42zM480 766v-10q-17 -18 -47 -47t-63 -57t-57 -46h-84v13q16 19 36 44.5t39 53t32 49.5h144z" />
    <glyph glyph-name="uni01F6" unicode="&#x1f6;" horiz-adv-x="1007" 
d="M93 0v714h128v-288h258v288h128v-506q0 -58 22 -85t70 -27q49 0 71 29t22 90v327h128v-328q0 -106 -54.5 -165t-167.5 -59q-112 0 -165.5 52.5t-53.5 157.5v117h-258v-317h-128z" />
    <glyph glyph-name="uni01F7" unicode="&#x1f7;" horiz-adv-x="670" 
d="M408 725q92 0 151 -64.5t59 -190.5q0 -94 -40 -183t-127.5 -164t-229.5 -124v-239h-128v954h98l21 -94h4q27 41 75 73t117 32zM374 617q-79 0 -116 -58t-37 -158v-283q84 34 144 88t92 121t32 142q0 73 -30 110.5t-85 37.5z" />
    <glyph glyph-name="uni01F8" unicode="&#x1f8;" horiz-adv-x="793" 
d="M700 0h-159l-338 560h-4q2 -45 4.5 -96.5t4.5 -103.5v-360h-115v714h158l337 -556h3q-1 40 -3.5 92t-3.5 101v363h116v-714zM372 938q13 -22 32 -49.5t39.5 -53t35.5 -44.5v-13h-83q-25 18 -58.5 46t-63.5 57t-46 47v10h144z" />
    <glyph glyph-name="uni01F9" unicode="&#x1f9;" horiz-adv-x="642" 
d="M371 552q91 0 142.5 -47t51.5 -152v-353h-126v328q0 61 -24 91.5t-76 30.5q-76 0 -104 -48t-28 -137v-265h-126v542h97l18 -71h7q26 42 71.5 61.5t96.5 19.5zM297 766q13 -22 32 -49.5t39.5 -53t35.5 -44.5v-13h-83q-25 18 -58.5 46t-63.5 57t-46 47v10h144z" />
    <glyph glyph-name="Aringacute" unicode="&#x1fa;" horiz-adv-x="671" 
d="M280 846v8q21 21 45 50.5t40 53.5h144v-7q-11 -13 -37 -33t-56 -40t-52 -32h-84zM0 0l249 629q-31 28 -31 78q0 53 32 83t84 30q50 0 85 -30t35 -82q0 -26 -9 -45t-24 -33l250 -630h-136l-63 173h-274l-62 -173h-136zM334 658q51 0 51 49q0 24 -14.5 37.5t-36.5 13.5
t-36 -13.5t-14 -37.5q0 -23 13 -36t37 -13zM230 282h212l-63 166q-5 14 -13.5 38t-17 49t-13.5 42q-5 -16 -13.5 -43t-17 -51.5t-12.5 -35.5z" />
    <glyph glyph-name="aringacute" unicode="&#x1fb;" horiz-adv-x="588" 
d="M468 958v-6q-10 -12 -38 -30t-60 -36t-55 -30h-85v8q21 19 45 45.5t40 48.5h153zM298 817q50 0 84.5 -29.5t34.5 -81.5q0 -53 -34 -83t-85 -30q-52 0 -84 29.5t-32 82.5t32 82.5t84 29.5zM298 756q-22 0 -36 -14t-14 -37t12.5 -36.5t37.5 -13.5q22 0 36 13.5t14 36.5
t-14 37t-36 14zM297 552q105 0 159.5 -46t54.5 -142v-364h-89l-25 75h-4q-35 -44 -74 -64.5t-106 -20.5q-73 0 -121 41t-48 127q0 84 61.5 126t186.5 47l94 3v27q0 52 -25 74t-70 22q-41 0 -78.5 -11.5t-74.5 -28.5l-40 88q40 21 91.5 34t107.5 13zM386 256l-66 -2
q-83 -3 -115 -28.5t-32 -68.5q0 -39 22.5 -55.5t59.5 -16.5q55 0 93 31.5t38 93.5v46z" />
    <glyph glyph-name="AEacute" unicode="&#x1fc;" horiz-adv-x="925" 
d="M866 0h-406v189h-244l-85 -189h-131l327 714h539v-107h-278v-182h259v-107h-259v-210h278v-108zM264 299h196v304h-60zM673 938v-10q-17 -18 -47 -47t-63 -57t-57 -46h-84v13q16 19 36 44.5t39 53t32 49.5h144z" />
    <glyph glyph-name="aeacute" unicode="&#x1fd;" horiz-adv-x="897" 
d="M627 552q101 0 162.5 -65t61.5 -180v-65h-349q2 -76 39 -115.5t104 -39.5q49 0 92 10.5t86 30.5v-101q-41 -19 -83 -28t-101 -9q-67 0 -121 26.5t-88 79.5q-27 -35 -55.5 -58.5t-66.5 -35.5t-92 -12q-48 0 -87 18t-62 55t-23 95q0 84 59.5 126t179.5 47l91 3v38
q0 46 -25 65.5t-67 19.5q-40 0 -77.5 -11t-72.5 -28l-40 87q40 21 92 34t106 13q58 0 99 -17t67 -55q30 35 72 53.5t99 18.5zM624 459q-52 0 -83.5 -32.5t-36.5 -96.5h225q-1 57 -27 93t-78 36zM374 256l-63 -2q-78 -3 -108 -28.5t-30 -68.5q0 -39 21.5 -55.5t56.5 -16.5
q52 0 87.5 31.5t35.5 93.5v46zM628 766v-10q-17 -18 -47 -47t-63 -57t-57 -46h-84v13q16 19 36 44.5t39 53t32 49.5h144z" />
    <glyph glyph-name="Oslashacute" unicode="&#x1fe;" horiz-adv-x="790" 
d="M731 358q0 -111 -36.5 -193.5t-111.5 -128.5t-188 -46q-101 0 -172 38l-45 -67l-72 48l47 69q-48 49 -71 120.5t-23 160.5q0 110 36.5 192.5t111 128t189.5 45.5q50 0 93.5 -10t78.5 -28l43 63l72 -47l-46 -67q47 -48 70.5 -119t23.5 -159zM194 358q0 -51 8.5 -93.5
t26.5 -74.5l274 400q-22 13 -48.5 20t-58.5 7q-105 0 -153.5 -69t-48.5 -190zM596 358q0 104 -34 166l-273 -399q43 -26 106 -26q107 0 154 69t47 190zM571 938v-10q-17 -18 -47 -47t-63 -57t-57 -46h-84v13q16 19 36 44.5t39 53t32 49.5h144z" />
    <glyph glyph-name="oslashacute" unicode="&#x1ff;" horiz-adv-x="614" 
d="M565 272q0 -135 -70 -208.5t-190 -73.5q-65 0 -119 26l-36 -51l-69 46l38 54q-34 37 -52 88t-18 119q0 135 69.5 207.5t189.5 72.5q70 0 125 -29l32 46l68 -47l-34 -50q31 -35 48.5 -85.5t17.5 -114.5zM178 272q0 -29 3 -54t11 -45l180 260q-26 17 -66 17q-68 0 -98 -46
t-30 -132zM436 272q0 53 -12 89l-177 -256q26 -13 60 -13q67 0 98 47t31 133zM480 766v-10q-17 -18 -47 -47t-63 -57t-57 -46h-84v13q16 19 36 44.5t39 53t32 49.5h144z" />
    <glyph glyph-name="uni0200" unicode="&#x200;" horiz-adv-x="671" 
d="M534 0l-65 189h-269l-64 -189h-136l262 717h146l262 -717h-136zM436 299l-62 184q-4 13 -12 37.5t-15 50t-12 42.5q-5 -21 -12.5 -47t-14 -49t-10.5 -34l-63 -184h201zM399 938q16 -34 40 -76t45 -71v-13h-68q-22 18 -52 46.5t-56 57t-37 46.5v10h128zM212 938
q16 -34 40 -76t45 -71v-13h-68q-23 18 -53 46.5t-56 57t-36 46.5v10h128z" />
    <glyph glyph-name="uni0201" unicode="&#x201;" horiz-adv-x="588" 
d="M297 552q105 0 159.5 -46t54.5 -142v-364h-89l-25 75h-4q-35 -44 -74 -64.5t-106 -20.5q-73 0 -121 41t-48 127q0 84 61.5 126t186.5 47l94 3v27q0 52 -25 74t-70 22q-41 0 -78.5 -11.5t-74.5 -28.5l-40 88q40 21 91.5 34t107.5 13zM386 256l-66 -2q-83 -3 -115 -28.5
t-32 -68.5q0 -39 22.5 -55.5t59.5 -16.5q55 0 93 31.5t38 93.5v46zM358 766q16 -34 40 -76t45 -71v-13h-68q-22 18 -52 46.5t-56 57t-37 46.5v10h128zM171 766q16 -34 40 -76t45 -71v-13h-68q-23 18 -53 46.5t-56 57t-36 46.5v10h128z" />
    <glyph glyph-name="uni0202" unicode="&#x202;" horiz-adv-x="671" 
d="M534 0l-65 189h-269l-64 -189h-136l262 717h146l262 -717h-136zM436 299l-62 184q-4 13 -12 37.5t-15 50t-12 42.5q-5 -21 -12.5 -47t-14 -49t-10.5 -34l-63 -184h201zM337 931q82 0 127 -41.5t49 -111.5h-72q-4 42 -33 52t-72 10q-25 0 -48 -4.5t-39 -18t-19 -39.5h-73
q5 68 53 110.5t127 42.5z" />
    <glyph glyph-name="uni0203" unicode="&#x203;" horiz-adv-x="588" 
d="M297 552q105 0 159.5 -46t54.5 -142v-364h-89l-25 75h-4q-35 -44 -74 -64.5t-106 -20.5q-73 0 -121 41t-48 127q0 84 61.5 126t186.5 47l94 3v27q0 52 -25 74t-70 22q-41 0 -78.5 -11.5t-74.5 -28.5l-40 88q40 21 91.5 34t107.5 13zM386 256l-66 -2q-83 -3 -115 -28.5
t-32 -68.5q0 -39 22.5 -55.5t59.5 -16.5q55 0 93 31.5t38 93.5v46zM296 759q82 0 127 -41.5t49 -111.5h-72q-4 42 -33 52t-72 10q-25 0 -48 -4.5t-39 -18t-19 -39.5h-73q5 68 53 110.5t127 42.5z" />
    <glyph glyph-name="uni0204" unicode="&#x204;" horiz-adv-x="558" 
d="M499 0h-406v714h406v-107h-278v-182h260v-107h-260v-210h278v-108zM366 938q16 -34 40 -76t45 -71v-13h-68q-22 18 -52 46.5t-56 57t-37 46.5v10h128zM179 938q16 -34 40 -76t45 -71v-13h-68q-23 18 -53 46.5t-56 57t-36 46.5v10h128z" />
    <glyph glyph-name="uni0205" unicode="&#x205;" horiz-adv-x="581" 
d="M299 552q109 0 172.5 -65t63.5 -181v-64h-358q2 -74 41 -114.5t108 -40.5q52 0 94 10.5t86 30.5v-101q-40 -19 -83 -28t-103 -9q-80 0 -141 30.5t-95.5 92t-34.5 154.5q0 139 68.5 212t181.5 73zM299 459q-51 0 -82.5 -32.5t-36.5 -96.5h233q-1 56 -28.5 92.5t-85.5 36.5
zM356 766q16 -34 40 -76t45 -71v-13h-68q-22 18 -52 46.5t-56 57t-37 46.5v10h128zM169 766q16 -34 40 -76t45 -71v-13h-68q-23 18 -53 46.5t-56 57t-36 46.5v10h128z" />
    <glyph glyph-name="uni0206" unicode="&#x206;" horiz-adv-x="558" 
d="M499 0h-406v714h406v-107h-278v-182h260v-107h-260v-210h278v-108zM305 931q82 0 127 -41.5t49 -111.5h-72q-4 42 -33 52t-72 10q-25 0 -48 -4.5t-39 -18t-19 -39.5h-73q5 68 53 110.5t127 42.5z" />
    <glyph glyph-name="uni0207" unicode="&#x207;" horiz-adv-x="581" 
d="M299 552q109 0 172.5 -65t63.5 -181v-64h-358q2 -74 41 -114.5t108 -40.5q52 0 94 10.5t86 30.5v-101q-40 -19 -83 -28t-103 -9q-80 0 -141 30.5t-95.5 92t-34.5 154.5q0 139 68.5 212t181.5 73zM299 459q-51 0 -82.5 -32.5t-36.5 -96.5h233q-1 56 -28.5 92.5t-85.5 36.5
zM294 759q82 0 127 -41.5t49 -111.5h-72q-4 42 -33 52t-72 10q-25 0 -48 -4.5t-39 -18t-19 -39.5h-73q5 68 53 110.5t127 42.5z" />
    <glyph glyph-name="uni0208" unicode="&#x208;" horiz-adv-x="370" 
d="M335 0h-300v73l86 32v503l-86 33v73h300v-73l-86 -33v-503l86 -32v-73zM249 938q16 -34 40 -76t45 -71v-13h-68q-22 18 -52 46.5t-56 57t-37 46.5v10h128zM62 938q16 -34 40 -76t45 -71v-13h-68q-23 18 -53 46.5t-56 57t-36 46.5v10h128z" />
    <glyph glyph-name="uni0209" unicode="&#x209;" horiz-adv-x="287" 
d="M207 0h-126v542h126v-542zM208 766q16 -34 40 -76t45 -71v-13h-68q-22 18 -52 46.5t-56 57t-37 46.5v10h128zM21 766q16 -34 40 -76t45 -71v-13h-68q-23 18 -53 46.5t-56 57t-36 46.5v10h128z" />
    <glyph glyph-name="uni020A" unicode="&#x20a;" horiz-adv-x="370" 
d="M335 0h-300v73l86 32v503l-86 33v73h300v-73l-86 -33v-503l86 -32v-73zM188 931q82 0 127 -41.5t49 -111.5h-72q-4 42 -33 52t-72 10q-25 0 -48 -4.5t-39 -18t-19 -39.5h-73q5 68 53 110.5t127 42.5z" />
    <glyph glyph-name="uni020B" unicode="&#x20b;" horiz-adv-x="287" 
d="M207 0h-126v542h126v-542zM146 759q82 0 127 -41.5t49 -111.5h-72q-4 42 -33 52t-72 10q-25 0 -48 -4.5t-39 -18t-19 -39.5h-73q5 68 53 110.5t127 42.5z" />
    <glyph glyph-name="uni020C" unicode="&#x20c;" horiz-adv-x="790" 
d="M731 358q0 -111 -36.5 -193.5t-111.5 -128.5t-188 -46q-115 0 -189 46t-110.5 129t-36.5 194q0 110 36.5 192.5t111 128t189.5 45.5q113 0 187.5 -45.5t111 -128t36.5 -193.5zM194 358q0 -121 48.5 -190t152.5 -69q107 0 154 69t47 190t-47 190t-153 69
q-105 0 -153.5 -69t-48.5 -190zM459 938q16 -34 40 -76t45 -71v-13h-68q-22 18 -52 46.5t-56 57t-37 46.5v10h128zM272 938q16 -34 40 -76t45 -71v-13h-68q-23 18 -53 46.5t-56 57t-36 46.5v10h128z" />
    <glyph glyph-name="uni020D" unicode="&#x20d;" horiz-adv-x="614" 
d="M565 272q0 -135 -70 -208.5t-190 -73.5q-74 0 -132 33t-91 96t-33 153q0 135 69.5 207.5t189.5 72.5q75 0 133 -32.5t91 -95t33 -152.5zM178 272q0 -86 30.5 -133t98.5 -47q67 0 98 47t31 133t-31 132t-99 46t-98 -46t-30 -132zM371 766q16 -34 40 -76t45 -71v-13h-68
q-22 18 -52 46.5t-56 57t-37 46.5v10h128zM184 766q16 -34 40 -76t45 -71v-13h-68q-23 18 -53 46.5t-56 57t-36 46.5v10h128z" />
    <glyph glyph-name="uni020E" unicode="&#x20e;" horiz-adv-x="790" 
d="M731 358q0 -111 -36.5 -193.5t-111.5 -128.5t-188 -46q-115 0 -189 46t-110.5 129t-36.5 194q0 110 36.5 192.5t111 128t189.5 45.5q113 0 187.5 -45.5t111 -128t36.5 -193.5zM194 358q0 -121 48.5 -190t152.5 -69q107 0 154 69t47 190t-47 190t-153 69
q-105 0 -153.5 -69t-48.5 -190zM397 931q82 0 127 -41.5t49 -111.5h-72q-4 42 -33 52t-72 10q-25 0 -48 -4.5t-39 -18t-19 -39.5h-73q5 68 53 110.5t127 42.5z" />
    <glyph glyph-name="uni020F" unicode="&#x20f;" horiz-adv-x="614" 
d="M565 272q0 -135 -70 -208.5t-190 -73.5q-74 0 -132 33t-91 96t-33 153q0 135 69.5 207.5t189.5 72.5q75 0 133 -32.5t91 -95t33 -152.5zM178 272q0 -86 30.5 -133t98.5 -47q67 0 98 47t31 133t-31 132t-99 46t-98 -46t-30 -132zM309 759q82 0 127 -41.5t49 -111.5h-72
q-4 42 -33 52t-72 10q-25 0 -48 -4.5t-39 -18t-19 -39.5h-73q5 68 53 110.5t127 42.5z" />
    <glyph glyph-name="uni0210" unicode="&#x210;" horiz-adv-x="646" 
d="M296 714q141 0 208.5 -52t67.5 -158q0 -52 -19.5 -89t-51 -61.5t-66.5 -39.5l205 -314h-144l-171 282h-104v-282h-128v714h203zM288 607h-67v-220h71q80 0 115 28.5t35 84.5q0 58 -37.5 82.5t-116.5 24.5zM392 938q16 -34 40 -76t45 -71v-13h-68q-22 18 -52 46.5t-56 57
t-37 46.5v10h128zM205 938q16 -34 40 -76t45 -71v-13h-68q-23 18 -53 46.5t-56 57t-36 46.5v10h128z" />
    <glyph glyph-name="uni0211" unicode="&#x211;" horiz-adv-x="439" 
d="M365 552q13 0 29 -1.5t26 -3.5l-11 -117q-10 2 -24.5 3.5t-24.5 1.5q-40 0 -75 -16.5t-56.5 -50.5t-21.5 -87v-281h-126v542h97l18 -94h6q24 43 66 73.5t97 30.5zM313 766q16 -34 40 -76t45 -71v-13h-68q-22 18 -52 46.5t-56 57t-37 46.5v10h128zM126 766q16 -34 40 -76
t45 -71v-13h-68q-23 18 -53 46.5t-56 57t-36 46.5v10h128z" />
    <glyph glyph-name="uni0212" unicode="&#x212;" horiz-adv-x="646" 
d="M296 714q141 0 208.5 -52t67.5 -158q0 -52 -19.5 -89t-51 -61.5t-66.5 -39.5l205 -314h-144l-171 282h-104v-282h-128v714h203zM288 607h-67v-220h71q80 0 115 28.5t35 84.5q0 58 -37.5 82.5t-116.5 24.5zM330 931q82 0 127 -41.5t49 -111.5h-72q-4 42 -33 52t-72 10
q-25 0 -48 -4.5t-39 -18t-19 -39.5h-73q5 68 53 110.5t127 42.5z" />
    <glyph glyph-name="uni0213" unicode="&#x213;" horiz-adv-x="439" 
d="M365 552q13 0 29 -1.5t26 -3.5l-11 -117q-10 2 -24.5 3.5t-24.5 1.5q-40 0 -75 -16.5t-56.5 -50.5t-21.5 -87v-281h-126v542h97l18 -94h6q24 43 66 73.5t97 30.5zM251 759q82 0 127 -41.5t49 -111.5h-72q-4 42 -33 52t-72 10q-25 0 -48 -4.5t-39 -18t-19 -39.5h-73
q5 68 53 110.5t127 42.5z" />
    <glyph glyph-name="uni0214" unicode="&#x214;" horiz-adv-x="747" 
d="M659 714v-462q0 -74 -31.5 -133.5t-95.5 -94t-162 -34.5q-139 0 -211 72.5t-72 191.5v460h128v-447q0 -88 39.5 -128t119.5 -40q83 0 120.5 43.5t37.5 125.5v446h127zM437 938q16 -34 40 -76t45 -71v-13h-68q-22 18 -52 46.5t-56 57t-37 46.5v10h128zM250 938
q16 -34 40 -76t45 -71v-13h-68q-23 18 -53 46.5t-56 57t-36 46.5v10h128z" />
    <glyph glyph-name="uni0215" unicode="&#x215;" horiz-adv-x="642" 
d="M562 542v-542h-99l-17 70h-6q-26 -42 -72 -61t-97 -19q-91 0 -142.5 47t-51.5 151v354h126v-329q0 -61 24 -91t76 -30q76 0 104.5 48t28.5 137v265h126zM385 766q16 -34 40 -76t45 -71v-13h-68q-22 18 -52 46.5t-56 57t-37 46.5v10h128zM198 766q16 -34 40 -76t45 -71
v-13h-68q-23 18 -53 46.5t-56 57t-36 46.5v10h128z" />
    <glyph glyph-name="uni0216" unicode="&#x216;" horiz-adv-x="747" 
d="M659 714v-462q0 -74 -31.5 -133.5t-95.5 -94t-162 -34.5q-139 0 -211 72.5t-72 191.5v460h128v-447q0 -88 39.5 -128t119.5 -40q83 0 120.5 43.5t37.5 125.5v446h127zM375 931q82 0 127 -41.5t49 -111.5h-72q-4 42 -33 52t-72 10q-25 0 -48 -4.5t-39 -18t-19 -39.5h-73
q5 68 53 110.5t127 42.5z" />
    <glyph glyph-name="uni0217" unicode="&#x217;" horiz-adv-x="642" 
d="M562 542v-542h-99l-17 70h-6q-26 -42 -72 -61t-97 -19q-91 0 -142.5 47t-51.5 151v354h126v-329q0 -61 24 -91t76 -30q76 0 104.5 48t28.5 137v265h126zM323 759q82 0 127 -41.5t49 -111.5h-72q-4 42 -33 52t-72 10q-25 0 -48 -4.5t-39 -18t-19 -39.5h-73q5 68 53 110.5
t127 42.5z" />
    <glyph glyph-name="uni0218" unicode="&#x218;" horiz-adv-x="550" 
d="M508 195q0 -95 -69 -150t-191 -55q-118 0 -200 40v120q45 -20 99.5 -36.5t109.5 -16.5q65 0 94.5 25.5t29.5 65.5q0 44 -38 70.5t-111 57.5q-44 18 -84.5 44.5t-66 67t-25.5 101.5q0 91 64.5 143t172.5 52q56 0 106.5 -12t99.5 -34l-41 -103q-45 19 -85.5 30t-83.5 11
q-52 0 -79 -23t-27 -61q0 -29 15 -49.5t46.5 -37.5t81.5 -39q58 -25 98.5 -52.5t62 -65t21.5 -93.5zM340 -61v-10q-12 -31 -33.5 -72t-47.5 -78h-72v13q6 18 13 44.5t13 54t8 48.5h119z" />
    <glyph glyph-name="uni0219" unicode="&#x219;" horiz-adv-x="490" 
d="M450 157q0 -82 -58.5 -124.5t-167.5 -42.5q-57 0 -97.5 8t-78.5 25v107q40 -19 88.5 -32t91.5 -13q52 0 75 16t23 43q0 16 -9 28.5t-35 27.5t-79 37q-52 21 -86.5 42t-52 50t-17.5 75q0 73 58 110.5t153 37.5q50 0 94.5 -10t89.5 -30l-40 -93q-38 16 -74 27t-74 11
q-83 0 -83 -47q0 -17 10.5 -29t37 -25.5t75.5 -32.5q48 -19 83 -39.5t54 -50t19 -76.5zM322 -61v-10q-12 -31 -33.5 -72t-47.5 -78h-72v13q6 18 13 44.5t13 54t8 48.5h119z" />
    <glyph glyph-name="uni021A" unicode="&#x21a;" horiz-adv-x="570" 
d="M349 0h-128v606h-205v108h538v-108h-205v-606zM362 -61v-10q-12 -31 -33.5 -72t-47.5 -78h-72v13q6 18 13 44.5t13 54t8 48.5h119z" />
    <glyph glyph-name="uni021B" unicode="&#x21b;" horiz-adv-x="406" 
d="M291 91q23 0 45.5 4.5t41.5 10.5v-94q-20 -10 -52 -16t-67 -6q-47 0 -84.5 15t-59.5 53t-22 107v282h-73v55l80 44l40 115h79v-119h154v-95h-154v-281q0 -38 20.5 -56.5t51.5 -18.5zM307 -61v-10q-12 -31 -33.5 -72t-47.5 -78h-72v13q6 18 13 44.5t13 54t8 48.5h119z" />
    <glyph glyph-name="uni021C" unicode="&#x21c;" horiz-adv-x="609" 
d="M46 -180v112q116 27 191.5 56t118 60t60 66t17.5 75q0 53 -25.5 85t-70.5 54q-37 -14 -79.5 -25t-86.5 -21l-22 94q87 22 146.5 41.5t90 46t30.5 66.5q0 45 -32.5 68t-90.5 23q-56 0 -104.5 -16t-93.5 -43l-57 86q57 40 125.5 58t139.5 18q69 0 123.5 -20t85.5 -62
t31 -109q0 -51 -28.5 -90t-75.5 -67q49 -26 85.5 -70t36.5 -117q0 -93 -53.5 -161t-167.5 -118t-294 -90z" />
    <glyph glyph-name="uni021D" unicode="&#x21d;" horiz-adv-x="502" 
d="M24 -240v104q160 33 236.5 79.5t76.5 123.5q0 42 -17.5 69.5t-50.5 48.5q-29 -12 -63 -22t-71 -19l-23 90q82 21 127.5 41.5t63.5 44.5t18 54q0 40 -26 58.5t-68 18.5q-41 0 -78.5 -10.5t-72.5 -26.5l-39 91q43 24 91 35.5t100 11.5q60 0 108.5 -18t77 -56t28.5 -98
q0 -46 -21.5 -83t-61.5 -65q44 -22 72 -62t28 -103q0 -70 -32 -119.5t-91 -84.5t-138.5 -59.5t-173.5 -43.5z" />
    <glyph glyph-name="uni021E" unicode="&#x21e;" horiz-adv-x="756" 
d="M663 0h-128v317h-314v-317h-128v714h128v-288h314v288h128v-714zM308 778q-14 22 -36 49.5t-46 53t-42 44.5v13h84q26 -16 55 -38.5t55 -49.5q26 27 56.5 49.5t56.5 38.5h85v-13q-18 -19 -42.5 -44.5t-47 -53t-35.5 -49.5h-143z" />
    <glyph glyph-name="uni021F" unicode="&#x21f;" horiz-adv-x="642" 
d="M207 760v-181q0 -32 -2.5 -62.5t-4.5 -45.5h8q26 41 68 61t93 20q92 0 144 -47.5t52 -151.5v-353h-126v328q0 61 -24 91.5t-76 30.5q-76 0 -104 -48t-28 -137v-265h-126v760h126zM75 824q-14 22 -36 49.5t-46 53t-42 44.5v13h84q26 -16 55 -38.5t55 -49.5
q26 27 56.5 49.5t56.5 38.5h85v-13q-18 -19 -42.5 -44.5t-47 -53t-35.5 -49.5h-143z" />
    <glyph glyph-name="uni0220" unicode="&#x220;" horiz-adv-x="753" 
d="M430 725q107 0 171.5 -59t64.5 -189v-717h-128v694q0 82 -34 122.5t-108 40.5q-98 0 -136.5 -59t-38.5 -163v-395h-128v714h98l21 -92h4q33 49 91 76t123 27z" />
    <glyph glyph-name="uni0221" unicode="&#x221;" horiz-adv-x="865" 
d="M588 -105l-102 5q3 38 8.5 71t12.5 61q-19 12 -29 26t-13 27h-5q-24 -41 -66.5 -68t-120.5 -27q-104 0 -164 69.5t-60 210.5q0 140 59 211t155 71q60 0 98.5 -23t61.5 -56h6q-1 3 -3 20t-4 38.5t-2 38.5v190h126v-542q0 -44 10 -71q34 52 78 74t93 21q66 -1 100.5 -31.5
t34.5 -75.5q0 -36 -19 -66.5t-63 -49.5t-121 -19q-17 0 -31 1t-27 3q-5 -23 -8 -51t-5 -58zM298 92q70 0 98.5 40t29.5 121v16q0 87 -27.5 133.5t-102.5 46.5q-58 0 -88.5 -47.5t-30.5 -133.5t31 -131t90 -45zM669 88q49 0 69 10t20 28q0 11 -11 19t-30 8q-56 0 -87 -61
q9 -2 18.5 -3t20.5 -1z" />
    <glyph glyph-name="uni0222" unicode="&#x222;" horiz-adv-x="730" 
d="M364 -10q-149 0 -229 68t-80 184q0 74 36.5 126t106.5 78q-60 28 -84.5 76.5t-24.5 116.5v75h128v-74q0 -66 35.5 -105.5t113.5 -39.5q77 0 112 39.5t35 105.5v74h128v-74q0 -68 -25 -117t-85 -78q144 -52 144 -202q0 -116 -78.5 -184.5t-232.5 -68.5zM365 99
q92 0 133.5 38.5t41.5 105.5q0 68 -41.5 106t-133.5 38t-133.5 -38t-41.5 -106q0 -67 42 -105.5t133 -38.5z" />
    <glyph glyph-name="uni0223" unicode="&#x223;" horiz-adv-x="617" 
d="M307 -10q-75 0 -133.5 29.5t-92.5 86.5t-34 139q0 79 33.5 131t98.5 78q-55 23 -78 71t-23 125v110h126v-109q0 -74 23.5 -110.5t80.5 -36.5t80.5 36t23.5 110v110h126v-111q0 -77 -24 -125t-80 -71q64 -25 100 -76.5t36 -130.5q0 -82 -33 -139.5t-92 -87t-138 -29.5z
M309 92q66 0 99 40t33 115t-32.5 115t-100.5 40t-100 -40.5t-32 -115.5t32.5 -114.5t100.5 -39.5z" />
    <glyph glyph-name="uni0224" unicode="&#x224;" horiz-adv-x="576" 
d="M547 0h-518v87l355 519h-345v108h498v-87l-354 -519h364v-108zM395 -224q-22 0 -43 4t-35 8v100q12 -4 25 -6.5t29 -2.5q24 0 40 15.5t16 56.5v49h-10v108h129v-169q0 -71 -35.5 -117t-115.5 -46z" />
    <glyph glyph-name="uni0225" unicode="&#x225;" horiz-adv-x="481" 
d="M440 542v-85l-261 -360h269v-161q0 -154 -133 -154q-21 0 -40 4t-32 9v92q10 -4 22.5 -6.5t26.5 -2.5q23 0 36 12.5t13 43.5v66h-309v77l266 369h-251v96h393z" />
    <glyph glyph-name="uni0226" unicode="&#x226;" horiz-adv-x="671" 
d="M534 0l-65 189h-269l-64 -189h-136l262 717h146l262 -717h-136zM436 299l-62 184q-4 13 -12 37.5t-15 50t-12 42.5q-5 -21 -12.5 -47t-14 -49t-10.5 -34l-63 -184h201zM337 923q28 0 49 -14.5t21 -51.5t-21 -52t-49 -15q-29 0 -49.5 15t-20.5 52t20.5 51.5t49.5 14.5z
" />
    <glyph glyph-name="uni0227" unicode="&#x227;" horiz-adv-x="588" 
d="M297 552q105 0 159.5 -46t54.5 -142v-364h-89l-25 75h-4q-35 -44 -74 -64.5t-106 -20.5q-73 0 -121 41t-48 127q0 84 61.5 126t186.5 47l94 3v27q0 52 -25 74t-70 22q-41 0 -78.5 -11.5t-74.5 -28.5l-40 88q40 21 91.5 34t107.5 13zM386 256l-66 -2q-83 -3 -115 -28.5
t-32 -68.5q0 -39 22.5 -55.5t59.5 -16.5q55 0 93 31.5t38 93.5v46zM296 751q28 0 49 -14.5t21 -51.5t-21 -52t-49 -15q-29 0 -49.5 15t-20.5 52t20.5 51.5t49.5 14.5z" />
    <glyph glyph-name="uni0228" unicode="&#x228;" horiz-adv-x="558" 
d="M499 0h-406v714h406v-107h-278v-182h260v-107h-260v-210h278v-108zM412 -128q0 -53 -34.5 -82.5t-115.5 -29.5q-37 0 -63 8v72q12 -3 30.5 -5.5t33.5 -2.5q22 0 35.5 7.5t13.5 27.5q0 42 -84 54l39 79h81l-18 -39q32 -9 57 -30.5t25 -58.5z" />
    <glyph glyph-name="uni0229" unicode="&#x229;" horiz-adv-x="581" 
d="M299 552q109 0 172.5 -65t63.5 -181v-64h-358q2 -74 41 -114.5t108 -40.5q52 0 94 10.5t86 30.5v-101q-40 -19 -83 -28t-103 -9q-80 0 -141 30.5t-95.5 92t-34.5 154.5q0 139 68.5 212t181.5 73zM299 459q-51 0 -82.5 -32.5t-36.5 -96.5h233q-1 56 -28.5 92.5t-85.5 36.5
zM408 -128q0 -53 -34.5 -82.5t-115.5 -29.5q-37 0 -63 8v72q12 -3 30.5 -5.5t33.5 -2.5q22 0 35.5 7.5t13.5 27.5q0 42 -84 54l39 79h81l-18 -39q32 -9 57 -30.5t25 -58.5z" />
    <glyph glyph-name="uni022A" unicode="&#x22a;" horiz-adv-x="790" 
d="M731 358q0 -111 -36.5 -193.5t-111.5 -128.5t-188 -46q-115 0 -189 46t-110.5 129t-36.5 194q0 110 36.5 192.5t111 128t189.5 45.5q113 0 187.5 -45.5t111 -128t36.5 -193.5zM194 358q0 -121 48.5 -190t152.5 -69q107 0 154 69t47 190t-47 190t-153 69
q-105 0 -153.5 -69t-48.5 -190zM554 1020v-85h-318v85h318zM298 884q24 0 40.5 -14t16.5 -42t-16.5 -42t-40.5 -14q-25 0 -41 14t-16 42t16 42t41 14zM491 884q25 0 41.5 -14t16.5 -42t-16.5 -42t-41.5 -14t-41 14t-16 42t16 42t41 14z" />
    <glyph glyph-name="uni022B" unicode="&#x22b;" horiz-adv-x="614" 
d="M565 272q0 -135 -70 -208.5t-190 -73.5q-74 0 -132 33t-91 96t-33 153q0 135 69.5 207.5t189.5 72.5q75 0 133 -32.5t91 -95t33 -152.5zM178 272q0 -86 30.5 -133t98.5 -47q67 0 98 47t31 133t-31 132t-99 46t-98 -46t-30 -132zM466 848v-85h-318v85h318zM210 712
q24 0 40.5 -14t16.5 -42t-16.5 -42t-40.5 -14q-25 0 -41 14t-16 42t16 42t41 14zM403 712q25 0 41.5 -14t16.5 -42t-16.5 -42t-41.5 -14t-41 14t-16 42t16 42t41 14z" />
    <glyph glyph-name="uni022C" unicode="&#x22c;" horiz-adv-x="790" 
d="M731 358q0 -111 -36.5 -193.5t-111.5 -128.5t-188 -46q-115 0 -189 46t-110.5 129t-36.5 194q0 110 36.5 192.5t111 128t189.5 45.5q113 0 187.5 -45.5t111 -128t36.5 -193.5zM194 358q0 -121 48.5 -190t152.5 -69q107 0 154 69t47 190t-47 190t-153 69
q-105 0 -153.5 -69t-48.5 -190zM236 935v85h318v-85h-318zM224 778q5 50 30 82t71 32q30 0 54.5 -11.5t46 -22.5t40.5 -11q20 0 29.5 12t14.5 34h57q-5 -50 -29.5 -82.5t-72.5 -32.5q-27 0 -51.5 11t-46.5 22.5t-41 11.5q-20 0 -29.5 -11.5t-15.5 -33.5h-57z" />
    <glyph glyph-name="uni022D" unicode="&#x22d;" horiz-adv-x="614" 
d="M565 272q0 -135 -70 -208.5t-190 -73.5q-74 0 -132 33t-91 96t-33 153q0 135 69.5 207.5t189.5 72.5q75 0 133 -32.5t91 -95t33 -152.5zM178 272q0 -86 30.5 -133t98.5 -47q67 0 98 47t31 133t-31 132t-99 46t-98 -46t-30 -132zM148 763v85h318v-85h-318zM136 606
q5 50 30 82t71 32q30 0 54.5 -11.5t46 -22.5t40.5 -11q20 0 29.5 12t14.5 34h57q-5 -50 -29.5 -82.5t-72.5 -32.5q-27 0 -51.5 11t-46.5 22.5t-41 11.5q-20 0 -29.5 -11.5t-15.5 -33.5h-57z" />
    <glyph glyph-name="uni022E" unicode="&#x22e;" horiz-adv-x="790" 
d="M731 358q0 -111 -36.5 -193.5t-111.5 -128.5t-188 -46q-115 0 -189 46t-110.5 129t-36.5 194q0 110 36.5 192.5t111 128t189.5 45.5q113 0 187.5 -45.5t111 -128t36.5 -193.5zM194 358q0 -121 48.5 -190t152.5 -69q107 0 154 69t47 190t-47 190t-153 69
q-105 0 -153.5 -69t-48.5 -190zM398 923q28 0 49 -14.5t21 -51.5t-21 -52t-49 -15q-29 0 -49.5 15t-20.5 52t20.5 51.5t49.5 14.5z" />
    <glyph glyph-name="uni022F" unicode="&#x22f;" horiz-adv-x="614" 
d="M565 272q0 -135 -70 -208.5t-190 -73.5q-74 0 -132 33t-91 96t-33 153q0 135 69.5 207.5t189.5 72.5q75 0 133 -32.5t91 -95t33 -152.5zM178 272q0 -86 30.5 -133t98.5 -47q67 0 98 47t31 133t-31 132t-99 46t-98 -46t-30 -132zM310 751q28 0 49 -14.5t21 -51.5t-21 -52
t-49 -15q-29 0 -49.5 15t-20.5 52t20.5 51.5t49.5 14.5z" />
    <glyph glyph-name="uni0230" unicode="&#x230;" horiz-adv-x="790" 
d="M731 358q0 -111 -36.5 -193.5t-111.5 -128.5t-188 -46q-115 0 -189 46t-110.5 129t-36.5 194q0 110 36.5 192.5t111 128t189.5 45.5q113 0 187.5 -45.5t111 -128t36.5 -193.5zM194 358q0 -121 48.5 -190t152.5 -69q107 0 154 69t47 190t-47 190t-153 69
q-105 0 -153.5 -69t-48.5 -190zM554 1013v-85h-318v85h318zM395 884q26 0 42.5 -14.5t16.5 -44.5q0 -29 -16.5 -44t-42.5 -15t-42 15t-16 44q0 30 16 44.5t42 14.5z" />
    <glyph glyph-name="uni0231" unicode="&#x231;" horiz-adv-x="614" 
d="M565 272q0 -135 -70 -208.5t-190 -73.5q-74 0 -132 33t-91 96t-33 153q0 135 69.5 207.5t189.5 72.5q75 0 133 -32.5t91 -95t33 -152.5zM178 272q0 -86 30.5 -133t98.5 -47q67 0 98 47t31 133t-31 132t-99 46t-98 -46t-30 -132zM466 848v-84h-318v84h318zM307 719
q25 0 42 -14.5t17 -44.5q0 -28 -17 -43t-42 -15q-26 0 -42.5 15t-16.5 43q0 30 16.5 44.5t42.5 14.5z" />
    <glyph glyph-name="uni0232" unicode="&#x232;" horiz-adv-x="602" 
d="M301 399l163 315h138l-237 -436v-278h-128v273l-237 441h139zM460 869v-91h-318v91h318z" />
    <glyph glyph-name="uni0233" unicode="&#x233;" horiz-adv-x="547" 
d="M0 542h137l108 -306q11 -29 18 -57.5t10 -56.5h4q4 26 12 55.5t18 58.5l104 306h136l-231 -614q-31 -81 -84.5 -124.5t-131.5 -43.5q-25 0 -43.5 2.5t-31.5 5.5v100q11 -2 26.5 -4t32.5 -2q46 0 74 27.5t43 68.5l16 44zM433 697v-91h-318v91h318z" />
    <glyph glyph-name="uni0234" unicode="&#x234;" horiz-adv-x="415" 
d="M95 -34l-69 33q30 67 62 113q-5 16 -6 39.5t-1 49.5v559h126v-536q14 8 33.5 12.5t39.5 4.5q63 0 97 -32.5t34 -90.5q0 -57 -38 -92.5t-112 -35.5q-91 0 -131 45q-17 -28 -35 -69zM269 71q24 0 36.5 12.5t12.5 32.5q0 44 -50 44q-34 0 -61 -24q2 -30 17 -47.5t45 -17.5z
" />
    <glyph glyph-name="uni0235" unicode="&#x235;" horiz-adv-x="761" 
d="M441 -34l-68 33q14 34 29.5 62.5t31.5 50.5q-4 16 -5.5 38t-1.5 48v130q0 61 -22.5 91.5t-72.5 30.5q-72 0 -98.5 -48t-26.5 -137v-265h-126v542h97l18 -71h7q25 42 69 61.5t93 19.5q88 0 138 -47t50 -152v-129q14 8 33.5 12.5t39.5 4.5q63 0 97 -33.5t34 -91.5
t-38.5 -92t-111.5 -34q-89 0 -132 45q-9 -15 -16.5 -32t-17.5 -37zM615 71q25 0 37 12.5t12 32.5q0 22 -13.5 33t-36.5 11q-34 0 -61 -24q2 -30 17 -47.5t45 -17.5z" />
    <glyph glyph-name="uni0236" unicode="&#x236;" horiz-adv-x="427" 
d="M108 -34l-69 33q15 34 30 62.5t32 50.5q-5 17 -6.5 40.5t-1.5 50.5v244h-73v55l80 44l40 115h79v-119h154v-95h-154v-223q14 8 33.5 12.5t39.5 4.5q64 0 97.5 -33.5t33.5 -91.5t-37.5 -92t-111.5 -34q-90 0 -132 45q-9 -15 -17 -32t-17 -37zM282 71q25 0 37 12.5t12 32.5
q0 44 -51 44q-34 0 -61 -24q2 -30 17 -47.5t46 -17.5z" />
    <glyph glyph-name="uni0237" unicode="&#x237;" horiz-adv-x="287" 
d="M29 -240q-25 0 -49 3.5t-41 8.5v100q17 -4 33 -7t36 -3q31 0 52 17t21 67v596h126v-609q0 -75 -41.5 -124t-136.5 -49z" />
    <glyph glyph-name="uni0238" unicode="&#x238;" horiz-adv-x="965" 
d="M293 -10q-111 0 -177.5 70t-66.5 211q0 139 58.5 210t152.5 71q61 0 99 -23t61 -57h6q-2 19 -4 46.5t-2 60.5v181h126v-180q0 -33 -2 -61t-4 -48h6q22 34 60 57.5t99 23.5q95 0 153 -71t58 -210q0 -141 -68.5 -211t-179.5 -70q-129 0 -187 104q-29 -52 -77 -78t-111 -26z
M299 92q121 0 121 181q0 90 -27.5 134t-97.5 44q-56 0 -86.5 -47t-30.5 -134q0 -91 30.5 -134.5t90.5 -43.5zM667 92q60 0 90 44t30 135q0 90 -30.5 134.5t-87.5 44.5q-68 0 -95.5 -43t-27.5 -134q0 -94 29.5 -137.5t91.5 -43.5z" />
    <glyph glyph-name="uni0239" unicode="&#x239;" horiz-adv-x="965" 
d="M672 552q111 0 177.5 -70t66.5 -211q0 -139 -58 -210t-153 -71q-61 0 -99 23.5t-60 56.5h-6q2 -19 4 -46t2 -61v-203h-126v202q0 33 2 61t3 48h-5q-22 -34 -60.5 -57.5t-99.5 -23.5q-94 0 -152.5 71t-58.5 210q0 141 68.5 211t179.5 70q129 0 187 -104q29 52 77 78
t111 26zM299 450q-61 0 -91 -44t-30 -135q0 -90 30.5 -134.5t87.5 -44.5q69 0 96.5 43t27.5 134q0 94 -30 137.5t-91 43.5zM666 450q-121 0 -121 -181q0 -90 27.5 -133.5t97.5 -43.5q56 0 86.5 46.5t30.5 133.5q0 91 -30 134.5t-91 43.5z" />
    <glyph glyph-name="uni023A" unicode="&#x23a;" horiz-adv-x="671" 
d="M534 0l-65 189h-141l-92 -264h-85l92 264h-43l-64 -189h-136l262 717h146l9 -25l24 68h85l-65 -188l209 -572h-136zM235 299h46l79 228q-7 22 -14 46t-11 40q-5 -21 -12.5 -47t-14 -49t-10.5 -34zM436 299l-35 102l-35 -102h70z" />
    <glyph glyph-name="uni023B" unicode="&#x23b;" horiz-adv-x="635" 
d="M566 760l-21 -60q30 -10 57 -23l-44 -105q-12 6 -24.5 11t-25.5 10l-170 -489q27 -6 58 -6q45 0 88.5 9.5t89.5 25.5v-109q-44 -18 -88.5 -26t-102.5 -8q-44 0 -82 8l-25 -73h-86l34 98q-84 41 -124.5 128t-40.5 206q0 108 39 190.5t114.5 129.5t184.5 47q34 0 69 -5
l14 41h86zM397 616q-97 0 -151 -69.5t-54 -190.5q0 -73 18 -127.5t55 -87.5l164 473q-16 2 -32 2z" />
    <glyph glyph-name="uni023C" unicode="&#x23c;" horiz-adv-x="501" 
d="M300 -10q-35 0 -65 6l-73 -204h-86l83 231q-53 31 -81.5 91.5t-28.5 153.5q0 100 33.5 162.5t92.5 92t135 29.5q19 0 37 -2l75 210h85l-80 -225q23 -7 42 -17l-37 -99q-10 4 -20.5 7.5t-20.5 6.5l-120 -335q17 -4 37 -4q45 0 80.5 11t66.5 30v-109q-31 -19 -67 -27.5
t-88 -8.5zM178 269q0 -76 26 -119l106 298v0q-132 0 -132 -179z" />
    <glyph glyph-name="uni023D" unicode="&#x23d;" horiz-adv-x="550" 
d="M93 0v306h-75v104h75v304h128v-304h136v-104h-136v-198h298v-108h-426z" />
    <glyph glyph-name="uni023E" unicode="&#x23e;" horiz-adv-x="570" 
d="M349 0h-128v84l-80 -159h-77l157 312v369h-205v108h445l23 46h76l-23 -46h17v-108h-71l-134 -266v-340zM349 606v-114l58 114h-58z" />
    <glyph glyph-name="uni023F" unicode="&#x23f;" horiz-adv-x="490" 
d="M350 -240q-56 0 -91 18.5t-56.5 53t-37.5 82.5q-13 38 -30 60t-52 35q-17 5 -35 15v106q40 -19 88.5 -32t91.5 -13q52 0 75 16t23 43q0 16 -9 28.5t-35 27.5t-79 37q-52 21 -86.5 42t-52 50t-17.5 75q0 73 58 110.5t153 37.5q50 0 94.5 -10t89.5 -30l-40 -93
q-38 16 -74 27t-74 11q-83 0 -83 -47q0 -17 10.5 -29t37 -25.5t75.5 -32.5q48 -19 83 -39.5t54 -50t19 -76.5q0 -77 -52 -119t-150 -47q8 -11 15 -25t12 -28q16 -43 39 -59.5t58 -16.5q37 0 65 11v-100q-13 -5 -38 -9t-49 -4z" />
    <glyph glyph-name="uni0240" unicode="&#x240;" horiz-adv-x="481" 
d="M391 -240q-63 0 -101 20t-60 54.5t-36 79.5q-14 43 -37 64.5t-76 21.5h-49v77l266 369h-251v96h393v-85l-268 -368q56 -12 86 -49t46 -85q19 -51 43.5 -72t64.5 -21q18 0 34 3t31 7v-99q-33 -13 -86 -13z" />
    <glyph glyph-name="uni0241" unicode="&#x241;" horiz-adv-x="467" 
d="M209 725q71 0 123 -26t79.5 -71.5t27.5 -105.5q0 -81 -46 -145t-142 -111v-266h-127v324q103 34 144.5 87t41.5 107q0 45 -29.5 73.5t-81.5 28.5q-42 0 -84 -16t-67 -32l-45 94q43 26 95 42.5t111 16.5z" />
    <glyph glyph-name="uni0242" unicode="&#x242;" horiz-adv-x="469" 
d="M209 552q107 0 165.5 -56t58.5 -146q0 -79 -44 -143t-140 -111v-96h-126v153q69 23 109 54t57 67t17 71q0 49 -29 77t-79 28q-42 0 -81.5 -16t-64.5 -32l-46 91q44 26 94 42.5t109 16.5z" />
    <glyph glyph-name="uni0243" unicode="&#x243;" horiz-adv-x="664" 
d="M93 0v170h-81v90h81v454h215q139 0 210.5 -40t71.5 -139q0 -62 -31 -103.5t-89 -52.5v-5q39 -8 70.5 -26t50.5 -52.5t19 -90.5q0 -97 -69 -151t-187 -54h-261zM221 423h104q76 0 104.5 24.5t28.5 70.5q0 48 -34.5 69t-108.5 21h-94v-185zM221 107h116q78 0 108.5 30.5
t30.5 79.5q0 47 -31.5 75t-113.5 28h-110v-60h126v-90h-126v-63z" />
    <glyph glyph-name="uni0244" unicode="&#x244;" horiz-adv-x="747" 
d="M4 340v106h83v268h128v-268h317v268h127v-268h84v-106h-84v-88q0 -74 -31.5 -133.5t-95.5 -94t-162 -34.5q-139 0 -211 72.5t-72 191.5v86h-83zM215 267q0 -88 39.5 -128t119.5 -40q83 0 120.5 43.5t37.5 125.5v72h-317v-73z" />
    <glyph glyph-name="uni0245" unicode="&#x245;" horiz-adv-x="634" 
d="M386 714l248 -714h-131l-143 437q-7 21 -15.5 50.5t-16.5 59.5t-12 51q-4 -22 -11.5 -52t-15.5 -59.5t-15 -49.5l-143 -437h-131l247 714h139z" />
    <glyph glyph-name="uni0246" unicode="&#x246;" horiz-adv-x="558" 
d="M499 0h-219l-19 -75h-84l19 75h-103v714h285l12 46h84l-12 -46h37v-107h-64l-46 -182h92v-107h-120l-53 -210h191v-108zM221 425h84l46 182h-130v-182zM221 108h3l53 210h-56v-210z" />
    <glyph glyph-name="uni0247" unicode="&#x247;" horiz-adv-x="581" 
d="M299 552q22 0 42 -3l73 211h86l-81 -234q55 -28 85.5 -84t30.5 -136v-64h-214l-51 -147q25 -8 56 -8q52 0 94 10.5t86 30.5v-101q-40 -19 -83 -28t-103 -9q-44 0 -83 10l-72 -208h-86l83 239q-53 32 -83 91t-30 145q0 139 68.5 212t181.5 73zM299 459q-51 0 -82.5 -32.5
t-36.5 -96.5h85l45 129h-11zM413 330q-1 60 -29 94l-33 -94h62zM177 242q2 -56 25 -94l33 94h-58z" />
    <glyph glyph-name="uni0248" unicode="&#x248;" horiz-adv-x="309" 
d="M8 -202q-28 0 -48.5 3t-35.5 8v107q16 -4 34 -7t38 -3q26 0 47.5 10t34.5 37t13 77v272h-87v107h87v305h128v-305h86v-107h-86v-269q0 -125 -58.5 -180t-152.5 -55z" />
    <glyph glyph-name="uni0249" unicode="&#x249;" horiz-adv-x="287" 
d="M74 685q0 37 20.5 51.5t49.5 14.5q28 0 49 -14.5t21 -51.5t-21 -52t-49 -15q-29 0 -49.5 15t-20.5 52zM29 -240q-25 0 -49 3.5t-41 8.5v100q17 -4 33 -7t36 -3q31 0 52 17t21 67v291h-77v87h77v218h126v-218h77v-87h-77v-304q0 -75 -41.5 -124t-136.5 -49z" />
    <glyph glyph-name="uni024A" unicode="&#x24a;" horiz-adv-x="772" 
d="M344 725q72 0 123.5 -26.5t79.5 -66.5h5l15 82h112v-782q0 -37 15.5 -52.5t41.5 -15.5q15 0 28.5 3t22.5 7v-100q-11 -5 -31 -9.5t-42 -4.5q-76 0 -119.5 39.5t-43.5 129.5v60q0 28 0.5 49.5t1.5 49.5h-6q-30 -44 -80 -71t-126 -27q-85 0 -148 43t-98.5 125t-35.5 199
t35.5 199t99.5 125.5t150 43.5zM368 616q-80 0 -127 -67.5t-47 -192.5q0 -128 47.5 -192.5t129.5 -64.5q99 0 139.5 59.5t40.5 168.5v78q0 65 -17 112.5t-56.5 73t-109.5 25.5z" />
    <glyph glyph-name="uni024B" unicode="&#x24b;" horiz-adv-x="626" 
d="M262 552q62 0 100 -23.5t62 -57.5h4l13 71h105v-607q0 -40 13 -57t38 -17q17 0 29.5 3.5t23.5 7.5v-97q-14 -7 -36 -11t-47 -4q-147 0 -147 173v46q0 20 1.5 46t3.5 46h-6q-22 -34 -60.5 -57.5t-99.5 -23.5q-94 0 -152 70.5t-58 209.5t59.5 210.5t153.5 71.5zM297 449
q-61 0 -90 -47.5t-29 -133.5q0 -87 29.5 -132.5t91.5 -45.5q69 0 97 40t30 121v18q0 88 -28 134t-101 46z" />
    <glyph glyph-name="uni024C" unicode="&#x24c;" horiz-adv-x="646" 
d="M296 714q141 0 208.5 -52t67.5 -158q0 -52 -19.5 -89t-51 -61.5t-66.5 -39.5l205 -314h-144l-171 282h-104v-282h-128v282h-83v105h83v327h203zM288 607h-67v-220h71q80 0 115 28.5t35 84.5q0 58 -37.5 82.5t-116.5 24.5z" />
    <glyph glyph-name="uni024D" unicode="&#x24d;" horiz-adv-x="439" 
d="M321 319v-87h-114v-232h-126v232h-77v87h77v223h97l18 -94h6q24 43 66 73.5t97 30.5q13 0 29 -1.5t26 -3.5l-11 -117q-10 2 -24.5 3.5t-24.5 1.5q-52 0 -95 -28.5t-54 -87.5h110z" />
    <glyph glyph-name="uni024E" unicode="&#x24e;" horiz-adv-x="602" 
d="M598 607v-90h-103l-130 -239v-278h-128v273l-131 244h-102v90h54l-58 107h139l55 -107h215l55 107h138l-58 -107h54zM301 399l61 118h-122z" />
    <glyph glyph-name="uni024F" unicode="&#x24f;" horiz-adv-x="547" 
d="M0 542h137l59 -167h158l57 167h136l-63 -167h53v-87h-86l-135 -360q-31 -81 -84.5 -124.5t-131.5 -43.5q-25 0 -43.5 2.5t-31.5 5.5v100q11 -2 26.5 -4t32.5 -2q46 0 74 27.5t43 68.5l16 44l-115 286h-92v87h57zM273 122h4q4 26 12 55.5t18 58.5l18 52h-98l18 -52
q11 -29 18 -57.5t10 -56.5z" />
    <glyph glyph-name="uni0250" unicode="&#x250;" horiz-adv-x="588" 
d="M291 -10q-105 0 -159.5 46t-54.5 142v364h89l25 -75h4q35 44 74 64.5t106 20.5q73 0 121 -41t48 -127q0 -84 -61.5 -126t-186.5 -47l-94 -3v-27q0 -52 25 -74t70 -22q41 0 78.5 11.5t74.5 28.5l40 -88q-40 -21 -91.5 -34t-107.5 -13zM202 286l66 2q83 3 115 28.5t32 68.5
q0 39 -22.5 55.5t-59.5 16.5q-55 0 -93 -31.5t-38 -93.5v-46z" />
    <glyph glyph-name="uni0251" unicode="&#x251;" horiz-adv-x="626" 
d="M260 -10q-94 0 -152.5 70.5t-58.5 209.5q0 140 59 211t155 71q60 0 98.5 -23t61.5 -56h4l14 69h105v-542h-98l-23 71h-5q-23 -34 -61 -57.5t-99 -23.5zM298 90q70 0 99 40.5t29 122.5v16q0 87 -27.5 133.5t-102.5 46.5q-58 0 -88.5 -46.5t-30.5 -134.5q0 -178 121 -178z
" />
    <glyph glyph-name="uni0252" unicode="&#x252;" horiz-adv-x="626" 
d="M366 552q94 0 152.5 -70.5t58.5 -209.5q0 -140 -59 -211t-155 -71q-60 0 -98.5 23t-61.5 56h-4l-14 -69h-105v542h98l23 -71h5q23 34 61 57.5t99 23.5zM328 452q-70 0 -99 -40.5t-29 -122.5v-16q0 -87 27.5 -133.5t102.5 -46.5q58 0 88.5 46.5t30.5 134.5q0 178 -121 178
z" />
    <glyph glyph-name="uni0253" unicode="&#x253;" horiz-adv-x="626" 
d="M235 765q23 0 43 -4.5t31 -9.5v-99q-7 3 -22 6.5t-32 3.5q-23 0 -35 -13t-13 -44v-25q0 -29 -2 -57.5t-4 -51.5h6q22 34 60 57.5t99 23.5q94 0 152.5 -71t58.5 -209q0 -140 -59 -211t-155 -71q-61 0 -97.5 22t-58.5 51h-9l-23 -63h-94v605q0 83 41.5 121.5t112.5 38.5z
M330 450q-68 0 -95 -42t-28 -131q0 -91 26.5 -137.5t98.5 -46.5q56 0 86 46.5t30 133.5q0 89 -30.5 133t-87.5 44z" />
    <glyph glyph-name="uni0254" unicode="&#x254;" horiz-adv-x="501" 
d="M200 552q116 0 184 -66.5t68 -209.5q0 -145 -71 -215.5t-187 -70.5q-50 0 -85.5 8.5t-67.5 27.5v109q32 -19 67 -30t79 -11q65 0 100.5 46t35.5 134q0 89 -35.5 132t-101.5 43q-29 0 -59.5 -8.5t-58.5 -21.5l-36 99q29 15 72.5 24.5t95.5 9.5z" />
    <glyph glyph-name="uni0255" unicode="&#x255;" horiz-adv-x="543" 
d="M320 552q52 0 91 -10t67 -24l-37 -99q-30 12 -60.5 20.5t-60.5 8.5q-140 0 -140 -179q0 -32 7 -61q31 30 72.5 48t89.5 18q74 0 115.5 -36.5t41.5 -96.5q0 -54 -27 -87.5t-71 -48.5t-93 -15q-100 0 -160 42q-11 -20 -19.5 -39t-16.5 -44l-72 32q22 59 51 109
q-23 35 -35 78.5t-12 99.5q0 100 34 162.5t94.5 92t140.5 29.5zM341 191q-37 0 -68 -17.5t-54 -43.5q34 -45 104 -45q37 0 61 16t24 42q0 20 -16 34t-51 14z" />
    <glyph glyph-name="uni0256" unicode="&#x256;" horiz-adv-x="626" 
d="M570 -240q-150 0 -150 173v46q0 23 2 48t4 43h-6q-23 -33 -61 -56.5t-99 -23.5q-94 0 -152.5 70.5t-58.5 209.5q0 140 59 211t155 71q60 0 98.5 -23t61.5 -56h6q-1 3 -3 20t-4 38.5t-2 38.5v190h126v-825q0 -40 14 -57t40 -17q17 0 30.5 3.5t25.5 7.5v-97q-14 -7 -37 -11
t-49 -4zM298 92q70 0 98.5 40t29.5 121v16q0 87 -27.5 133.5t-102.5 46.5q-58 0 -88.5 -47.5t-30.5 -133.5t31 -131t90 -45z" />
    <glyph glyph-name="uni0257" unicode="&#x257;" horiz-adv-x="626" 
d="M260 -10q-94 0 -152.5 70.5t-58.5 209.5q0 140 59 211t155 71q60 0 98.5 -23t61.5 -56h6q-1 3 -3 19.5t-4 38t-2 39.5v35q0 83 38 122t115 39q25 0 46 -5t31 -9v-99q-8 3 -22 6.5t-31 3.5q-23 0 -37 -14t-14 -45v-604h-98l-23 71h-5q-23 -34 -61 -57.5t-99 -23.5zM298 92
q70 0 98.5 40t29.5 121v16q0 87 -27.5 133.5t-102.5 46.5q-58 0 -88.5 -47.5t-30.5 -133.5t31 -131t90 -45z" />
    <glyph glyph-name="uni0258" unicode="&#x258;" horiz-adv-x="581" 
d="M282 552q-109 0 -172.5 -65t-63.5 -181v-64h358q-2 -74 -41 -114.5t-108 -40.5q-52 0 -94 10.5t-86 30.5v-101q40 -19 83 -28t103 -9q80 0 141 30.5t95.5 92t34.5 154.5q0 139 -68.5 212t-181.5 73zM282 459q51 0 82.5 -32.5t36.5 -96.5h-233q1 56 28.5 92.5t85.5 36.5z
" />
    <glyph glyph-name="uni0259" unicode="&#x259;" horiz-adv-x="581" 
d="M260 552q80 0 141.5 -30.5t96 -92t34.5 -154.5t-31.5 -156.5t-88 -96t-130.5 -32.5q-110 0 -173 65t-63 181v65h358q-2 73 -41 113.5t-109 40.5q-52 0 -94 -10.5t-86 -30.5v101q41 19 83.5 28t102.5 9zM401 213h-233q1 -57 28.5 -93.5t85.5 -36.5q51 0 82.5 32.5
t36.5 97.5z" />
    <glyph glyph-name="uni025A" unicode="&#x25a;" horiz-adv-x="817" 
d="M286 -10q-111 0 -175 65t-64 184l361 98q-27 118 -149 118q-53 0 -95.5 -10.5t-87.5 -30.5v101q41 19 84 28t104 9q98 0 168.5 -45.5t94.5 -136.5l112 32l15 -55q13 -46 26.5 -64t35.5 -18q21 0 39.5 7.5t34.5 18.5l27 -79q-23 -17 -52.5 -28.5t-62.5 -11.5
q-46 0 -79.5 27.5t-53.5 92.5l-30 -9q0 -87 -27 -153t-82.5 -103t-143.5 -37zM285 83q69 0 98 47t29 121l-241 -65q3 -26 15.5 -49.5t36.5 -38.5t62 -15z" />
    <glyph glyph-name="uni025B" unicode="&#x25b;" horiz-adv-x="528" 
d="M389 328v-91h-78q-77 0 -111.5 -19.5t-34.5 -57.5q0 -71 135 -71q58 0 107 13t84 29v-103q-35 -17 -85 -27.5t-115 -10.5q-131 0 -191 44t-60 115q0 60 36 89.5t92 41.5v5q-103 26 -103 125q0 49 30 80.5t81.5 46.5t114.5 15q57 0 108.5 -10.5t92.5 -29.5l-41 -93
q-35 15 -72 26t-86 11q-113 0 -113 -60q0 -37 35.5 -52.5t105.5 -15.5h68z" />
    <glyph glyph-name="uni025C" unicode="&#x25c;" horiz-adv-x="530" 
d="M258 552q60 0 109 -16t78 -47.5t29 -79.5q0 -49 -29 -78t-77 -42v-5q34 -8 61.5 -23t44 -40t16.5 -66q0 -45 -27.5 -82.5t-83.5 -60t-143 -22.5q-63 0 -114.5 9t-85.5 25v107q34 -16 82 -29t104 -13q61 0 103 16.5t42 56.5q0 75 -155 75h-63v91h56q73 0 113.5 14.5
t40.5 52.5q0 31 -28 46t-87 15q-41 0 -82.5 -9t-81.5 -25l-39 91q46 18 98 28.5t119 10.5z" />
    <glyph glyph-name="uni025D" unicode="&#x25d;" horiz-adv-x="757" 
d="M258 552q73 0 129.5 -23.5t76.5 -70.5l115 33l15 -55q13 -45 26.5 -63.5t35.5 -18.5q21 0 39.5 8t34.5 19l27 -80q-23 -17 -52.5 -28.5t-62.5 -11.5q-46 0 -79.5 27.5t-53.5 93.5l-41 -12q-10 -32 -36.5 -51.5t-63.5 -29.5v-5q34 -8 61.5 -23t44 -40t16.5 -66
q0 -45 -27.5 -82.5t-83.5 -60t-143 -22.5q-63 0 -114.5 9t-85.5 25v107q34 -16 82 -29t104 -13q61 0 103 16.5t42 56.5q0 75 -155 75h-63v91h56q73 0 113.5 14.5t40.5 52.5q0 31 -28 46t-87 15q-41 0 -82.5 -9t-81.5 -25l-39 91q46 18 98 28.5t119 10.5z" />
    <glyph glyph-name="uni025E" unicode="&#x25e;" horiz-adv-x="618" 
d="M338 552q106 0 164.5 -38.5t58.5 -110.5q0 -50 -28.5 -77.5t-77.5 -41.5v-4q33 -6 60.5 -19.5t44.5 -37.5t17 -62q0 -77 -66 -124t-184 -47q-127 0 -202.5 71t-75.5 210q0 89 36 152t101 96t152 33zM335 456q-73 0 -115 -47t-42 -138q0 -102 42 -142t112 -40
q52 0 87 18.5t35 58.5q0 37 -33 51.5t-107 14.5h-27v91h20q70 0 105 14.5t35 53.5q0 29 -29.5 47t-82.5 18z" />
    <glyph glyph-name="uni025F" unicode="&#x25f;" horiz-adv-x="287" 
d="M29 -240q-25 0 -49 3.5t-41 8.5v100q17 -4 33 -7t36 -3q31 0 52 17t21 67v291h-78v87h78v218h126v-218h77v-87h-77v-304q0 -75 -41.5 -124t-136.5 -49z" />
    <glyph glyph-name="uni0260" unicode="&#x260;" horiz-adv-x="626" 
d="M573 766q25 0 46 -5t31 -9v-99q-8 3 -22 6.5t-31 3.5q-23 0 -37.5 -14t-14.5 -45v-608q0 -116 -64.5 -176t-195.5 -60q-59 0 -108 7.5t-92 25.5v104q46 -20 98 -31t109 -11q62 0 95 34.5t33 100.5v14q0 16 0.5 36t1.5 31h-3q-28 -42 -68 -61.5t-91 -19.5q-100 0 -156 74
t-56 206t57 207t157 75q104 0 162 -80h5q-3 21 -6 48.5t-3 52.5v32q0 83 38 122t115 39zM296 449q-119 0 -119 -181q0 -178 121 -178q66 0 97 37t31 123v19q0 96 -31 138t-99 42z" />
    <glyph glyph-name="uni0261" unicode="&#x261;" horiz-adv-x="626" 
d="M263 552q105 0 161 -80h5l12 70h105v-546q0 -116 -65 -176t-196 -60q-58 0 -107 7.5t-93 25.5v104q46 -20 98.5 -31t109.5 -11q61 0 94 34.5t33 100.5v14q0 15 1 35t3 32h-4q-28 -42 -68.5 -61.5t-91.5 -19.5q-99 0 -155 74t-56 206t56.5 207t157.5 75zM296 449
q-118 0 -118 -181q0 -178 120 -178q66 0 97.5 36.5t31.5 123.5v19q0 96 -31.5 138t-99.5 42z" />
    <glyph glyph-name="uni0262" unicode="&#x262;" horiz-adv-x="590" 
d="M334 552q51 0 95.5 -9t86.5 -31l-39 -100q-31 16 -65 26t-71 10q-73 0 -118 -43.5t-45 -133.5q0 -84 34 -131t108 -47q26 0 44.5 3t38.5 8v112h-108v89h230v-274q-46 -19 -99 -30t-115 -11q-128 0 -195 73t-67 208q0 131 75 206t210 75z" />
    <glyph glyph-name="uni0263" unicode="&#x263;" horiz-adv-x="546" 
d="M269 -239q-62 0 -96.5 38t-34.5 98q0 49 18 97t46 105l-202 443h133l99 -235q10 -25 22 -61.5t16 -63.5h4q5 26 17 61.5t24 64.5l98 234h133l-207 -451q29 -56 46 -104.5t17 -89.5q0 -58 -35 -97t-98 -39zM270 -156q15 0 25 12t10 41q0 21 -8.5 53t-26.5 65
q-19 -32 -27 -64t-8 -52q0 -29 10 -42t25 -13z" />
    <glyph glyph-name="uni0264" unicode="&#x264;" horiz-adv-x="546" 
d="M485 552q16 0 33.5 -3.5t28.5 -8.5v-94q-17 5 -31 5q-22 0 -37.5 -12t-39.5 -44l-94 -127q29 -40 44.5 -74.5t15.5 -76.5q0 -55 -35 -91.5t-97 -36.5t-96.5 36t-34.5 93q0 44 15 78t42 72l-95 127q-22 29 -38.5 42.5t-34.5 13.5q-9 0 -17 -1.5t-15 -3.5v94q26 12 61 12
q38 0 65.5 -17.5t54.5 -54.5l45 -63q12 -17 24.5 -35.5t22.5 -36.5h4q22 38 47 73l45 62q25 34 51 53t66 19zM274 202q-36 -46 -36 -85q0 -20 10 -33t26 -13t25.5 12.5t9.5 32.5q0 22 -9.5 43t-25.5 43z" />
    <glyph glyph-name="uni0265" unicode="&#x265;" horiz-adv-x="642" 
d="M435 -218v181q0 32 2.5 62.5t4.5 45.5h-8q-26 -41 -68 -61t-93 -20q-92 0 -144 47.5t-52 151.5v353h126v-328q0 -61 24 -91.5t76 -30.5q76 0 104 48t28 137v265h126v-760h-126z" />
    <glyph glyph-name="uni0266" unicode="&#x266;" horiz-adv-x="642" 
d="M81 0v605q0 83 41.5 121.5t113.5 38.5q22 0 42 -4.5t31 -9.5v-99q-7 3 -22 6.5t-32 3.5q-23 0 -35.5 -13t-12.5 -44v-47q0 -28 -2.5 -55.5t-4.5 -38.5h8q26 42 68 62t93 20q92 0 144 -47.5t52 -151.5v-347h-126v322q0 61 -24 91.5t-76 30.5q-76 0 -104 -48t-28 -138v-258
h-126z" />
    <glyph glyph-name="uni0267" unicode="&#x267;" horiz-adv-x="642" 
d="M236 765q22 0 42 -4.5t31 -9.5v-99q-7 3 -22 6.5t-32 3.5q-23 0 -35.5 -13t-12.5 -44v-41q0 -29 -2.5 -55.5t-4.5 -37.5h8q26 41 67.5 61t94.5 20q92 0 143.5 -47.5t51.5 -151.5v-427q0 -73 -36.5 -119.5t-119.5 -46.5q-22 0 -44 4t-36 8v101q11 -4 25 -7t30 -3
q24 0 39.5 15.5t15.5 58.5v398q0 115 -100 115q-77 0 -104.5 -48t-27.5 -137v-265h-126v605q0 83 41.5 121.5t113.5 38.5z" />
    <glyph glyph-name="uni0268" unicode="&#x268;" horiz-adv-x="287" 
d="M144 751q28 0 49 -14.5t21 -51.5t-21 -52t-49 -15q-29 0 -49.5 15t-20.5 52t20.5 51.5t49.5 14.5zM284 324v-87h-77v-237h-126v237h-77v87h77v218h126v-218h77z" />
    <glyph glyph-name="iotaLatin" unicode="&#x269;" horiz-adv-x="384" 
d="M205 542v-376q0 -75 70 -75q23 0 46 4.5t43 10.5v-94q-20 -10 -50 -16t-65 -6q-49 0 -87 15t-60 53.5t-22 107.5v376h125z" />
    <glyph glyph-name="uni026A" unicode="&#x26a;" horiz-adv-x="346" 
d="M320 542v-64l-84 -33v-348l84 -33v-64h-294v64l84 33v348l-84 33v64h294z" />
    <glyph glyph-name="uni026B" unicode="&#x26b;" horiz-adv-x="414" 
d="M144 0v356q-17 5 -29 5q-37 0 -48 -54h-65q4 68 37 104.5t83 36.5h11t11 -2v314h126v-359q7 -2 14.5 -4t14.5 -2q36 0 48 55h65q-4 -68 -36 -105t-82 -37q-14 0 -24 3v-311h-126z" />
    <glyph glyph-name="uni026C" unicode="&#x26c;" horiz-adv-x="384" 
d="M154 0v294h-37q-67 0 -97 30t-30 77q0 46 28 77t83 31q30 0 53 -18v269h126v-391h100v-75h-100v-294h-126zM122 369h32v13q0 52 -43 52q-17 0 -26 -9t-9 -23q0 -19 13 -26t33 -7z" />
    <glyph glyph-name="uni026D" unicode="&#x26d;" horiz-adv-x="287" 
d="M241 -240q-82 0 -121 43t-39 130v827h125v-825q0 -35 15.5 -54.5t46.5 -19.5q17 0 31.5 3.5t28.5 7.5v-97q-32 -15 -87 -15z" />
    <glyph glyph-name="uni026E" unicode="&#x26e;" horiz-adv-x="721" 
d="M398 -240q-119 0 -204 37v110q43 -20 96 -32.5t103 -12.5q85 0 124.5 41t39.5 102q0 65 -46.5 103t-151.5 38h-58v89l206 208h-300v-443h-126v760h126v-218h453v-84l-217 -218q125 -12 183 -75.5t58 -163.5q0 -69 -32.5 -123.5t-96 -86t-157.5 -31.5z" />
    <glyph glyph-name="uni026F" unicode="&#x26f;" horiz-adv-x="964" 
d="M262 -10q-92 0 -138.5 47t-46.5 152v353h126v-329q0 -121 92 -121q66 0 94 43t28 125v282h126v-329q0 -121 93 -121q69 0 95 48t26 137v265h126v-542h-97l-18 71h-7q-25 -42 -68 -61.5t-90 -19.5q-61 0 -102.5 20t-63.5 64h-10q-25 -44 -70 -64t-95 -20z" />
    <glyph glyph-name="uni0270" unicode="&#x270;" horiz-adv-x="964" 
d="M758 -240v231q0 17 1.5 40.5t4.5 40.5h-7q-25 -42 -66 -62t-88 -20q-124 0 -165 84h-10q-26 -44 -71 -64t-94 -20q-92 0 -139 47.5t-47 151.5v353h126v-329q0 -121 92 -121q66 0 94.5 43.5t28.5 124.5v282h125v-329q0 -121 93 -121q69 0 95.5 48t26.5 137v265h126v-782
h-126z" />
    <glyph glyph-name="uni0271" unicode="&#x271;" horiz-adv-x="964" 
d="M702 552q92 0 138.5 -47t46.5 -152v-427q0 -73 -36.5 -119.5t-119.5 -46.5q-22 0 -44 4t-36 8v101q11 -4 25 -7t30 -3q24 0 39.5 15.5t15.5 58.5v392q0 121 -92 121q-66 0 -94 -43t-28 -125v-282h-126v329q0 121 -93 121q-69 0 -95 -48t-26 -137v-265h-126v542h97l18 -71
h7q25 42 68 61.5t90 19.5q61 0 102.5 -20t63.5 -64h10q25 44 70 64t95 20z" />
    <glyph glyph-name="uni0272" unicode="&#x272;" horiz-adv-x="642" 
d="M371 552q91 0 142.5 -47t51.5 -152v-353h-126v328q0 61 -24 91.5t-76 30.5q-76 0 -104 -48t-28 -137v-329q0 -84 -38.5 -130t-118.5 -46q-22 0 -44 4t-36 11v97q12 -4 25.5 -7.5t28.5 -3.5q27 0 42 17t15 57v607h97l18 -71h7q26 42 71.5 61.5t96.5 19.5z" />
    <glyph glyph-name="uni0273" unicode="&#x273;" horiz-adv-x="642" 
d="M565 -65q0 -40 14.5 -57t41.5 -17q16 0 29 3.5t25 7.5v-97q-14 -7 -36.5 -11t-46.5 -4q-153 0 -153 173v395q0 61 -24 91.5t-76 30.5q-76 0 -104 -48t-28 -137v-265h-126v542h97l18 -71h7q26 42 71.5 61.5t96.5 19.5q91 0 142.5 -47t51.5 -152v-418z" />
    <glyph glyph-name="uni0274" unicode="&#x274;" horiz-adv-x="687" 
d="M81 0v542h152l261 -401q-2 16 -4 46.5t-3.5 60.5t-1.5 43v251h121v-542h-153l-259 400q0 -15 2 -44.5t4 -59.5t2 -47v-249h-121z" />
    <glyph glyph-name="uni0275" unicode="&#x275;" horiz-adv-x="614" 
d="M565 272q0 -135 -70 -208.5t-190 -73.5q-74 0 -132 33t-91 96t-33 153q0 135 69.5 207.5t189.5 72.5q75 0 133 -32.5t91 -95t33 -152.5zM306 450q-58 0 -89 -32.5t-38 -96.5h255q-14 129 -128 129zM307 92q59 0 90 35t37 102h-255q7 -67 38 -102t90 -35z" />
    <glyph glyph-name="uni0276" unicode="&#x276;" horiz-adv-x="869" 
d="M307 552q37 0 70 -10t59 -31v31h376v-97h-252v-115h237v-98h-237v-133h252v-99h-376v32q-26 -21 -60.5 -31.5t-72.5 -10.5q-73 0 -130.5 33t-90.5 96t-33 153q0 135 68.5 207.5t189.5 72.5zM306 450q-63 0 -95.5 -46t-32.5 -132t30.5 -133t98.5 -47q67 0 98 47t31 133
t-31 132t-99 46z" />
    <glyph glyph-name="omegaclosed" unicode="&#x277;" horiz-adv-x="812" 
d="M408 552q115 0 194 -40t119.5 -112t40.5 -168q0 -111 -52.5 -176.5t-150.5 -65.5q-61 0 -97 26t-54 72h-5q-18 -46 -54 -72t-96 -26q-98 0 -150.5 65.5t-52.5 176.5q0 96 41 168t121 112t196 40zM406 450q-82 0 -134.5 -28t-78 -77t-25.5 -112q0 -69 24.5 -106t69.5 -37
q47 0 66 33.5t19 91.5v109h117v-109q0 -60 20 -92.5t65 -32.5t69.5 37t24.5 104q0 63 -25 112.5t-77.5 78t-134.5 28.5z" />
    <glyph glyph-name="uni0278" unicode="&#x278;" horiz-adv-x="780" 
d="M450 760v-213q134 -12 208 -85t74 -191q0 -117 -72 -191t-210 -86v-234h-119v234q-133 12 -208 86t-75 191q0 119 71.5 192.5t213.5 83.5v213h117zM333 450q-76 -9 -115.5 -56.5t-39.5 -122.5q0 -76 39 -123.5t116 -55.5v358zM450 448v-356q76 9 114 56t38 123
q0 75 -39 121.5t-113 55.5z" />
    <glyph glyph-name="uni0279" unicode="&#x279;" horiz-adv-x="439" 
d="M74 -10q-13 0 -29 1.5t-26 3.5l11 117q10 -2 24.5 -3.5t24.5 -1.5q40 0 75 16.5t56.5 50.5t21.5 87v281h126v-542h-97l-18 94h-6q-24 -43 -66 -73.5t-97 -30.5z" />
    <glyph glyph-name="uni027A" unicode="&#x27a;" horiz-adv-x="439" 
d="M74 -10q-13 0 -28.5 1.5t-26.5 3.5l11 118q9 -3 23.5 -4.5t25.5 -1.5q39 0 74 16.5t57 50.5t22 87v499h126v-760h-98l-17 94h-6q-25 -43 -66.5 -73.5t-96.5 -30.5z" />
    <glyph glyph-name="uni027B" unicode="&#x27b;" horiz-adv-x="439" 
d="M380 -240q-148 0 -148 173v52q0 32 2 58t4 46h-5q-24 -41 -64 -70t-95 -29q-13 0 -28.5 1.5t-26.5 3.5l11 118q9 -3 23.5 -4.5t25.5 -1.5q39 0 74 16.5t57 50.5t22 87v281h126v-607q0 -40 13 -57t39 -17q17 0 30.5 3.5t25.5 7.5v-97q-14 -7 -37 -11t-49 -4z" />
    <glyph glyph-name="uni027C" unicode="&#x27c;" horiz-adv-x="439" 
d="M365 552q13 0 29 -1.5t26 -3.5l-11 -117q-10 2 -24.5 3.5t-24.5 1.5q-40 0 -75 -16.5t-56.5 -50.5t-21.5 -87v-521h-126v782h97l18 -94h6q24 43 66 73.5t97 30.5z" />
    <glyph glyph-name="uni027D" unicode="&#x27d;" horiz-adv-x="439" 
d="M365 552q13 0 29 -1.5t26 -3.5l-11 -117q-10 2 -24.5 3.5t-24.5 1.5q-40 0 -75 -16.5t-56.5 -50.5t-21.5 -87v-346q0 -35 15 -54.5t46 -19.5q17 0 30.5 3.5t27.5 7.5v-97q-32 -15 -85 -15q-82 0 -121 43t-39 130v609h97l18 -94h6q24 43 66 73.5t97 30.5z" />
    <glyph glyph-name="uni027E" unicode="&#x27e;" horiz-adv-x="378" 
d="M254 553q30 0 56 -4.5t49 -11.5l-15 -103q-14 4 -30 8t-39 4q-39 0 -55.5 -22.5t-16.5 -62.5v-361h-125v367q0 101 46 143.5t130 42.5z" />
    <glyph glyph-name="uni027F" unicode="&#x27f;" horiz-adv-x="378" 
d="M125 553q83 0 129.5 -42.5t46.5 -143.5v-607h-126v601q0 40 -16.5 62.5t-55.5 22.5q-23 0 -39 -4t-29 -8l-15 103q23 7 48.5 11.5t56.5 4.5z" />
    <glyph glyph-name="uni0280" unicode="&#x280;" horiz-adv-x="588" 
d="M84 0v542h252q94 0 150 -41t56 -121q0 -66 -34.5 -101t-83.5 -51l158 -228h-140l-135 207h-97v-207h-126zM210 297h101q50 0 79 20t29 59q0 31 -22 52t-70 21h-117v-152z" />
    <glyph glyph-name="uni0281" unicode="&#x281;" horiz-adv-x="588" 
d="M84 542v-542h252q94 0 150 41t56 121q0 66 -34.5 101t-83.5 51l158 228h-140l-135 -207h-97v207h-126zM210 245h101q50 0 79 -20t29 -59q0 -31 -22 -52t-70 -21h-117v152z" />
    <glyph glyph-name="uni0282" unicode="&#x282;" horiz-adv-x="490" 
d="M450 157q0 -82 -58 -124.5t-165 -42.5q-19 0 -37 2t-31 5v-71q0 -42 16.5 -57t42.5 -15q15 0 27.5 3t25.5 7v-90q-15 -6 -34 -10t-44 -4q-71 0 -108 40t-37 126v204q40 -19 88.5 -32t91.5 -13q52 0 75 16t23 43q0 16 -9 28.5t-35 27.5t-79 37q-52 21 -86.5 42t-52 50
t-17.5 75q0 73 58 110.5t153 37.5q50 0 94.5 -10t89.5 -30l-40 -93q-38 16 -74 27t-74 11q-83 0 -83 -47q0 -17 10.5 -29t37 -25.5t75.5 -32.5q48 -19 83 -39.5t54 -50t19 -76.5z" />
    <glyph glyph-name="uni0283" unicode="&#x283;" horiz-adv-x="287" 
d="M238 766q26 0 47 -5t32 -10v-96q-8 3 -22.5 6.5t-30.5 3.5q-27 0 -42 -16.5t-15 -57.5v-655q0 -84 -38.5 -130t-118.5 -46q-22 0 -44 4t-36 11v97q12 -4 25.5 -7.5t28.5 -3.5q27 0 42 17t15 57v660q0 94 41.5 132.5t115.5 38.5z" />
    <glyph glyph-name="uni0284" unicode="&#x284;" horiz-adv-x="287" 
d="M50 -240q-22 0 -44 4t-36 11v97q12 -4 25.5 -7.5t28.5 -3.5q27 0 42 17t15 57v313h-77v97h77v250q0 94 41.5 132.5t115.5 38.5q26 0 47 -5t32 -10v-96q-8 3 -22.5 6.5t-30.5 3.5q-27 0 -42 -16.5t-15 -57.5v-246h77v-97h-77v-312q0 -84 -38.5 -130t-118.5 -46z" />
    <glyph glyph-name="uni0285" unicode="&#x285;" horiz-adv-x="287" 
d="M237 -240q-80 0 -118 44.5t-38 128.5v447q0 37 -14.5 54t-39.5 17q-15 0 -29 -3.5t-22 -6.5v96q10 5 31 10t46 5q72 0 113 -38t41 -129v-450q0 -40 14.5 -57t41.5 -17q16 0 29 3.5t25 7.5v-97q-14 -7 -35.5 -11t-44.5 -4z" />
    <glyph glyph-name="uni0286" unicode="&#x286;" horiz-adv-x="287" 
d="M45 -240q-69 0 -106 34.5t-37 82.5q0 55 34 89t109 34h36v595q0 94 41.5 132.5t115.5 38.5q26 0 47 -5t32 -10v-96q-8 3 -22.5 6.5t-30.5 3.5q-27 0 -42 -16.5t-15 -57.5v-591h70v-75h-71q-9 -165 -161 -165zM32 -162q22 0 35.5 14.5t13.5 47.5v25h-32q-27 0 -43.5 -12
t-16.5 -34q0 -17 10.5 -29t32.5 -12z" />
    <glyph glyph-name="uni0287" unicode="&#x287;" horiz-adv-x="406" 
d="M115 451q-23 0 -45.5 -4.5t-41.5 -10.5v94q20 10 52 16t67 6q47 0 84.5 -15t59.5 -53t22 -107v-282h73v-55l-80 -44l-40 -115h-79v119h-154v95h154v281q0 38 -20.5 56.5t-51.5 18.5z" />
    <glyph glyph-name="uni0288" unicode="&#x288;" horiz-adv-x="406" 
d="M291 -139q23 0 45.5 4.5t41.5 10.5v-94q-20 -10 -52 -16t-67 -6q-47 0 -84.5 15t-59.5 53t-22 107v512h-73v55l80 44l40 115h79v-119h154v-95h-154v-511q0 -38 20.5 -56.5t51.5 -18.5z" />
    <glyph glyph-name="uni0289" unicode="&#x289;" horiz-adv-x="642" 
d="M4 244v87h73v211h126v-211h233v211h126v-211h77v-87h-77v-244h-99l-17 70h-6q-26 -42 -72 -61t-97 -19q-91 0 -142.5 47t-51.5 151v56h-73zM203 213q0 -61 24 -91t76 -30q68 0 98 39t34 113h-232v-31z" />
    <glyph glyph-name="uni028A" unicode="&#x28a;" horiz-adv-x="632" 
d="M315 -10q-81 0 -141 30t-92.5 85t-32.5 129q0 76 29.5 127.5t72.5 83.5h-124v97h253v-94q-52 -28 -82 -78.5t-30 -121.5q0 -76 38.5 -117t109.5 -41q70 0 109 41t39 118q0 67 -30 119t-81 80v94h252v-97h-122q44 -33 72 -85t28 -123q0 -114 -71.5 -180.5t-196.5 -66.5z
" />
    <glyph glyph-name="uni028B" unicode="&#x28b;" horiz-adv-x="649" 
d="M416 552q82 0 120 -44t38 -128v-137q0 -75 -24.5 -132t-79 -89t-145.5 -32q-93 0 -147 31t-77.5 88t-23.5 134v299h126v-301q0 -81 30.5 -115t95.5 -34q60 0 89.5 34.5t29.5 114.5v136q0 38 -14.5 55t-44.5 17q-16 0 -29 -2.5t-27 -6.5v99q17 7 40.5 10t42.5 3z" />
    <glyph glyph-name="uni028C" unicode="&#x28c;" horiz-adv-x="546" 
d="M340 542l206 -542h-133l-108 313q-11 29 -19 64t-10 59h-4q-3 -26 -12 -60t-19 -63l-108 -313h-133l206 542h134z" />
    <glyph glyph-name="uni028D" unicode="&#x28d;" horiz-adv-x="830" 
d="M305 542l60 -233q5 -18 12 -47t14.5 -60t13.5 -57.5t9 -39.5h4q3 13 9 39.5t13.5 57.5t14.5 60t12 48l63 232h138l152 -543h-127l-67 259q-7 27 -13.5 60t-11.5 63t-7 49h-4q-2 -18 -7.5 -49t-11.5 -60.5t-10 -44.5l-78 -277h-138l-75 277q-4 18 -10.5 47t-11.5 58t-6 48
h-4q-2 -17 -7 -46.5t-12 -63t-15 -61.5l-68 -259h-125l154 543h140z" />
    <glyph glyph-name="uni028E" unicode="&#x28e;" horiz-adv-x="547" 
d="M547 0h-137l-108 306q-11 29 -18 57.5t-10 56.5h-4q-4 -26 -12 -55.5t-18 -58.5l-104 -306h-136l231 614q31 81 84.5 124.5t131.5 43.5q25 0 43.5 -2.5t31.5 -5.5v-100q-11 2 -26.5 4t-32.5 2q-46 0 -74 -27.5t-43 -68.5l-16 -44z" />
    <glyph glyph-name="uni028F" unicode="&#x28f;" horiz-adv-x="533" 
d="M533 542l-203 -332v-210h-126v210l-204 332h142l126 -220l123 220h142z" />
    <glyph glyph-name="uni0290" unicode="&#x290;" horiz-adv-x="481" 
d="M473 -240q-59 0 -96.5 36t-37.5 124v80h-307v77l266 369h-251v96h393v-85l-261 -360h269v-170q0 -43 13.5 -58t40.5 -15q13 0 26.5 3t23.5 7v-90q-14 -6 -35.5 -10t-43.5 -4z" />
    <glyph glyph-name="uni0291" unicode="&#x291;" horiz-adv-x="563" 
d="M254 -87l-75 28q12 31 25 59h-172v77l266 369h-251v96h395v-81l-264 -364h69q42 81 85.5 120t107.5 39q53 0 86 -32.5t33 -83.5q0 -74 -47 -107t-138 -33h-85q-9 -20 -17.5 -41t-17.5 -46zM338 97h45q41 0 59 12t18 32q0 14 -9 24t-27 10q-25 0 -44.5 -20t-41.5 -58z" />
    <glyph glyph-name="uni0292" unicode="&#x292;" horiz-adv-x="550" 
d="M489 542v-84l-217 -218q120 -12 180.5 -75.5t60.5 -163.5q0 -69 -32.5 -123.5t-96.5 -86t-157 -31.5q-119 0 -204 37v110q42 -20 95 -32.5t104 -12.5q86 0 124.5 41t38.5 102q0 65 -46 103t-151 38h-59v89l206 208h-295v99h449z" />
    <glyph glyph-name="uni0293" unicode="&#x293;" horiz-adv-x="550" 
d="M205 -240q-55 0 -103.5 15t-79 49t-30.5 89q0 60 46 95.5t123 35.5q62 0 115 -23t102 -64q4 13 5.5 24.5t1.5 26.5q0 68 -49.5 109t-152.5 41h-54v85l206 200h-295v99h449v-84l-217 -209q115 -11 178 -76.5t63 -162.5q0 -46 -13.5 -80t-30.5 -57l25 -25t27 -28l-64 -60
q-12 14 -25.5 28.5t-25.5 26.5q-36 -25 -85 -40t-116 -15zM191 -145q36 0 72 9.5t58 26.5q-41 35 -79.5 52.5t-79.5 17.5q-36 0 -53.5 -13.5t-17.5 -34.5q0 -27 28 -42.5t72 -15.5z" />
    <glyph glyph-name="uni0294" unicode="&#x294;" horiz-adv-x="459" 
d="M209 765q107 0 166 -56.5t59 -145.5q0 -79 -44.5 -143t-140.5 -111v-309h-126v365q103 35 143.5 87t40.5 106q0 49 -29 77t-79 28q-42 0 -82 -16.5t-65 -32.5l-46 92q44 26 94 42.5t109 16.5z" />
    </font>
</defs>
</svg>
