<?xml version="1.0" standalone="no"?>
<!DOCTYPE svg PUBLIC "-//W3C//DTD SVG 1.1//EN" "http://www.w3.org/Graphics/SVG/1.1/DTD/svg11.dtd" >
<svg xmlns="http://www.w3.org/2000/svg" xmlns:xlink="http://www.w3.org/1999/xlink" version="1.1">
<metadata>
Created by FontForge 20170731 at Wed Sep 20 00:59:24 2017
 By Aleksey,,,
Copyright 2015 Google Inc. All Rights Reserved.
</metadata>
<defs>
<font id="NotoSans-Light" horiz-adv-x="0" >
  <font-face 
    font-family="Noto Sans Light"
    font-weight="300"
    font-stretch="normal"
    units-per-em="1000"
    panose-1="2 11 4 2 4 5 4 2 2 4"
    ascent="800"
    descent="-200"
    x-height="532"
    cap-height="714"
    bbox="-619 -389 2800 1065"
    underline-thickness="50"
    underline-position="-175"
    unicode-range="U+000D-FFFD"
  />
<missing-glyph horiz-adv-x="600" 
d="M94 0v714h411v-714h-411zM145 51h309v612h-309v-612z" />
    <glyph glyph-name=".notdef" horiz-adv-x="600" 
d="M94 0v714h411v-714h-411zM145 51h309v612h-309v-612z" />
    <glyph glyph-name=".null" 
 />
    <glyph glyph-name="nonmarkingreturn" horiz-adv-x="333" 
 />
    <glyph glyph-name="NULL" 
 />
    <glyph glyph-name="NULL" 
 />
    <glyph glyph-name="CR" unicode="&#xd;" horiz-adv-x="260" 
 />
    <glyph glyph-name="space" unicode=" " horiz-adv-x="260" 
 />
    <glyph glyph-name="exclam" unicode="!" horiz-adv-x="246" 
d="M144 188h-41l-13 526h68zM78 38q0 49 44 49t44 -49t-44 -49t-44 49z" />
    <glyph glyph-name="quotedbl" unicode="&#x22;" horiz-adv-x="364" 
d="M130 714l-12 -258h-37l-12 258h61zM295 714l-12 -258h-37l-12 258h61z" />
    <glyph glyph-name="numbersign" unicode="#" horiz-adv-x="646" 
d="M474 449l-36 -185h144v-46h-153l-43 -218h-48l43 218h-171l-42 -218h-47l41 218h-136v46h144l37 185h-143v45h151l42 220h49l-42 -220h171l42 220h47l-42 -220h137v-45h-145zM218 264h172l36 185h-172z" />
    <glyph glyph-name="dollar" unicode="$" horiz-adv-x="571" 
d="M253 -58v87q-59 1 -108 9.5t-81 21.5v57q34 -14 85 -25t104 -12v260q-59 19 -101.5 41.5t-65.5 56t-23 84.5q0 76 52.5 118.5t137.5 47.5v71h44v-71q94 -3 169 -37l-19 -49q-37 16 -75.5 25t-74.5 11v-256q61 -20 104.5 -41.5t67 -54t23.5 -83.5q0 -77 -53 -121t-142 -51
v-89h-44zM253 398v238q-61 -3 -97.5 -31t-36.5 -79q0 -54 36 -81t98 -47zM297 83q65 5 102 34t37 83q0 51 -34 76.5t-105 48.5v-242z" />
    <glyph glyph-name="percent" unicode="%" horiz-adv-x="812" 
d="M196 724q71 0 107 -58t36 -165q0 -109 -36.5 -167t-107.5 -58q-68 0 -104.5 58t-36.5 167t36 166t106 57zM630 714l-396 -714h-52l396 714h52zM196 680q-92 0 -92 -179q0 -181 91 -181q94 0 94 181q0 88 -22.5 133.5t-70.5 45.5zM615 438q71 0 107 -58t36 -165
q0 -109 -37 -167t-107 -58q-69 0 -105 58t-36 167t36 166t106 57zM615 394q-92 0 -92 -179q0 -181 91 -181q94 0 94 181q0 88 -22.5 133.5t-70.5 45.5z" />
    <glyph glyph-name="ampersand" unicode="&#x26;" horiz-adv-x="717" 
d="M304 725q74 0 119 -39.5t45 -109.5q0 -66 -43.5 -109.5t-112.5 -80.5l218 -216q28 33 48 77t32 95h58q-30 -126 -102 -210l132 -132h-76l-94 94q-46 -46 -104 -75t-144 -29q-100 0 -161 49.5t-61 142.5q0 54 20 91.5t57.5 66t90.5 56.5q-42 44 -69 84t-27 92
q0 70 47 111.5t127 41.5zM302 676q-52 0 -84 -27.5t-32 -75.5q0 -41 23 -75t65 -77q68 34 103 69t35 86q0 46 -30 73t-80 27zM262 359q-46 -24 -78.5 -47.5t-49.5 -53.5t-17 -74q0 -67 45 -105t119 -38q73 0 122.5 25t88.5 64z" />
    <glyph glyph-name="quotesingle" unicode="'" horiz-adv-x="198" 
d="M130 714l-12 -258h-37l-12 258h61z" />
    <glyph glyph-name="parenleft" unicode="(" horiz-adv-x="278" 
d="M41 274q0 128 37 241t109 199h58q-73 -92 -109.5 -204.5t-36.5 -234.5q0 -121 36.5 -231t108.5 -202h-57q-72 86 -109 196t-37 236z" />
    <glyph glyph-name="parenright" unicode=")" horiz-adv-x="278" 
d="M237 278q0 -127 -37 -239.5t-109 -196.5h-57q73 92 109 203t36 233t-36.5 233t-109.5 203h58q72 -87 109 -198t37 -238z" />
    <glyph glyph-name="asterisk" unicode="*" horiz-adv-x="551" 
d="M304 759l-12 -199l192 62l12 -60l-190 -36l122 -160l-55 -32l-101 172l-96 -172l-56 32l122 160l-190 36l11 60l192 -62l-13 199h62z" />
    <glyph glyph-name="plus" unicode="+" horiz-adv-x="571" 
d="M309 376h209v-47h-209v-212h-48v212h-209v47h209v213h48v-213z" />
    <glyph glyph-name="comma" unicode="," horiz-adv-x="226" 
d="M154 116l4 -12q-12 -54 -32 -117t-43 -116h-43q37 133 52 245h62z" />
    <glyph glyph-name="hyphen" unicode="-" horiz-adv-x="322" 
d="M40 244v52h242v-52h-242z" />
    <glyph glyph-name="period" unicode="." horiz-adv-x="244" 
d="M78 38q0 49 44 49t44 -49t-44 -49t-44 49z" />
    <glyph glyph-name="slash" unicode="/" horiz-adv-x="347" 
d="M336 714l-268 -714h-56l266 714h58z" />
    <glyph glyph-name="zero" unicode="0" horiz-adv-x="571" 
d="M515 359q0 -179 -55.5 -274t-174.5 -95q-113 0 -171 94t-58 275q0 109 22.5 191.5t73 128.5t134.5 46q82 0 132.5 -45t73.5 -127.5t23 -193.5zM113 359q0 -161 41.5 -240t130.5 -79q91 0 131.5 79t40.5 240q0 99 -15.5 170t-53 108.5t-102.5 37.5t-103 -38t-54 -109
t-16 -169z" />
    <glyph glyph-name="one" unicode="1" horiz-adv-x="571" 
d="M338 0h-56v531v70.5t2 52.5q-14 -14 -26 -24t-32 -26l-100 -76l-30 40l194 146h48v-714z" />
    <glyph glyph-name="two" unicode="2" horiz-adv-x="571" 
d="M506 0h-452v48l205 213q51 53 86 95t53 84t18 94q0 67 -39 103.5t-105 36.5q-48 0 -90 -17t-83 -49l-31 40q44 36 96 56t108 20q92 0 147 -51t55 -137q0 -58 -20.5 -106t-58 -94t-89.5 -98l-179 -183v-3h379v-52z" />
    <glyph glyph-name="three" unicode="3" horiz-adv-x="571" 
d="M482 549q0 -71 -42 -116t-108 -57v-4q84 -10 128 -54.5t44 -119.5q0 -92 -65 -150t-195 -58q-58 0 -107.5 10t-90.5 30v55q41 -20 94 -33t104 -13q102 0 151 43.5t49 117.5q0 78 -58 111.5t-155 33.5h-76v50h77q83 0 137 38.5t54 112.5q0 63 -41 95.5t-109 32.5
q-57 0 -102.5 -17t-89.5 -47l-29 40q41 32 96 53t124 21q100 0 155 -47.5t55 -127.5z" />
    <glyph glyph-name="four" unicode="4" horiz-adv-x="571" 
d="M556 178h-119v-178h-55v178h-359v46l355 494h59v-488h119v-52zM382 230v265q0 58 0.5 91.5t1.5 68.5h-2q-14 -23 -26 -43t-28 -43l-245 -339h299z" />
    <glyph glyph-name="five" unicode="5" horiz-adv-x="571" 
d="M274 432q109 0 172.5 -55t63.5 -155q0 -108 -70 -170t-190 -62q-56 0 -102.5 11t-79.5 29v57q35 -21 83.5 -34t99.5 -13q91 0 146 45.5t55 132.5q0 78 -47.5 121t-144.5 43q-38 0 -74 -5t-66 -13l-31 21l29 329h346v-52h-298l-20 -246q21 4 53 10t75 6z" />
    <glyph glyph-name="six" unicode="6" horiz-adv-x="571" 
d="M62 304q0 128 32.5 222.5t101 146.5t178.5 52q55 0 94 -11v-51q-18 7 -42 10t-50 3q-129 0 -191.5 -87t-66.5 -247h4q21 39 67 70t122 31q96 0 152 -57.5t56 -157.5q0 -108 -58.5 -173t-162.5 -65q-76 0 -128.5 40.5t-80 111t-27.5 162.5zM298 39q76 0 120 48.5t44 140.5
q0 78 -40 123t-120 45q-55 0 -95.5 -22t-62.5 -55.5t-22 -66.5q0 -31 9 -67.5t29.5 -69.5t54 -54.5t83.5 -21.5z" />
    <glyph glyph-name="seven" unicode="7" horiz-adv-x="571" 
d="M160 0l294 662h-403v52h465v-42l-294 -672h-62z" />
    <glyph glyph-name="eight" unicode="8" horiz-adv-x="571" 
d="M284 724q92 0 148.5 -43.5t56.5 -123.5q0 -65 -42.5 -106.5t-108.5 -70.5q78 -32 126 -77t48 -120q0 -61 -29.5 -104t-81 -66t-117.5 -23q-105 0 -166.5 51t-61.5 137q0 52 22 89.5t60 64t86 45.5q-40 19 -72.5 42.5t-52 57t-19.5 79.5q0 52 26.5 90t72.5 58t105 20z
M284 676q-64 0 -106 -32t-42 -90q0 -59 42.5 -92.5t109.5 -58.5q67 28 105.5 62t38.5 91q0 58 -40 89t-108 31zM113 178q0 -63 44.5 -102t124.5 -39t127 38.5t47 106.5q0 58 -41.5 96.5t-116.5 65.5l-22 8q-74 -27 -118.5 -66.5t-44.5 -107.5z" />
    <glyph glyph-name="nine" unicode="9" horiz-adv-x="571" 
d="M510 411q0 -128 -32.5 -223t-102 -147t-179.5 -52q-24 0 -52 3t-46 9v51q40 -15 98 -15q128 0 190 87.5t67 247.5h-4q-21 -39 -68 -70t-123 -31q-95 0 -150.5 57.5t-55.5 158.5q0 71 27 124.5t76.5 83t118.5 29.5q77 0 129.5 -40t79.5 -110.5t27 -162.5zM274 674
q-76 0 -120.5 -48t-44.5 -138q0 -80 40 -125t120 -45q55 0 96 22t63 55.5t22 66.5q0 31 -9 67.5t-29.5 69.5t-54 54t-83.5 21z" />
    <glyph glyph-name="colon" unicode=":" horiz-adv-x="244" 
d="M78 492q0 49 44 49t44 -49q0 -50 -44 -50t-44 50zM78 38q0 49 44 49t44 -49t-44 -49t-44 49z" />
    <glyph glyph-name="semicolon" unicode=";" horiz-adv-x="244" 
d="M78 492q0 49 42 49q46 0 46 -49q0 -50 -46 -50q-42 0 -42 50zM149 116l5 -12q-12 -54 -33 -117t-43 -116h-44q18 65 32 127.5t22 117.5h61z" />
    <glyph glyph-name="less" unicode="&#x3c;" horiz-adv-x="571" 
d="M518 127l-465 211v34l465 225v-52l-401 -188l401 -178v-52z" />
    <glyph glyph-name="equal" unicode="=" horiz-adv-x="571" 
d="M56 430v47h458v-47h-458zM56 228v48h458v-48h-458z" />
    <glyph glyph-name="greater" unicode="&#x3e;" horiz-adv-x="571" 
d="M53 179l400 177l-400 189v52l465 -225v-34l-465 -211v52z" />
    <glyph glyph-name="question" unicode="?" horiz-adv-x="424" 
d="M142 188v19q0 43 7 73t25.5 54t51.5 50q38 29 62 52.5t36 49.5t12 64q0 62 -38 92.5t-102 30.5q-44 0 -80 -10.5t-70 -27.5l-21 48q42 19 82.5 30t90.5 11q90 0 141.5 -45t51.5 -127q0 -48 -15.5 -81.5t-43.5 -60.5t-66 -56q-30 -23 -46.5 -43.5t-23 -46t-6.5 -62.5v-14
h-48zM125 38q0 49 43 49q44 0 44 -49t-44 -49q-43 0 -43 49z" />
    <glyph glyph-name="at" unicode="@" horiz-adv-x="888" 
d="M834 354q0 -65 -18 -121t-55 -90.5t-92 -34.5q-46 0 -73.5 26.5t-31.5 69.5h-2q-43 -96 -148 -96q-75 0 -115.5 48t-40.5 134q0 64 26.5 114.5t74 79.5t111.5 29q40 0 77 -6t63 -16l-8 -174q-1 -18 -1.5 -34.5t-0.5 -30.5q0 -54 18.5 -77t53.5 -23q38 0 63 26.5t37.5 72
t12.5 103.5q0 96 -38 165.5t-107.5 107t-165.5 37.5q-114 0 -197 -46.5t-128 -132t-45 -201.5q0 -158 83.5 -245.5t236.5 -87.5q56 0 109.5 11.5t98.5 30.5v-48q-44 -18 -96 -28.5t-112 -10.5q-115 0 -197.5 45t-127 129.5t-44.5 201.5q0 130 52 226t146 149t221 53
q108 0 189 -43t126 -123t45 -190zM310 288q0 -68 28.5 -102t81.5 -34q63 0 95.5 43t36.5 124l6 137q-17 6 -39.5 9.5t-48.5 3.5q-52 0 -87.5 -24t-54 -65t-18.5 -92z" />
    <glyph glyph-name="A" unicode="A" horiz-adv-x="608" 
d="M547 0l-95 246h-296l-97 -246h-59l280 716h54l274 -716h-61zM434 298l-96 258q-4 14 -14 44t-18 53q-8 -26 -17 -52.5t-15 -45.5l-99 -257h259z" />
    <glyph glyph-name="B" unicode="B" horiz-adv-x="632" 
d="M100 714h198q132 0 195 -41t63 -133q0 -62 -36 -106t-103 -56v-4q78 -12 118.5 -53.5t40.5 -117.5q0 -69 -31.5 -114t-88 -67t-130.5 -22h-226v714zM158 399h153q98 0 141.5 34t43.5 101q0 69 -47 99t-151 30h-140v-264zM158 349v-299h163q194 0 194 156
q0 74 -49.5 108.5t-153.5 34.5h-154z" />
    <glyph glyph-name="C" unicode="C" horiz-adv-x="623" 
d="M404 672q-88 0 -151 -39.5t-96.5 -110t-33.5 -164.5q0 -96 30.5 -167t90.5 -110t150 -39q52 0 95.5 8t82.5 20v-50q-37 -14 -81.5 -22t-102.5 -8q-108 0 -180.5 46t-109 129t-36.5 194q0 106 40.5 188.5t117 129.5t184.5 47q105 0 188 -40l-23 -50q-78 38 -165 38z" />
    <glyph glyph-name="D" unicode="D" horiz-adv-x="711" 
d="M648 364q0 -180 -95 -272t-277 -92h-176v714h198q170 0 260 -89.5t90 -260.5zM588 362q0 301 -301 301h-129v-612h114q316 0 316 311z" />
    <glyph glyph-name="E" unicode="E" horiz-adv-x="553" 
d="M492 0h-392v714h392v-52h-334v-262h315v-51h-315v-297h334v-52z" />
    <glyph glyph-name="F" unicode="F" horiz-adv-x="506" 
d="M158 0h-58v714h392v-52h-334v-294h316v-52h-316v-316z" />
    <glyph glyph-name="G" unicode="G" horiz-adv-x="724" 
d="M387 364h259v-332q-52 -21 -110 -31.5t-126 -10.5q-170 0 -259 97t-89 269q0 108 43.5 191.5t125.5 130.5t197 47q58 0 111 -11t99 -32l-24 -52q-91 43 -190 43q-94 0 -161.5 -40t-104 -111.5t-36.5 -165.5q0 -154 76.5 -234.5t223.5 -80.5q52 0 92.5 7.5t73.5 18.5v244
h-201v53z" />
    <glyph glyph-name="H" unicode="H" horiz-adv-x="724" 
d="M623 0h-58v348h-407v-348h-58v714h58v-314h407v314h58v-714z" />
    <glyph glyph-name="I" unicode="I" horiz-adv-x="311" 
d="M260 0h-210v36l76 11v619l-76 12v36h210v-36l-76 -12v-619l76 -11v-36z" />
    <glyph glyph-name="J" unicode="J" horiz-adv-x="252" 
d="M-12 -182q-26 0 -44 4t-32 8v52q15 -4 34 -8t41 -4q112 0 112 134v710h58v-708q0 -88 -42.5 -138t-126.5 -50z" />
    <glyph glyph-name="K" unicode="K" horiz-adv-x="588" 
d="M588 0h-70l-271 370l-89 -85v-285h-58v714h58v-371q20 23 42 46.5t44 47.5l264 277h72l-290 -304z" />
    <glyph glyph-name="L" unicode="L" horiz-adv-x="515" 
d="M100 0v714h58v-662h334v-52h-392z" />
    <glyph glyph-name="M" unicode="M" horiz-adv-x="872" 
d="M410 0l-256 652h-4q2 -27 3 -62.5t1 -75.5v-514h-54v714h88l246 -626h3l249 626h86v-714h-58v520q0 34 1 69t3 63h-3l-258 -652h-47z" />
    <glyph glyph-name="N" unicode="N" horiz-adv-x="729" 
d="M628 0h-62l-413 624h-3q2 -39 3 -82.5t1 -91.5v-450h-54v714h62l412 -622h4q-2 31 -3 79.5t-1 89.5v453h54v-714z" />
    <glyph glyph-name="O" unicode="O" horiz-adv-x="768" 
d="M705 358q0 -109 -36 -192t-107.5 -129.5t-177.5 -46.5q-108 0 -179.5 46.5t-107 130t-35.5 192.5t36.5 191t109 128.5t179.5 46.5q103 0 173.5 -44.5t107.5 -126.5t37 -196zM123 358q0 -95 28 -166.5t86 -111t147 -39.5q90 0 147.5 39.5t85 110.5t27.5 167
q0 148 -64.5 231.5t-192.5 83.5q-89 0 -148 -39.5t-87.5 -110.5t-28.5 -165z" />
    <glyph glyph-name="P" unicode="P" horiz-adv-x="589" 
d="M278 714q257 0 257 -202q0 -103 -66.5 -161.5t-206.5 -58.5h-104v-292h-58v714h178zM272 663h-114v-321h98q104 0 161.5 36.5t57.5 130.5q0 80 -49.5 117t-153.5 37z" />
    <glyph glyph-name="Q" unicode="Q" horiz-adv-x="768" 
d="M705 358q0 -91 -25.5 -165t-76 -123.5t-125.5 -67.5l156 -172h-82l-138 162q-8 -1 -15 -1.5t-15 -0.5q-108 0 -179.5 46.5t-107 130t-35.5 192.5t36.5 191t109 128.5t179.5 46.5q103 0 173.5 -44.5t107.5 -126.5t37 -196zM123 358q0 -95 28 -166.5t86 -111t147 -39.5
q90 0 147.5 39.5t85 110.5t27.5 167q0 148 -64.5 231.5t-192.5 83.5q-89 0 -148 -39.5t-87.5 -110.5t-28.5 -165z" />
    <glyph glyph-name="R" unicode="R" horiz-adv-x="600" 
d="M278 714q128 0 192.5 -45t64.5 -151q0 -82 -43.5 -128t-108.5 -66l196 -324h-69l-182 308h-170v-308h-58v714h178zM273 662h-115v-304h135q87 0 134.5 41t47.5 117q0 82 -49.5 114t-152.5 32z" />
    <glyph glyph-name="S" unicode="S" horiz-adv-x="546" 
d="M496 186q0 -64 -32 -107.5t-88 -66t-128 -22.5q-64 0 -112 9t-82 23v57q38 -15 88.5 -26.5t109.5 -11.5q82 0 133.5 35.5t51.5 105.5q0 42 -19.5 69.5t-60 48t-103.5 41.5q-60 21 -103 45.5t-66 62t-23 94.5q0 59 29.5 99t81 61t117.5 21q52 0 99 -10t89 -28l-20 -50
q-84 36 -170 36q-74 0 -120.5 -32.5t-46.5 -95.5q0 -46 20 -73.5t58 -46.5t93 -38q63 -22 108.5 -46.5t70.5 -60.5t25 -93z" />
    <glyph glyph-name="T" unicode="T" horiz-adv-x="530" 
d="M294 0h-58v662h-230v52h518v-52h-230v-662z" />
    <glyph glyph-name="U" unicode="U" horiz-adv-x="722" 
d="M629 714v-462q0 -122 -71 -192t-200 -70q-128 0 -197 70t-69 194v460h58v-460q0 -104 54 -158.5t158 -54.5q101 0 155.5 54.5t54.5 152.5v466h57z" />
    <glyph glyph-name="V" unicode="V" horiz-adv-x="582" 
d="M582 714l-262 -714h-58l-262 714h61l189 -515q13 -36 23.5 -69t17.5 -62q7 29 17 61t24 71l188 514h62z" />
    <glyph glyph-name="W" unicode="W" horiz-adv-x="900" 
d="M878 714l-194 -714h-58l-150 525q-20 74 -30 117q-3 -20 -9.5 -48t-15.5 -60l-149 -534h-58l-191 714h60l129 -490q11 -42 19.5 -76.5t14.5 -67.5q6 34 14 70t20 77l138 487h58l142 -490q14 -43 22 -78.5t14 -67.5q4 33 12 67.5t20 77.5l132 491h60z" />
    <glyph glyph-name="X" unicode="X" horiz-adv-x="548" 
d="M547 0h-67l-206 330l-211 -330h-63l240 371l-220 343h66l190 -302l190 302h64l-221 -342z" />
    <glyph glyph-name="Y" unicode="Y" horiz-adv-x="536" 
d="M268 332l204 382h64l-238 -438v-276h-58v272l-240 442h64z" />
    <glyph glyph-name="Z" unicode="Z" horiz-adv-x="575" 
d="M536 0h-499v43l415 619h-395v52h467v-43l-414 -619h426v-52z" />
    <glyph glyph-name="bracketleft" unicode="[" horiz-adv-x="321" 
d="M296 -158h-212v872h212v-48h-156v-776h156v-48z" />
    <glyph glyph-name="backslash" unicode="\" horiz-adv-x="347" 
d="M68 714l268 -714h-58l-266 714h56z" />
    <glyph glyph-name="bracketright" unicode="]" horiz-adv-x="321" 
d="M25 -110h157v776h-157v48h212v-872h-212v48z" />
    <glyph glyph-name="asciicircum" unicode="^" horiz-adv-x="571" 
d="M42 272l224 447h36l227 -447h-53l-192 384l-189 -384h-53z" />
    <glyph glyph-name="underscore" unicode="_" horiz-adv-x="418" 
d="M420 -135h-422v45h422v-45z" />
    <glyph glyph-name="grave" unicode="`" horiz-adv-x="265" 
d="M107 766q13 -22 33.5 -50t43 -55t41.5 -46v-9h-40q-25 20 -53 47.5t-53 55.5t-39 49v8h67z" />
    <glyph glyph-name="a" unicode="a" horiz-adv-x="536" 
d="M276 541q90 0 134 -44t44 -139v-358h-43l-11 90h-2q-28 -45 -70 -72.5t-116 -27.5q-76 0 -120.5 38t-44.5 111q0 79 64.5 121t189.5 47l97 5v37q0 79 -31.5 111.5t-92.5 32.5q-41 0 -79 -10.5t-76 -30.5l-18 46q37 19 82 31t93 12zM398 268l-90 -4q-102 -4 -152 -34.5
t-50 -91.5q0 -49 31 -74.5t85 -25.5q83 0 128.5 47t47.5 132v51z" />
    <glyph glyph-name="b" unicode="b" horiz-adv-x="599" 
d="M144 760v-210q0 -28 -1 -61t-3 -53h4q20 45 65.5 75.5t115.5 30.5q103 0 160 -69.5t57 -205.5q0 -126 -57.5 -201.5t-167.5 -75.5q-67 0 -109.5 28t-62.5 68h-5l-10 -86h-43v760h57zM318 493q-93 0 -133.5 -58t-40.5 -168v-7q0 -108 38.5 -164.5t127.5 -56.5
q86 0 129.5 59.5t43.5 169.5q0 225 -165 225z" />
    <glyph glyph-name="c" unicode="c" horiz-adv-x="476" 
d="M301 -10q-117 0 -180.5 71.5t-63.5 201.5q0 89 32 151.5t89.5 95t133.5 32.5q39 0 72.5 -7t59.5 -19l-16 -50q-56 25 -116 25q-94 0 -145 -61t-51 -166q0 -100 45 -162t139 -62q40 0 75 8t63 21v-51q-26 -13 -60 -20.5t-77 -7.5z" />
    <glyph glyph-name="d" unicode="d" horiz-adv-x="599" 
d="M279 -10q-107 0 -164.5 68.5t-57.5 201.5q0 138 60.5 210t166.5 72q67 0 109 -29t62 -73h4q-1 24 -2.5 53t-1.5 51v216h57v-760h-46l-8 92h-3q-21 -42 -63 -72t-113 -30zM286 39q92 0 131 56t39 161v10q0 110 -39 168.5t-127 58.5q-86 0 -130 -60.5t-44 -172.5
q0 -109 42 -165t128 -56z" />
    <glyph glyph-name="e" unicode="e" horiz-adv-x="552" 
d="M290 542q68 0 114 -31.5t69 -86.5t23 -126v-40h-380q0 -105 49 -161.5t141 -56.5q50 0 87 8t81 28v-52q-40 -18 -79 -26t-91 -8q-119 0 -183 73t-64 199q0 81 27.5 144.5t79.5 99.5t126 36zM289 494q-73 0 -118.5 -49t-53.5 -139h319q0 84 -35.5 136t-111.5 52z" />
    <glyph glyph-name="f" unicode="f" horiz-adv-x="309" 
d="M295 486h-127v-486h-57v486h-98v31l98 17v52q0 92 39.5 135.5t119.5 43.5q28 0 51 -4.5t42 -10.5l-13 -48q-18 6 -38.5 10t-41.5 4q-54 0 -78 -30.5t-24 -98.5v-55h127v-46z" />
    <glyph glyph-name="g" unicode="g" horiz-adv-x="599" 
d="M282 542q63 0 104.5 -24t66.5 -67h3l9 81h46v-549q0 -105 -53.5 -164t-175.5 -59q-60 0 -106 10t-84 26v55q38 -19 86.5 -30.5t105.5 -11.5q87 0 128.5 46t41.5 125v31q0 21 1 42t2 41h-3q-22 -52 -68 -78t-110 -26q-104 0 -161.5 70t-57.5 202q0 129 57.5 204.5
t167.5 75.5zM288 492q-86 0 -129 -60.5t-43 -170.5q0 -109 42.5 -166t123.5 -57q66 0 103.5 27t53.5 74t16 107v34q0 102 -37.5 157t-129.5 55z" />
    <glyph glyph-name="h" unicode="h" horiz-adv-x="596" 
d="M144 760v-244q0 -40 -3 -76h4q20 44 66 73t114 29q91 0 139.5 -47t48.5 -147v-348h-57v344q0 76 -34.5 112t-101.5 36q-176 0 -176 -202v-290h-56v760h56z" />
    <glyph glyph-name="i" unicode="i" horiz-adv-x="232" 
d="M116 729q40 0 40 -43q0 -44 -40 -44q-38 0 -38 44q0 43 38 43zM144 532v-532h-56v532h56z" />
    <glyph glyph-name="j" unicode="j" horiz-adv-x="232" 
d="M78 686q0 43 38 43q40 0 40 -43q0 -44 -40 -44q-38 0 -38 44zM16 -240q-43 0 -68 11v49q28 -11 63 -11q36 0 56.5 22t20.5 69v632h56v-632q0 -68 -33.5 -104t-94.5 -36z" />
    <glyph glyph-name="k" unicode="k" horiz-adv-x="494" 
d="M144 760v-386q0 -32 -1 -66.5t-1 -68.5h1q13 16 29.5 36.5t31.5 36.5l202 220h68l-210 -228l228 -304h-68l-200 266l-80 -82v-184h-56v760h56z" />
    <glyph glyph-name="l" unicode="l" horiz-adv-x="232" 
d="M145 0h-57v760h57v-760z" />
    <glyph glyph-name="m" unicode="m" horiz-adv-x="894" 
d="M644 542q79 0 123.5 -45t44.5 -142v-355h-56v352q0 72 -32 106t-88 34q-76 0 -117 -44.5t-41 -137.5v-310h-56v352q0 72 -32 106t-88 34q-76 0 -117 -46.5t-41 -143.5v-302h-56v532h46l8 -84h4q20 39 60.5 66.5t103.5 27.5q58 0 98 -25t56 -75h4q22 48 68 74t108 26z" />
    <glyph glyph-name="n" unicode="n" horiz-adv-x="596" 
d="M326 542q91 0 139 -47t48 -147v-348h-57v344q0 76 -34.5 112t-101.5 36q-176 0 -176 -202v-290h-56v532h46l8 -92h4q21 44 66.5 73t113.5 29z" />
    <glyph glyph-name="o" unicode="o" horiz-adv-x="590" 
d="M533 266q0 -83 -27.5 -145t-81 -96.5t-130.5 -34.5q-74 0 -127 34t-81.5 96t-28.5 146q0 130 64.5 203t176.5 73q76 0 128.5 -34.5t79.5 -96.5t27 -145zM116 266q0 -102 43 -164.5t135 -62.5q93 0 136.5 62.5t43.5 164.5q0 66 -18 117t-57 80t-102 29q-91 0 -136 -60
t-45 -166z" />
    <glyph glyph-name="p" unicode="p" horiz-adv-x="599" 
d="M326 542q102 0 159.5 -68.5t57.5 -204.5t-59.5 -207.5t-162.5 -71.5q-71 0 -113.5 30t-62.5 72h-4q1 -26 2.5 -55t1.5 -55v-218h-57v768h47l7 -100h3q20 44 63.5 77t117.5 33zM318 492q-88 0 -130 -55.5t-43 -160.5v-10q0 -114 41.5 -170.5t127.5 -56.5q82 0 126 61
t44 170q0 107 -41.5 164.5t-124.5 57.5z" />
    <glyph glyph-name="q" unicode="q" horiz-adv-x="599" 
d="M454 -236v232q0 21 0.5 50.5t2.5 50.5h-4q-20 -46 -66 -76.5t-116 -30.5q-101 0 -158 69.5t-57 204.5q0 126 57 202t167 76q68 0 110.5 -29t62.5 -69h3l8 88h46v-768h-56zM280 38q92 0 132.5 56.5t41.5 161.5v14q0 110 -39.5 166.5t-128.5 56.5q-86 0 -129 -61t-43 -168
q0 -110 41 -168t125 -58z" />
    <glyph glyph-name="r" unicode="r" horiz-adv-x="394" 
d="M306 541q42 0 72 -9l-8 -52q-16 4 -32 6t-34 2q-74 0 -116.5 -53.5t-42.5 -142.5v-292h-57v532h48l6 -100h3q20 45 60.5 77t100.5 32z" />
    <glyph glyph-name="s" unicode="s" horiz-adv-x="468" 
d="M422 141q0 -73 -53.5 -112t-152.5 -39q-56 0 -98.5 10t-71.5 24v55q35 -18 80 -29.5t92 -11.5q78 0 113 26.5t35 72.5q0 44 -36.5 67.5t-109.5 48.5q-49 17 -86.5 34t-58.5 44.5t-21 74.5q0 64 52 100t139 36q48 0 89.5 -9.5t75.5 -23.5l-20 -47q-31 14 -70 23t-78 9
q-63 0 -98 -22t-35 -64q0 -32 17 -50.5t49 -32t78 -29.5q47 -16 85.5 -34t61 -46t22.5 -75z" />
    <glyph glyph-name="t" unicode="t" horiz-adv-x="340" 
d="M238 38q22 0 42.5 3.5t34.5 8.5v-46q-16 -6 -37.5 -10t-47.5 -4q-66 0 -102 37.5t-36 120.5v338h-79v32l79 18l20 123h36v-127h164v-46h-164v-336q0 -112 90 -112z" />
    <glyph glyph-name="u" unicode="u" horiz-adv-x="596" 
d="M507 532v-532h-47l-8 91h-3q-22 -43 -67.5 -72t-113.5 -29q-188 0 -188 194v348h58v-344q0 -76 34 -112.5t102 -36.5q176 0 176 203v290h57z" />
    <glyph glyph-name="v" unicode="v" horiz-adv-x="469" 
d="M204 0l-204 532h60l132 -353q13 -33 23.5 -65t16.5 -57h4q7 25 17.5 57.5t22.5 64.5l132 353h61l-204 -532h-61z" />
    <glyph glyph-name="w" unicode="w" horiz-adv-x="736" 
d="M514 0l-108 346q-10 33 -19 62.5t-15 55.5h-2q-6 -26 -14 -56t-19 -63l-113 -345h-60l-150 532h59l90 -329q12 -44 20.5 -77.5t12.5 -59.5h2q6 24 14 57t22 73l110 336h58l106 -336q10 -36 20 -70t14 -60h4q3 24 11.5 58.5t19.5 78.5l87 329h58l-145 -532h-63z" />
    <glyph glyph-name="x" unicode="x" horiz-adv-x="504" 
d="M216 273l-186 259h67l153 -220l154 220h65l-184 -259l195 -273h-66l-164 234l-163 -234h-65z" />
    <glyph glyph-name="y" unicode="y" horiz-adv-x="469" 
d="M0 532h61l127 -331q16 -44 28 -78.5t19 -61.5h3q7 23 19 59t28 80l124 332h61l-240 -627q-27 -70 -64 -108.5t-100 -38.5q-20 0 -35 3t-29 7v48q26 -9 57 -9q42 0 68.5 26t46.5 79l35 90z" />
    <glyph glyph-name="z" unicode="z" horiz-adv-x="463" 
d="M422 0h-382v37l312 449h-290v46h358v-40l-312 -446h314v-46z" />
    <glyph glyph-name="braceleft" unicode="{" horiz-adv-x="358" 
d="M324 -158q-87 0 -134 37t-47 110v159q0 57 -28.5 81.5t-87.5 24.5v48q59 1 87.5 25t28.5 81v160q0 72 48 109t133 37v-48q-62 -2 -93 -26t-31 -80v-156q0 -51 -22 -83t-72 -41v-4q50 -9 72 -40.5t22 -82.5v-160q0 -53 31 -77.5t93 -25.5v-48z" />
    <glyph glyph-name="bar" unicode="|" horiz-adv-x="543" 
d="M246 762h49v-1008h-49v1008z" />
    <glyph glyph-name="braceright" unicode="}" horiz-adv-x="358" 
d="M34 -158v48q62 2 93 26t31 78v158q0 51 22 83t72 41v4q-50 9 -72 41t-22 83v157q0 55 -31 79.5t-93 25.5v48q87 0 134 -37t47 -110v-159q0 -57 28.5 -81.5t87.5 -24.5v-48q-59 0 -87.5 -24.5t-28.5 -81.5v-160q0 -72 -48 -109t-133 -37z" />
    <glyph glyph-name="asciitilde" unicode="~" horiz-adv-x="571" 
d="M276 330q-32 15 -56 22.5t-52 7.5q-60 0 -115 -58v55q23 24 54 37.5t65 13.5t61.5 -8t64.5 -25q32 -14 55.5 -21.5t49.5 -7.5q28 0 58 14t57 42v-52q-22 -24 -52 -38t-66 -14q-32 0 -59 8t-65 24z" />
    <glyph glyph-name="uni00A0" unicode="&#xa0;" horiz-adv-x="260" 
 />
    <glyph glyph-name="exclamdown" unicode="&#xa1;" horiz-adv-x="246" 
d="M166 492q0 -50 -43 -50q-45 0 -45 50q0 49 45 49q43 0 43 -49zM101 342h41l14 -526h-68z" />
    <glyph glyph-name="cent" unicode="&#xa2;" horiz-adv-x="571" 
d="M346 724v-83q38 -1 70.5 -8t59.5 -19l-15 -48q-59 24 -119 24q-94 0 -145 -60.5t-51 -167.5q0 -104 45.5 -163t140.5 -59q40 0 74 7.5t64 20.5v-52q-26 -11 -56.5 -18.5t-68.5 -9.5v-98h-46v100q-103 9 -157 78.5t-54 193.5t57 194t154 82v86h47z" />
    <glyph glyph-name="sterling" unicode="&#xa3;" horiz-adv-x="571" 
d="M339 723q51 0 90.5 -10t71.5 -25l-20 -48q-31 14 -65.5 24t-75.5 10q-68 0 -101.5 -37.5t-33.5 -118.5v-145h201v-45h-201v-126q0 -65 -21.5 -99.5t-52.5 -50.5h395v-52h-489v48q52 10 81.5 46.5t29.5 106.5v127h-101v45h101v152q0 97 51 147.5t140 50.5z" />
    <glyph glyph-name="currency" unicode="&#xa4;" horiz-adv-x="571" 
d="M87 354q0 68 43 122l-72 72l32 32l72 -71q52 43 123 43q68 0 123 -43l72 71l31 -32l-71 -72q44 -53 44 -122t-44 -124l71 -72l-31 -31l-72 71q-52 -42 -123 -42q-34 0 -65.5 10.5t-57.5 31.5l-72 -70l-32 31l72 72q-43 54 -43 123zM132 354q0 -44 20.5 -79t55 -55
t76.5 -20q43 0 78.5 21t56.5 56t21 77t-21 77t-56 56t-77 21q-43 0 -78 -20.5t-55.5 -55.5t-20.5 -78z" />
    <glyph glyph-name="yen" unicode="&#xa5;" horiz-adv-x="571" 
d="M286 350l203 364h61l-220 -383h146v-45h-162v-96h162v-44h-162v-146h-56v146h-164v44h164v96h-164v45h144l-218 383h61z" />
    <glyph glyph-name="brokenbar" unicode="&#xa6;" horiz-adv-x="543" 
d="M246 762h49v-375h-49v375zM246 129h49v-375h-49v375z" />
    <glyph glyph-name="section" unicode="&#xa7;" horiz-adv-x="516" 
d="M74 395q0 49 27.5 80t66.5 47q-40 17 -64.5 42.5t-24.5 69.5q0 60 49 94t137 34q50 0 89.5 -9t73.5 -23l-20 -45q-30 13 -66 22t-80 9q-129 0 -129 -80q0 -40 35.5 -59t102.5 -42q47 -17 85 -35.5t60 -46t22 -71.5q0 -50 -25 -83t-59 -52q36 -17 58 -43t22 -68
q0 -64 -52.5 -101.5t-151.5 -37.5q-54 0 -96 9.5t-72 23.5v52q35 -17 79.5 -28.5t90.5 -11.5q81 0 114.5 26t33.5 65q0 40 -34.5 61.5t-107.5 46.5q-48 17 -85 35t-58 46t-21 73zM125 400q0 -48 37 -71.5t106 -48.5l41 -13q32 16 55 43t23 66q0 46 -39.5 73t-127.5 52
q-39 -10 -67 -35.5t-28 -65.5z" />
    <glyph glyph-name="dieresis" unicode="&#xa8;" horiz-adv-x="578" 
d="M160 680q0 40 34 40q36 0 36 -40q0 -41 -36 -41q-34 0 -34 41zM346 680q0 40 34 40q36 0 36 -40q0 -41 -36 -41q-34 0 -34 41z" />
    <glyph glyph-name="copyright" unicode="&#xa9;" horiz-adv-x="832" 
d="M416 -9q-80 0 -147 28t-116 77.5t-76 116t-27 144.5q0 79 28 146t78 116t116.5 76.5t143.5 27.5q78 0 144.5 -28.5t116.5 -79t77.5 -117t27.5 -141.5q0 -78 -28 -144.5t-77.5 -116t-116 -77.5t-144.5 -28zM416 30q69 0 128 25t103 70t69 104.5t25 127.5q0 67 -24 126
t-68 104t-103.5 71t-129.5 26t-129.5 -24.5t-103.5 -69t-68.5 -104t-24.5 -129.5q0 -67 23.5 -126t67.5 -104.5t103.5 -71t131.5 -25.5zM433 138q-95 0 -148 57t-53 161q0 66 25 115.5t71 77t109 27.5q37 0 67.5 -7t57.5 -21l-20 -42q-48 24 -104 24q-70 0 -112 -46.5
t-42 -127.5q0 -85 40 -129t111 -44q29 0 55.5 5.5t54.5 15.5v-44q-25 -10 -51 -16t-61 -6z" />
    <glyph glyph-name="ordfeminine" unicode="&#xaa;" horiz-adv-x="340" 
d="M173 722q115 0 115 -106v-220h-35l-8 44q-16 -21 -42.5 -35.5t-63.5 -14.5q-47 0 -75 23.5t-28 70.5q0 49 38.5 74t119.5 28l50 2v26q0 38 -20 54t-52 16q-27 0 -51.5 -7t-46.5 -19l-16 36q24 12 54 20t61 8zM244 553l-47 -2q-62 -2 -88.5 -18t-26.5 -49q0 -28 17 -42
t48 -14q50 0 73.5 26t23.5 70v29z" />
    <glyph glyph-name="guillemotleft" unicode="&#xab;" horiz-adv-x="449" 
d="M33 278l160 194l39 -24l-138 -176l138 -176l-39 -24l-160 192v14zM216 278l162 194l38 -24l-138 -176l138 -176l-38 -24l-162 192v14z" />
    <glyph glyph-name="logicalnot" unicode="&#xac;" horiz-adv-x="571" 
d="M509 376v-246h-47v199h-410v47h457z" />
    <glyph glyph-name="uni00AD" unicode="&#xad;" horiz-adv-x="322" 
d="M40 244v52h242v-52h-242z" />
    <glyph glyph-name="registered" unicode="&#xae;" horiz-adv-x="832" 
d="M416 -9q-80 0 -147 28t-116 77.5t-76 116t-27 144.5q0 79 28 146t78 116t116.5 76.5t143.5 27.5q78 0 144.5 -28.5t116.5 -79t77.5 -117t27.5 -141.5q0 -78 -28 -144.5t-77.5 -116t-116 -77.5t-144.5 -28zM416 30q69 0 128 25t103 70t69 104.5t25 127.5q0 67 -24 126
t-68 104t-103.5 71t-129.5 26t-129.5 -24.5t-103.5 -69t-68.5 -104t-24.5 -129.5q0 -67 23.5 -126t67.5 -104.5t103.5 -71t131.5 -25.5zM288 140v432h124q71 0 109.5 -30.5t38.5 -93.5q0 -48 -25 -77t-60 -41l115 -190h-59l-105 178h-87v-178h-51zM338 360h70q45 0 73.5 22
t28.5 64q0 44 -27 63t-74 19h-71v-168z" />
    <glyph glyph-name="overscore" unicode="&#xaf;" horiz-adv-x="500" 
d="M503 760h-506v46h506v-46z" />
    <glyph glyph-name="degree" unicode="&#xb0;" horiz-adv-x="428" 
d="M214 429q-66 0 -108.5 40.5t-42.5 106.5t41.5 107t109.5 41q66 0 108.5 -41t42.5 -107t-42.5 -106.5t-108.5 -40.5zM214 471q50 0 77.5 29.5t27.5 75.5q0 48 -28.5 77t-76.5 29q-51 0 -78 -29t-27 -77q0 -46 27 -75.5t78 -29.5z" />
    <glyph glyph-name="plusminus" unicode="&#xb1;" horiz-adv-x="571" 
d="M309 378h209v-47h-209v-212h-48v212h-209v47h209v213h48v-213zM52 0v47h466v-47h-466z" />
    <glyph glyph-name="uni00B2" unicode="&#xb2;" horiz-adv-x="339" 
d="M306 416h-280v38l118 118q38 38 62 65t35 50t11 49q0 35 -21.5 55.5t-61.5 20.5q-31 0 -56.5 -10.5t-52.5 -31.5l-24 34q28 23 61.5 36.5t72.5 13.5q62 0 96.5 -32t34.5 -84q0 -34 -14.5 -62.5t-41.5 -58t-65 -67.5l-93 -90h219v-44z" />
    <glyph glyph-name="uni00B3" unicode="&#xb3;" horiz-adv-x="339" 
d="M168 852q63 0 98 -29t35 -78q0 -41 -21.5 -67.5t-53.5 -35.5v-2q40 -8 63 -34t23 -67q0 -59 -41 -94t-121 -35q-73 0 -128 26v46q65 -31 128 -31q57 0 85 23.5t28 65.5q0 41 -29.5 60t-85.5 19h-62v40h62q52 0 78 22t26 60q0 34 -23 52t-61 18q-34 0 -62 -10.5t-56 -27.5
l-23 34q29 20 63 32.5t78 12.5z" />
    <glyph glyph-name="acute" unicode="&#xb4;" horiz-adv-x="265" 
d="M225 766v-8q-15 -21 -39.5 -49t-52.5 -55.5t-53 -47.5h-40v9q18 19 40.5 46t43 55t33.5 50h68z" />
    <glyph glyph-name="uni00B5" unicode="&#xb5;" horiz-adv-x="602" 
d="M514 532v-532h-48l-8 83h-4q-22 -41 -61 -67t-109 -26q-52 0 -86 17t-54 46h-2q1 -19 1.5 -46t0.5 -58v-189h-56v772h56v-344q0 -149 144 -149q94 0 131.5 52.5t37.5 150.5v290h57z" />
    <glyph glyph-name="paragraph" unicode="&#xb6;" horiz-adv-x="655" 
d="M533 -127h-42v847h-118v-847h-42v441q-31 -9 -71 -9q-88 0 -136.5 57.5t-48.5 170.5q0 119 52.5 173t147.5 54h258v-887z" />
    <glyph glyph-name="periodcentered" unicode="&#xb7;" horiz-adv-x="244" 
d="M78 333q0 49 44 49t44 -49t-44 -49t-44 49z" />
    <glyph glyph-name="cedilla" unicode="&#xb8;" horiz-adv-x="209" 
d="M196 -142q0 -46 -34.5 -72t-95.5 -26q-34 0 -54 6v39q10 -3 24 -4t31 -1q37 0 59 14t22 42q0 29 -25.5 42.5t-71.5 15.5l43 86h42l-30 -59q40 -5 65 -25t25 -58z" />
    <glyph glyph-name="uni00B9" unicode="&#xb9;" horiz-adv-x="339" 
d="M216 844v-428h-48v278q0 27 0.5 53.5t1.5 50.5q-14 -10 -27.5 -20t-32.5 -20l-50 -32l-23 36l133 82h46z" />
    <glyph glyph-name="ordmasculine" unicode="&#xba;" horiz-adv-x="364" 
d="M332 556q0 -75 -39.5 -121t-110.5 -46q-68 0 -108 45.5t-40 121.5q0 80 40.5 124t109.5 44q72 0 110 -46t38 -122zM80 556q0 -59 25 -93.5t77 -34.5q54 0 79 35t25 93t-24 93t-78 35q-104 0 -104 -128z" />
    <glyph glyph-name="guillemotright" unicode="&#xbb;" horiz-adv-x="449" 
d="M416 266l-161 -194l-39 24l138 176l-138 176l39 24l161 -194v-12zM232 266l-161 -194l-39 24l139 176l-139 176l39 24l161 -194v-12z" />
    <glyph glyph-name="onequarter" unicode="&#xbc;" horiz-adv-x="722" 
d="M136 0l404 714h52l-404 -714h-52zM156 286v278q0 27 0.5 53.5t1.5 50.5q-14 -10 -27.5 -20t-32.5 -20l-50 -32l-23 36l133 82h46v-428h-48zM595 0v114h-199v34l198 283h51v-275h67v-42h-67v-114h-50zM446 156h149v128q0 22 0.5 46t1.5 46q-7 -14 -19 -31.5t-22 -32.5z
" />
    <glyph glyph-name="onehalf" unicode="&#xbd;" horiz-adv-x="758" 
d="M122 0l404 714h51l-404 -714h-51zM150 286v278q0 27 0.5 53.5t1.5 50.5q-14 -10 -27.5 -20t-32.5 -20l-50 -32l-23 36l133 82h46v-428h-48zM444 0v37l119 119q39 38 62.5 65t34 50t10.5 49q0 35 -21.5 55.5t-60.5 20.5q-32 0 -57.5 -10.5t-52.5 -31.5l-24 34
q28 23 61.5 36.5t72.5 13.5q62 0 97 -32t35 -84q0 -34 -14.5 -62.5t-42 -58t-65.5 -67.5l-92 -91h219v-43h-281z" />
    <glyph glyph-name="threequarters" unicode="&#xbe;" horiz-adv-x="770" 
d="M148 280q-70 0 -127 26v46q65 -31 128 -31q56 0 84.5 23.5t28.5 65.5q0 79 -116 79h-62v40h62q52 0 78 22t26 60q0 34 -22.5 52t-60.5 18q-34 0 -62 -10.5t-56 -27.5l-23 34q29 20 62.5 32.5t77.5 12.5q64 0 99 -29t35 -78q0 -41 -21 -67.5t-53 -35.5v-2q40 -8 63 -34
t23 -67q0 -59 -41.5 -94t-122.5 -35zM188 0l404 714h52l-404 -714h-52zM643 0v114h-199v34l198 283h51v-275h67v-42h-67v-114h-50zM494 156h149v128q0 22 0.5 46t1.5 46q-7 -14 -19 -31.5t-22 -32.5z" />
    <glyph glyph-name="questiondown" unicode="&#xbf;" horiz-adv-x="424" 
d="M282 344v-19q0 -43 -7 -73t-25.5 -54t-51.5 -50q-38 -29 -62 -52.5t-36 -49.5t-12 -64q0 -62 38 -92.5t102 -30.5q44 0 80 10.5t70 27.5l21 -48q-42 -19 -82.5 -30t-90.5 -11q-90 0 -141.5 45t-51.5 127q0 48 15.5 81.5t43.5 60.5t66 56q30 23 46.5 43.5t23 46t6.5 62.5
v14h48zM299 494q0 -49 -43 -49q-44 0 -44 49t44 49q43 0 43 -49z" />
    <glyph glyph-name="Agrave" unicode="&#xc0;" horiz-adv-x="608" 
d="M547 0l-95 246h-296l-97 -246h-59l280 716h54l274 -716h-61zM434 298l-96 258q-4 14 -14 44t-18 53q-8 -26 -17 -52.5t-15 -45.5l-99 -257h259zM246 948q13 -22 33.5 -50t43 -55t41.5 -46v-9h-40q-25 20 -53 47.5t-53 55.5t-39 49v8h67z" />
    <glyph glyph-name="Aacute" unicode="&#xc1;" horiz-adv-x="608" 
d="M547 0l-95 246h-296l-97 -246h-59l280 716h54l274 -716h-61zM434 298l-96 258q-4 14 -14 44t-18 53q-8 -26 -17 -52.5t-15 -45.5l-99 -257h259zM448 948v-8q-15 -21 -39.5 -49t-52.5 -55.5t-53 -47.5h-40v9q18 19 40.5 46t43 55t33.5 50h68z" />
    <glyph glyph-name="Acircumflex" unicode="&#xc2;" horiz-adv-x="608" 
d="M547 0l-95 246h-296l-97 -246h-59l280 716h54l274 -716h-61zM434 298l-96 258q-4 14 -14 44t-18 53q-8 -26 -17 -52.5t-15 -45.5l-99 -257h259zM334 946q12 -21 33.5 -48.5t44.5 -54.5t42 -47v-8h-41q-27 22 -55 51t-52 57q-24 -28 -52 -57t-55 -51h-40v8q18 20 41.5 47
t44.5 54.5t34 48.5h55z" />
    <glyph glyph-name="Atilde" unicode="&#xc3;" horiz-adv-x="608" 
d="M547 0l-95 246h-296l-97 -246h-59l280 716h54l274 -716h-61zM434 298l-96 258q-4 14 -14 44t-18 53q-8 -26 -17 -52.5t-15 -45.5l-99 -257h259zM120 794q4 54 30 83.5t70 29.5q23 0 42.5 -10t37 -23t34 -23t34.5 -10q22 0 38 14.5t22 52.5h38q-4 -54 -31 -84t-69 -30
q-23 0 -42.5 10t-36.5 23t-34 23t-37 10q-22 0 -37 -14t-21 -52h-38z" />
    <glyph glyph-name="Adieresis" unicode="&#xc4;" horiz-adv-x="608" 
d="M547 0l-95 246h-296l-97 -246h-59l280 716h54l274 -716h-61zM434 298l-96 258q-4 14 -14 44t-18 53q-8 -26 -17 -52.5t-15 -45.5l-99 -257h259zM178 862q0 40 34 40q36 0 36 -40q0 -41 -36 -41q-34 0 -34 41zM364 862q0 40 34 40q36 0 36 -40q0 -41 -36 -41q-34 0 -34 41
z" />
    <glyph glyph-name="Aring" unicode="&#xc5;" horiz-adv-x="608" 
d="M547 0l-95 246h-296l-97 -246h-59l280 716h54l274 -716h-61zM434 298l-96 258q-4 14 -14 44t-18 53q-8 -26 -17 -52.5t-15 -45.5l-99 -257h259zM305 681q-44 0 -74.5 28t-30.5 76q0 46 30 74t75 28q44 0 74.5 -28.5t30.5 -73.5q0 -48 -30.5 -76t-74.5 -28zM305 719
q29 0 47.5 18.5t18.5 47.5q0 28 -19 47t-47 19q-29 0 -48 -19t-19 -47q0 -29 18 -47.5t49 -18.5z" />
    <glyph glyph-name="AE" unicode="&#xc6;" horiz-adv-x="822" 
d="M786 0h-379v246h-235l-111 -246h-62l323 714h464v-52h-321v-262h301v-51h-301v-297h321v-52zM195 298h212v364h-50z" />
    <glyph glyph-name="Ccedilla" unicode="&#xc7;" horiz-adv-x="623" 
d="M404 672q-88 0 -151 -39.5t-96.5 -110t-33.5 -164.5q0 -96 30.5 -167t90.5 -110t150 -39q52 0 95.5 8t82.5 20v-50q-37 -14 -81.5 -22t-102.5 -8q-108 0 -180.5 46t-109 129t-36.5 194q0 106 40.5 188.5t117 129.5t184.5 47q105 0 188 -40l-23 -50q-78 38 -165 38z
M456 -142q0 -46 -34.5 -72t-95.5 -26q-34 0 -54 6v39q10 -3 24 -4t31 -1q37 0 59 14t22 42q0 29 -25.5 42.5t-71.5 15.5l43 86h42l-30 -59q40 -5 65 -25t25 -58z" />
    <glyph glyph-name="Egrave" unicode="&#xc8;" horiz-adv-x="553" 
d="M492 0h-392v714h392v-52h-334v-262h315v-51h-315v-297h334v-52zM247 948q13 -22 33.5 -50t43 -55t41.5 -46v-9h-40q-25 20 -53 47.5t-53 55.5t-39 49v8h67z" />
    <glyph glyph-name="Eacute" unicode="&#xc9;" horiz-adv-x="553" 
d="M492 0h-392v714h392v-52h-334v-262h315v-51h-315v-297h334v-52zM449 948v-8q-15 -21 -39.5 -49t-52.5 -55.5t-53 -47.5h-40v9q18 19 40.5 46t43 55t33.5 50h68z" />
    <glyph glyph-name="Ecircumflex" unicode="&#xca;" horiz-adv-x="553" 
d="M492 0h-392v714h392v-52h-334v-262h315v-51h-315v-297h334v-52zM335 946q12 -21 33.5 -48.5t44.5 -54.5t42 -47v-8h-41q-27 22 -55 51t-52 57q-24 -28 -52 -57t-55 -51h-40v8q18 20 41.5 47t44.5 54.5t34 48.5h55z" />
    <glyph glyph-name="Edieresis" unicode="&#xcb;" horiz-adv-x="553" 
d="M492 0h-392v714h392v-52h-334v-262h315v-51h-315v-297h334v-52zM179 862q0 40 34 40q36 0 36 -40q0 -41 -36 -41q-34 0 -34 41zM365 862q0 40 34 40q36 0 36 -40q0 -41 -36 -41q-34 0 -34 41z" />
    <glyph glyph-name="Igrave" unicode="&#xcc;" horiz-adv-x="311" 
d="M260 0h-210v36l76 11v619l-76 12v36h210v-36l-76 -12v-619l76 -11v-36zM96 948q13 -22 33.5 -50t43 -55t41.5 -46v-9h-40q-25 20 -53 47.5t-53 55.5t-39 49v8h67z" />
    <glyph glyph-name="Iacute" unicode="&#xcd;" horiz-adv-x="311" 
d="M260 0h-210v36l76 11v619l-76 12v36h210v-36l-76 -12v-619l76 -11v-36zM297 948v-8q-15 -21 -39.5 -49t-52.5 -55.5t-53 -47.5h-40v9q18 19 40.5 46t43 55t33.5 50h68z" />
    <glyph glyph-name="Icircumflex" unicode="&#xce;" horiz-adv-x="311" 
d="M260 0h-210v36l76 11v619l-76 12v36h210v-36l-76 -12v-619l76 -11v-36zM183 946q12 -21 33.5 -48.5t44.5 -54.5t42 -47v-8h-41q-27 22 -55 51t-52 57q-24 -28 -52 -57t-55 -51h-40v8q18 20 41.5 47t44.5 54.5t34 48.5h55z" />
    <glyph glyph-name="Idieresis" unicode="&#xcf;" horiz-adv-x="311" 
d="M260 0h-210v36l76 11v619l-76 12v36h210v-36l-76 -12v-619l76 -11v-36zM27 862q0 40 34 40q36 0 36 -40q0 -41 -36 -41q-34 0 -34 41zM213 862q0 40 34 40q36 0 36 -40q0 -41 -36 -41q-34 0 -34 41z" />
    <glyph glyph-name="Eth" unicode="&#xd0;" horiz-adv-x="711" 
d="M298 714q170 0 260 -89.5t90 -260.5q0 -180 -95 -272t-277 -92h-172v328h-81v52h81v334h194zM287 663h-125v-283h192v-52h-192v-277h110q316 0 316 311q0 301 -301 301z" />
    <glyph glyph-name="Ntilde" unicode="&#xd1;" horiz-adv-x="729" 
d="M628 0h-62l-413 624h-3q2 -39 3 -82.5t1 -91.5v-450h-54v714h62l412 -622h4q-2 31 -3 79.5t-1 89.5v453h54v-714zM189 794q4 54 30 83.5t70 29.5q23 0 42.5 -10t37 -23t34 -23t34.5 -10q22 0 38 14.5t22 52.5h38q-4 -54 -31 -84t-69 -30q-23 0 -42.5 10t-36.5 23t-34 23
t-37 10q-22 0 -37 -14t-21 -52h-38z" />
    <glyph glyph-name="Ograve" unicode="&#xd2;" horiz-adv-x="768" 
d="M705 358q0 -109 -36 -192t-107.5 -129.5t-177.5 -46.5q-108 0 -179.5 46.5t-107 130t-35.5 192.5t36.5 191t109 128.5t179.5 46.5q103 0 173.5 -44.5t107.5 -126.5t37 -196zM123 358q0 -95 28 -166.5t86 -111t147 -39.5q90 0 147.5 39.5t85 110.5t27.5 167
q0 148 -64.5 231.5t-192.5 83.5q-89 0 -148 -39.5t-87.5 -110.5t-28.5 -165zM324 948q13 -22 33.5 -50t43 -55t41.5 -46v-9h-40q-25 20 -53 47.5t-53 55.5t-39 49v8h67z" />
    <glyph glyph-name="Oacute" unicode="&#xd3;" horiz-adv-x="768" 
d="M705 358q0 -109 -36 -192t-107.5 -129.5t-177.5 -46.5q-108 0 -179.5 46.5t-107 130t-35.5 192.5t36.5 191t109 128.5t179.5 46.5q103 0 173.5 -44.5t107.5 -126.5t37 -196zM123 358q0 -95 28 -166.5t86 -111t147 -39.5q90 0 147.5 39.5t85 110.5t27.5 167
q0 148 -64.5 231.5t-192.5 83.5q-89 0 -148 -39.5t-87.5 -110.5t-28.5 -165zM526 948v-8q-15 -21 -39.5 -49t-52.5 -55.5t-53 -47.5h-40v9q18 19 40.5 46t43 55t33.5 50h68z" />
    <glyph glyph-name="Ocircumflex" unicode="&#xd4;" horiz-adv-x="768" 
d="M705 358q0 -109 -36 -192t-107.5 -129.5t-177.5 -46.5q-108 0 -179.5 46.5t-107 130t-35.5 192.5t36.5 191t109 128.5t179.5 46.5q103 0 173.5 -44.5t107.5 -126.5t37 -196zM123 358q0 -95 28 -166.5t86 -111t147 -39.5q90 0 147.5 39.5t85 110.5t27.5 167
q0 148 -64.5 231.5t-192.5 83.5q-89 0 -148 -39.5t-87.5 -110.5t-28.5 -165zM411 946q12 -21 33.5 -48.5t44.5 -54.5t42 -47v-8h-41q-27 22 -55 51t-52 57q-24 -28 -52 -57t-55 -51h-40v8q18 20 41.5 47t44.5 54.5t34 48.5h55z" />
    <glyph glyph-name="Otilde" unicode="&#xd5;" horiz-adv-x="768" 
d="M705 358q0 -109 -36 -192t-107.5 -129.5t-177.5 -46.5q-108 0 -179.5 46.5t-107 130t-35.5 192.5t36.5 191t109 128.5t179.5 46.5q103 0 173.5 -44.5t107.5 -126.5t37 -196zM123 358q0 -95 28 -166.5t86 -111t147 -39.5q90 0 147.5 39.5t85 110.5t27.5 167
q0 148 -64.5 231.5t-192.5 83.5q-89 0 -148 -39.5t-87.5 -110.5t-28.5 -165zM198 794q4 54 30 83.5t70 29.5q23 0 42.5 -10t37 -23t34 -23t34.5 -10q22 0 38 14.5t22 52.5h38q-4 -54 -31 -84t-69 -30q-23 0 -42.5 10t-36.5 23t-34 23t-37 10q-22 0 -37 -14t-21 -52h-38z" />
    <glyph glyph-name="Odieresis" unicode="&#xd6;" horiz-adv-x="768" 
d="M705 358q0 -109 -36 -192t-107.5 -129.5t-177.5 -46.5q-108 0 -179.5 46.5t-107 130t-35.5 192.5t36.5 191t109 128.5t179.5 46.5q103 0 173.5 -44.5t107.5 -126.5t37 -196zM123 358q0 -95 28 -166.5t86 -111t147 -39.5q90 0 147.5 39.5t85 110.5t27.5 167
q0 148 -64.5 231.5t-192.5 83.5q-89 0 -148 -39.5t-87.5 -110.5t-28.5 -165zM256 862q0 40 34 40q36 0 36 -40q0 -41 -36 -41q-34 0 -34 41zM442 862q0 40 34 40q36 0 36 -40q0 -41 -36 -41q-34 0 -34 41z" />
    <glyph glyph-name="multiply" unicode="&#xd7;" horiz-adv-x="571" 
d="M469 570l33 -34l-183 -183l183 -183l-34 -34l-184 182l-182 -182l-34 34l183 183l-183 183l34 34l183 -184z" />
    <glyph glyph-name="Oslash" unicode="&#xd8;" horiz-adv-x="768" 
d="M705 358q0 -109 -36 -192t-107.5 -129.5t-177.5 -46.5q-61 0 -109.5 15.5t-86.5 44.5l-56 -78l-41 27l60 83q-44 50 -66.5 120.5t-22.5 156.5q0 109 36.5 191t109 128.5t179.5 46.5q56 0 103 -14.5t84 -40.5l54 73l40 -28l-56 -77q45 -48 69 -119t24 -161zM123 358
q0 -70 15.5 -128t47.5 -99l357 493q-61 49 -156 49q-89 0 -148 -39.5t-87.5 -110.5t-28.5 -165zM644 358q0 151 -66 232l-358 -495q30 -25 71.5 -39.5t92.5 -14.5q90 0 147.5 39.5t85 110.5t27.5 167z" />
    <glyph glyph-name="Ugrave" unicode="&#xd9;" horiz-adv-x="722" 
d="M629 714v-462q0 -122 -71 -192t-200 -70q-128 0 -197 70t-69 194v460h58v-460q0 -104 54 -158.5t158 -54.5q101 0 155.5 54.5t54.5 152.5v466h57zM301 948q13 -22 33.5 -50t43 -55t41.5 -46v-9h-40q-25 20 -53 47.5t-53 55.5t-39 49v8h67z" />
    <glyph glyph-name="Uacute" unicode="&#xda;" horiz-adv-x="722" 
d="M629 714v-462q0 -122 -71 -192t-200 -70q-128 0 -197 70t-69 194v460h58v-460q0 -104 54 -158.5t158 -54.5q101 0 155.5 54.5t54.5 152.5v466h57zM503 948v-8q-15 -21 -39.5 -49t-52.5 -55.5t-53 -47.5h-40v9q18 19 40.5 46t43 55t33.5 50h68z" />
    <glyph glyph-name="Ucircumflex" unicode="&#xdb;" horiz-adv-x="722" 
d="M629 714v-462q0 -122 -71 -192t-200 -70q-128 0 -197 70t-69 194v460h58v-460q0 -104 54 -158.5t158 -54.5q101 0 155.5 54.5t54.5 152.5v466h57zM389 946q12 -21 33.5 -48.5t44.5 -54.5t42 -47v-8h-41q-27 22 -55 51t-52 57q-24 -28 -52 -57t-55 -51h-40v8
q18 20 41.5 47t44.5 54.5t34 48.5h55z" />
    <glyph glyph-name="Udieresis" unicode="&#xdc;" horiz-adv-x="722" 
d="M629 714v-462q0 -122 -71 -192t-200 -70q-128 0 -197 70t-69 194v460h58v-460q0 -104 54 -158.5t158 -54.5q101 0 155.5 54.5t54.5 152.5v466h57zM233 862q0 40 34 40q36 0 36 -40q0 -41 -36 -41q-34 0 -34 41zM419 862q0 40 34 40q36 0 36 -40q0 -41 -36 -41
q-34 0 -34 41z" />
    <glyph glyph-name="Yacute" unicode="&#xdd;" horiz-adv-x="536" 
d="M268 332l204 382h64l-238 -438v-276h-58v272l-240 442h64zM410 948v-8q-15 -21 -39.5 -49t-52.5 -55.5t-53 -47.5h-40v9q18 19 40.5 46t43 55t33.5 50h68z" />
    <glyph glyph-name="Thorn" unicode="&#xde;" horiz-adv-x="589" 
d="M536 382q0 -100 -66 -159t-208 -59h-104v-164h-58v714h58v-128h124q131 0 192.5 -51t61.5 -153zM158 214h98q106 0 163 37t57 129q0 81 -48 118t-153 37h-117v-321z" />
    <glyph glyph-name="germandbls" unicode="&#xdf;" horiz-adv-x="592" 
d="M480 626q0 -36 -14 -60t-34.5 -41.5t-41 -33t-34.5 -33t-14 -42.5q0 -30 21 -50.5t70 -53.5q33 -22 58 -44t39 -51.5t14 -72.5q0 -72 -46 -113t-130 -41q-46 0 -79.5 8t-59.5 22v54q29 -16 64.5 -26t73.5 -10q61 0 91 28t30 74q0 47 -24 75t-70 59q-53 36 -80.5 65
t-27.5 75q0 34 13.5 55.5t34 37.5t41 31.5t34 35.5t13.5 50q0 45 -34 68.5t-94 23.5q-69 0 -109.5 -34t-40.5 -108v-574h-57v574q0 98 56.5 144.5t150.5 46.5q87 0 136.5 -36.5t49.5 -102.5z" />
    <glyph glyph-name="agrave" unicode="&#xe0;" horiz-adv-x="536" 
d="M276 541q90 0 134 -44t44 -139v-358h-43l-11 90h-2q-28 -45 -70 -72.5t-116 -27.5q-76 0 -120.5 38t-44.5 111q0 79 64.5 121t189.5 47l97 5v37q0 79 -31.5 111.5t-92.5 32.5q-41 0 -79 -10.5t-76 -30.5l-18 46q37 19 82 31t93 12zM398 268l-90 -4q-102 -4 -152 -34.5
t-50 -91.5q0 -49 31 -74.5t85 -25.5q83 0 128.5 47t47.5 132v51zM206 766q13 -22 33.5 -50t43 -55t41.5 -46v-9h-40q-25 20 -53 47.5t-53 55.5t-39 49v8h67z" />
    <glyph glyph-name="aacute" unicode="&#xe1;" horiz-adv-x="536" 
d="M276 541q90 0 134 -44t44 -139v-358h-43l-11 90h-2q-28 -45 -70 -72.5t-116 -27.5q-76 0 -120.5 38t-44.5 111q0 79 64.5 121t189.5 47l97 5v37q0 79 -31.5 111.5t-92.5 32.5q-41 0 -79 -10.5t-76 -30.5l-18 46q37 19 82 31t93 12zM398 268l-90 -4q-102 -4 -152 -34.5
t-50 -91.5q0 -49 31 -74.5t85 -25.5q83 0 128.5 47t47.5 132v51zM408 766v-8q-15 -21 -39.5 -49t-52.5 -55.5t-53 -47.5h-40v9q18 19 40.5 46t43 55t33.5 50h68z" />
    <glyph glyph-name="acircumflex" unicode="&#xe2;" horiz-adv-x="536" 
d="M276 541q90 0 134 -44t44 -139v-358h-43l-11 90h-2q-28 -45 -70 -72.5t-116 -27.5q-76 0 -120.5 38t-44.5 111q0 79 64.5 121t189.5 47l97 5v37q0 79 -31.5 111.5t-92.5 32.5q-41 0 -79 -10.5t-76 -30.5l-18 46q37 19 82 31t93 12zM398 268l-90 -4q-102 -4 -152 -34.5
t-50 -91.5q0 -49 31 -74.5t85 -25.5q83 0 128.5 47t47.5 132v51zM293 764q12 -21 33.5 -48.5t44.5 -54.5t42 -47v-8h-41q-27 22 -55 51t-52 57q-24 -28 -52 -57t-55 -51h-40v8q18 20 41.5 47t44.5 54.5t34 48.5h55z" />
    <glyph glyph-name="atilde" unicode="&#xe3;" horiz-adv-x="536" 
d="M276 541q90 0 134 -44t44 -139v-358h-43l-11 90h-2q-28 -45 -70 -72.5t-116 -27.5q-76 0 -120.5 38t-44.5 111q0 79 64.5 121t189.5 47l97 5v37q0 79 -31.5 111.5t-92.5 32.5q-41 0 -79 -10.5t-76 -30.5l-18 46q37 19 82 31t93 12zM398 268l-90 -4q-102 -4 -152 -34.5
t-50 -91.5q0 -49 31 -74.5t85 -25.5q83 0 128.5 47t47.5 132v51zM80 612q4 54 30 83.5t70 29.5q23 0 42.5 -10t37 -23t34 -23t34.5 -10q22 0 38 14.5t22 52.5h38q-4 -54 -31 -84t-69 -30q-23 0 -42.5 10t-36.5 23t-34 23t-37 10q-22 0 -37 -14t-21 -52h-38z" />
    <glyph glyph-name="adieresis" unicode="&#xe4;" horiz-adv-x="536" 
d="M276 541q90 0 134 -44t44 -139v-358h-43l-11 90h-2q-28 -45 -70 -72.5t-116 -27.5q-76 0 -120.5 38t-44.5 111q0 79 64.5 121t189.5 47l97 5v37q0 79 -31.5 111.5t-92.5 32.5q-41 0 -79 -10.5t-76 -30.5l-18 46q37 19 82 31t93 12zM398 268l-90 -4q-102 -4 -152 -34.5
t-50 -91.5q0 -49 31 -74.5t85 -25.5q83 0 128.5 47t47.5 132v51zM138 680q0 40 34 40q36 0 36 -40q0 -41 -36 -41q-34 0 -34 41zM324 680q0 40 34 40q36 0 36 -40q0 -41 -36 -41q-34 0 -34 41z" />
    <glyph glyph-name="aring" unicode="&#xe5;" horiz-adv-x="536" 
d="M276 541q90 0 134 -44t44 -139v-358h-43l-11 90h-2q-28 -45 -70 -72.5t-116 -27.5q-76 0 -120.5 38t-44.5 111q0 79 64.5 121t189.5 47l97 5v37q0 79 -31.5 111.5t-92.5 32.5q-41 0 -79 -10.5t-76 -30.5l-18 46q37 19 82 31t93 12zM398 268l-90 -4q-102 -4 -152 -34.5
t-50 -91.5q0 -49 31 -74.5t85 -25.5q83 0 128.5 47t47.5 132v51zM265 608q-44 0 -74.5 28t-30.5 76q0 46 30 74t75 28q44 0 74.5 -28.5t30.5 -73.5q0 -48 -30.5 -76t-74.5 -28zM265 646q29 0 47.5 18.5t18.5 47.5q0 28 -19 47t-47 19q-29 0 -48 -19t-19 -47q0 -29 18 -47.5
t49 -18.5z" />
    <glyph glyph-name="ae" unicode="&#xe6;" horiz-adv-x="857" 
d="M604 542q64 0 108.5 -31.5t67 -86.5t21.5 -126v-39h-357q0 -109 46 -164t129 -55q46 0 81.5 8t78.5 28v-52q-39 -18 -77 -26t-84 -8q-76 0 -128 36t-76 98q-27 -61 -74 -97.5t-127 -36.5q-77 0 -121.5 38t-44.5 111q0 79 63.5 121t182.5 47l93 5v38q0 78 -32 110.5
t-90 32.5q-38 0 -76 -10.5t-76 -30.5l-18 46q38 20 83 31.5t91 11.5q66 0 105 -28.5t53 -90.5q24 54 69 87t109 33zM603 494q-65 0 -107.5 -48t-49.5 -140h295q1 84 -33.5 136t-104.5 52zM385 268l-85 -4q-96 -4 -145 -34.5t-49 -91.5q0 -49 30 -74.5t84 -25.5q78 0 121 47
t44 132v51z" />
    <glyph glyph-name="ccedilla" unicode="&#xe7;" horiz-adv-x="476" 
d="M301 -10q-117 0 -180.5 71.5t-63.5 201.5q0 89 32 151.5t89.5 95t133.5 32.5q39 0 72.5 -7t59.5 -19l-16 -50q-56 25 -116 25q-94 0 -145 -61t-51 -166q0 -100 45 -162t139 -62q40 0 75 8t63 21v-51q-26 -13 -60 -20.5t-77 -7.5zM370 -142q0 -46 -34.5 -72t-95.5 -26
q-34 0 -54 6v39q10 -3 24 -4t31 -1q37 0 59 14t22 42q0 29 -25.5 42.5t-71.5 15.5l43 86h42l-30 -59q40 -5 65 -25t25 -58z" />
    <glyph glyph-name="egrave" unicode="&#xe8;" horiz-adv-x="552" 
d="M290 542q68 0 114 -31.5t69 -86.5t23 -126v-40h-380q0 -105 49 -161.5t141 -56.5q50 0 87 8t81 28v-52q-40 -18 -79 -26t-91 -8q-119 0 -183 73t-64 199q0 81 27.5 144.5t79.5 99.5t126 36zM289 494q-73 0 -118.5 -49t-53.5 -139h319q0 84 -35.5 136t-111.5 52zM223 766
q13 -22 33.5 -50t43 -55t41.5 -46v-9h-40q-25 20 -53 47.5t-53 55.5t-39 49v8h67z" />
    <glyph glyph-name="eacute" unicode="&#xe9;" horiz-adv-x="552" 
d="M290 542q68 0 114 -31.5t69 -86.5t23 -126v-40h-380q0 -105 49 -161.5t141 -56.5q50 0 87 8t81 28v-52q-40 -18 -79 -26t-91 -8q-119 0 -183 73t-64 199q0 81 27.5 144.5t79.5 99.5t126 36zM289 494q-73 0 -118.5 -49t-53.5 -139h319q0 84 -35.5 136t-111.5 52zM425 766
v-8q-15 -21 -39.5 -49t-52.5 -55.5t-53 -47.5h-40v9q18 19 40.5 46t43 55t33.5 50h68z" />
    <glyph glyph-name="ecircumflex" unicode="&#xea;" horiz-adv-x="552" 
d="M290 542q68 0 114 -31.5t69 -86.5t23 -126v-40h-380q0 -105 49 -161.5t141 -56.5q50 0 87 8t81 28v-52q-40 -18 -79 -26t-91 -8q-119 0 -183 73t-64 199q0 81 27.5 144.5t79.5 99.5t126 36zM289 494q-73 0 -118.5 -49t-53.5 -139h319q0 84 -35.5 136t-111.5 52zM311 764
q12 -21 33.5 -48.5t44.5 -54.5t42 -47v-8h-41q-27 22 -55 51t-52 57q-24 -28 -52 -57t-55 -51h-40v8q18 20 41.5 47t44.5 54.5t34 48.5h55z" />
    <glyph glyph-name="edieresis" unicode="&#xeb;" horiz-adv-x="552" 
d="M290 542q68 0 114 -31.5t69 -86.5t23 -126v-40h-380q0 -105 49 -161.5t141 -56.5q50 0 87 8t81 28v-52q-40 -18 -79 -26t-91 -8q-119 0 -183 73t-64 199q0 81 27.5 144.5t79.5 99.5t126 36zM289 494q-73 0 -118.5 -49t-53.5 -139h319q0 84 -35.5 136t-111.5 52zM154 680
q0 40 34 40q36 0 36 -40q0 -41 -36 -41q-34 0 -34 41zM340 680q0 40 34 40q36 0 36 -40q0 -41 -36 -41q-34 0 -34 41z" />
    <glyph glyph-name="igrave" unicode="&#xec;" horiz-adv-x="232" 
d="M144 0h-56v532h56v-532zM57 766q13 -22 33.5 -50t43 -55t41.5 -46v-9h-40q-25 20 -53 47.5t-53 55.5t-39 49v8h67z" />
    <glyph glyph-name="iacute" unicode="&#xed;" horiz-adv-x="232" 
d="M144 0h-56v532h56v-532zM258 766v-8q-15 -21 -39.5 -49t-52.5 -55.5t-53 -47.5h-40v9q18 19 40.5 46t43 55t33.5 50h68z" />
    <glyph glyph-name="icircumflex" unicode="&#xee;" horiz-adv-x="232" 
d="M144 0h-56v532h56v-532zM144 764q12 -21 33.5 -48.5t44.5 -54.5t42 -47v-8h-41q-27 22 -55 51t-52 57q-24 -28 -52 -57t-55 -51h-40v8q18 20 41.5 47t44.5 54.5t34 48.5h55z" />
    <glyph glyph-name="idieresis" unicode="&#xef;" horiz-adv-x="232" 
d="M144 0h-56v532h56v-532zM-12 680q0 40 34 40q36 0 36 -40q0 -41 -36 -41q-34 0 -34 41zM174 680q0 40 34 40q36 0 36 -40q0 -41 -36 -41q-34 0 -34 41z" />
    <glyph glyph-name="eth" unicode="&#xf0;" horiz-adv-x="580" 
d="M210 761q70 -32 122 -72l112 67l25 -38l-101 -59q74 -71 114 -169t40 -216q0 -130 -60 -207t-174 -77q-71 0 -123 29.5t-80.5 83t-28.5 125.5q0 74 29 128.5t80 83.5t119 29q62 0 102 -17.5t64 -48.5l4 1q-15 64 -49.5 123.5t-82.5 104.5l-130 -76l-26 37l118 69
q-21 16 -46.5 31t-51.5 27zM291 421q-83 0 -130 -51t-47 -144q0 -87 45 -137.5t129 -50.5q87 0 131.5 59t44.5 171q0 35 -16 70.5t-54 59t-103 23.5z" />
    <glyph glyph-name="ntilde" unicode="&#xf1;" horiz-adv-x="596" 
d="M326 542q91 0 139 -47t48 -147v-348h-57v344q0 76 -34.5 112t-101.5 36q-176 0 -176 -202v-290h-56v532h46l8 -92h4q21 44 66.5 73t113.5 29zM121 612q4 54 30 83.5t70 29.5q23 0 42.5 -10t37 -23t34 -23t34.5 -10q22 0 38 14.5t22 52.5h38q-4 -54 -31 -84t-69 -30
q-23 0 -42.5 10t-36.5 23t-34 23t-37 10q-22 0 -37 -14t-21 -52h-38z" />
    <glyph glyph-name="ograve" unicode="&#xf2;" horiz-adv-x="590" 
d="M533 266q0 -83 -27.5 -145t-81 -96.5t-130.5 -34.5q-74 0 -127 34t-81.5 96t-28.5 146q0 130 64.5 203t176.5 73q76 0 128.5 -34.5t79.5 -96.5t27 -145zM116 266q0 -102 43 -164.5t135 -62.5q93 0 136.5 62.5t43.5 164.5q0 66 -18 117t-57 80t-102 29q-91 0 -136 -60
t-45 -166zM235 766q13 -22 33.5 -50t43 -55t41.5 -46v-9h-40q-25 20 -53 47.5t-53 55.5t-39 49v8h67z" />
    <glyph glyph-name="oacute" unicode="&#xf3;" horiz-adv-x="590" 
d="M533 266q0 -83 -27.5 -145t-81 -96.5t-130.5 -34.5q-74 0 -127 34t-81.5 96t-28.5 146q0 130 64.5 203t176.5 73q76 0 128.5 -34.5t79.5 -96.5t27 -145zM116 266q0 -102 43 -164.5t135 -62.5q93 0 136.5 62.5t43.5 164.5q0 66 -18 117t-57 80t-102 29q-91 0 -136 -60
t-45 -166zM437 766v-8q-15 -21 -39.5 -49t-52.5 -55.5t-53 -47.5h-40v9q18 19 40.5 46t43 55t33.5 50h68z" />
    <glyph glyph-name="ocircumflex" unicode="&#xf4;" horiz-adv-x="590" 
d="M533 266q0 -83 -27.5 -145t-81 -96.5t-130.5 -34.5q-74 0 -127 34t-81.5 96t-28.5 146q0 130 64.5 203t176.5 73q76 0 128.5 -34.5t79.5 -96.5t27 -145zM116 266q0 -102 43 -164.5t135 -62.5q93 0 136.5 62.5t43.5 164.5q0 66 -18 117t-57 80t-102 29q-91 0 -136 -60
t-45 -166zM323 764q12 -21 33.5 -48.5t44.5 -54.5t42 -47v-8h-41q-27 22 -55 51t-52 57q-24 -28 -52 -57t-55 -51h-40v8q18 20 41.5 47t44.5 54.5t34 48.5h55z" />
    <glyph glyph-name="otilde" unicode="&#xf5;" horiz-adv-x="590" 
d="M533 266q0 -83 -27.5 -145t-81 -96.5t-130.5 -34.5q-74 0 -127 34t-81.5 96t-28.5 146q0 130 64.5 203t176.5 73q76 0 128.5 -34.5t79.5 -96.5t27 -145zM116 266q0 -102 43 -164.5t135 -62.5q93 0 136.5 62.5t43.5 164.5q0 66 -18 117t-57 80t-102 29q-91 0 -136 -60
t-45 -166zM110 612q4 54 30 83.5t70 29.5q23 0 42.5 -10t37 -23t34 -23t34.5 -10q22 0 38 14.5t22 52.5h38q-4 -54 -31 -84t-69 -30q-23 0 -42.5 10t-36.5 23t-34 23t-37 10q-22 0 -37 -14t-21 -52h-38z" />
    <glyph glyph-name="odieresis" unicode="&#xf6;" horiz-adv-x="590" 
d="M533 266q0 -83 -27.5 -145t-81 -96.5t-130.5 -34.5q-74 0 -127 34t-81.5 96t-28.5 146q0 130 64.5 203t176.5 73q76 0 128.5 -34.5t79.5 -96.5t27 -145zM116 266q0 -102 43 -164.5t135 -62.5q93 0 136.5 62.5t43.5 164.5q0 66 -18 117t-57 80t-102 29q-91 0 -136 -60
t-45 -166zM166 680q0 40 34 40q36 0 36 -40q0 -41 -36 -41q-34 0 -34 41zM352 680q0 40 34 40q36 0 36 -40q0 -41 -36 -41q-34 0 -34 41z" />
    <glyph glyph-name="divide" unicode="&#xf7;" horiz-adv-x="571" 
d="M284 481q-40 0 -40 46q0 45 40 45q42 0 42 -45q0 -46 -42 -46zM52 329v47h466v-47h-466zM284 132q-40 0 -40 46t40 46q42 0 42 -46t-42 -46z" />
    <glyph glyph-name="oslash" unicode="&#xf8;" horiz-adv-x="590" 
d="M533 266q0 -83 -27.5 -145t-81 -96.5t-130.5 -34.5q-45 0 -80.5 13t-63.5 36l-53 -69l-39 28l58 73q-28 37 -43.5 86t-15.5 109q0 130 64.5 203t176.5 73q85 0 140 -46l48 64l40 -26l-53 -69q60 -75 60 -199zM116 266q0 -44 8 -82t25 -66l258 337q-20 17 -47.5 27
t-62.5 10q-91 0 -136 -60t-45 -166zM474 266q0 45 -8.5 84t-26.5 68l-259 -338q21 -20 49.5 -30.5t64.5 -10.5q93 0 136.5 62.5t43.5 164.5z" />
    <glyph glyph-name="ugrave" unicode="&#xf9;" horiz-adv-x="596" 
d="M507 532v-532h-47l-8 91h-3q-22 -43 -67.5 -72t-113.5 -29q-188 0 -188 194v348h58v-344q0 -76 34 -112.5t102 -36.5q176 0 176 203v290h57zM238 766q13 -22 33.5 -50t43 -55t41.5 -46v-9h-40q-25 20 -53 47.5t-53 55.5t-39 49v8h67z" />
    <glyph glyph-name="uacute" unicode="&#xfa;" horiz-adv-x="596" 
d="M507 532v-532h-47l-8 91h-3q-22 -43 -67.5 -72t-113.5 -29q-188 0 -188 194v348h58v-344q0 -76 34 -112.5t102 -36.5q176 0 176 203v290h57zM440 766v-8q-15 -21 -39.5 -49t-52.5 -55.5t-53 -47.5h-40v9q18 19 40.5 46t43 55t33.5 50h68z" />
    <glyph glyph-name="ucircumflex" unicode="&#xfb;" horiz-adv-x="596" 
d="M507 532v-532h-47l-8 91h-3q-22 -43 -67.5 -72t-113.5 -29q-188 0 -188 194v348h58v-344q0 -76 34 -112.5t102 -36.5q176 0 176 203v290h57zM325 764q12 -21 33.5 -48.5t44.5 -54.5t42 -47v-8h-41q-27 22 -55 51t-52 57q-24 -28 -52 -57t-55 -51h-40v8q18 20 41.5 47
t44.5 54.5t34 48.5h55z" />
    <glyph glyph-name="udieresis" unicode="&#xfc;" horiz-adv-x="596" 
d="M507 532v-532h-47l-8 91h-3q-22 -43 -67.5 -72t-113.5 -29q-188 0 -188 194v348h58v-344q0 -76 34 -112.5t102 -36.5q176 0 176 203v290h57zM170 680q0 40 34 40q36 0 36 -40q0 -41 -36 -41q-34 0 -34 41zM356 680q0 40 34 40q36 0 36 -40q0 -41 -36 -41q-34 0 -34 41z
" />
    <glyph glyph-name="yacute" unicode="&#xfd;" horiz-adv-x="469" 
d="M0 532h61l127 -331q16 -44 28 -78.5t19 -61.5h3q7 23 19 59t28 80l124 332h61l-240 -627q-27 -70 -64 -108.5t-100 -38.5q-20 0 -35 3t-29 7v48q26 -9 57 -9q42 0 68.5 26t46.5 79l35 90zM376 766v-8q-15 -21 -39.5 -49t-52.5 -55.5t-53 -47.5h-40v9q18 19 40.5 46t43 55
t33.5 50h68z" />
    <glyph glyph-name="thorn" unicode="&#xfe;" horiz-adv-x="599" 
d="M543 269q0 -136 -59.5 -207.5t-161.5 -71.5q-71 0 -114 30t-63 72h-4q1 -22 2.5 -53t1.5 -55v-220h-57v996h57v-230q0 -19 -0.5 -47.5t-2.5 -47.5h4q20 43 63 75t117 32q102 0 159.5 -69.5t57.5 -203.5zM484 270q0 222 -165 222q-89 0 -131 -55.5t-42 -160.5v-10
q0 -114 41 -170.5t127 -56.5q83 0 126.5 59t43.5 172z" />
    <glyph glyph-name="ydieresis" unicode="&#xff;" horiz-adv-x="469" 
d="M0 532h61l127 -331q16 -44 28 -78.5t19 -61.5h3q7 23 19 59t28 80l124 332h61l-240 -627q-27 -70 -64 -108.5t-100 -38.5q-20 0 -35 3t-29 7v48q26 -9 57 -9q42 0 68.5 26t46.5 79l35 90zM106 680q0 40 34 40q36 0 36 -40q0 -41 -36 -41q-34 0 -34 41zM292 680
q0 40 34 40q36 0 36 -40q0 -41 -36 -41q-34 0 -34 41z" />
    <glyph glyph-name="Amacron" unicode="&#x100;" horiz-adv-x="608" 
d="M547 0l-95 246h-296l-97 -246h-59l280 716h54l274 -716h-61zM434 298l-96 258q-4 14 -14 44t-18 53q-8 -26 -17 -52.5t-15 -45.5l-99 -257h259zM444 840v-48h-276v48h276z" />
    <glyph glyph-name="amacron" unicode="&#x101;" horiz-adv-x="536" 
d="M276 541q90 0 134 -44t44 -139v-358h-43l-11 90h-2q-28 -45 -70 -72.5t-116 -27.5q-76 0 -120.5 38t-44.5 111q0 79 64.5 121t189.5 47l97 5v37q0 79 -31.5 111.5t-92.5 32.5q-41 0 -79 -10.5t-76 -30.5l-18 46q37 19 82 31t93 12zM398 268l-90 -4q-102 -4 -152 -34.5
t-50 -91.5q0 -49 31 -74.5t85 -25.5q83 0 128.5 47t47.5 132v51zM403 658v-48h-276v48h276z" />
    <glyph glyph-name="Abreve" unicode="&#x102;" horiz-adv-x="608" 
d="M547 0l-95 246h-296l-97 -246h-59l280 716h54l274 -716h-61zM434 298l-96 258q-4 14 -14 44t-18 53q-8 -26 -17 -52.5t-15 -45.5l-99 -257h259zM446 911q-6 -58 -41.5 -90.5t-98.5 -32.5q-64 0 -99 32.5t-39 90.5h40q4 -41 28.5 -58t69.5 -17q44 0 70 17.5t30 57.5h40z
" />
    <glyph glyph-name="abreve" unicode="&#x103;" horiz-adv-x="536" 
d="M276 541q90 0 134 -44t44 -139v-358h-43l-11 90h-2q-28 -45 -70 -72.5t-116 -27.5q-76 0 -120.5 38t-44.5 111q0 79 64.5 121t189.5 47l97 5v37q0 79 -31.5 111.5t-92.5 32.5q-41 0 -79 -10.5t-76 -30.5l-18 46q37 19 82 31t93 12zM398 268l-90 -4q-102 -4 -152 -34.5
t-50 -91.5q0 -49 31 -74.5t85 -25.5q83 0 128.5 47t47.5 132v51zM406 729q-6 -58 -41.5 -90.5t-98.5 -32.5q-64 0 -99 32.5t-39 90.5h40q4 -41 28.5 -58t69.5 -17q44 0 70 17.5t30 57.5h40z" />
    <glyph glyph-name="Aogonek" unicode="&#x104;" horiz-adv-x="608" 
d="M547 0l-95 246h-296l-97 -246h-59l280 716h54l274 -716h-61zM434 298l-96 258q-4 14 -14 44t-18 53q-8 -26 -17 -52.5t-15 -45.5l-99 -257h259zM507 -124q0 -52 51 -52q16 0 28 2t20 4v-40q-10 -3 -24 -5.5t-32 -2.5q-44 0 -68 22t-24 66q0 39 27.5 76t68.5 67l33 -13
q-34 -30 -57 -60t-23 -64z" />
    <glyph glyph-name="aogonek" unicode="&#x105;" horiz-adv-x="536" 
d="M276 541q90 0 134 -44t44 -139v-358h-43l-11 90h-2q-28 -45 -70 -72.5t-116 -27.5q-76 0 -120.5 38t-44.5 111q0 79 64.5 121t189.5 47l97 5v37q0 79 -31.5 111.5t-92.5 32.5q-41 0 -79 -10.5t-76 -30.5l-18 46q37 19 82 31t93 12zM398 268l-90 -4q-102 -4 -152 -34.5
t-50 -91.5q0 -49 31 -74.5t85 -25.5q83 0 128.5 47t47.5 132v51zM377 -124q0 -52 51 -52q16 0 28 2t20 4v-40q-10 -3 -24 -5.5t-32 -2.5q-44 0 -68 22t-24 66q0 39 27.5 76t68.5 67l33 -13q-34 -30 -57 -60t-23 -64z" />
    <glyph glyph-name="Cacute" unicode="&#x106;" horiz-adv-x="623" 
d="M404 672q-88 0 -151 -39.5t-96.5 -110t-33.5 -164.5q0 -96 30.5 -167t90.5 -110t150 -39q52 0 95.5 8t82.5 20v-50q-37 -14 -81.5 -22t-102.5 -8q-108 0 -180.5 46t-109 129t-36.5 194q0 106 40.5 188.5t117 129.5t184.5 47q105 0 188 -40l-23 -50q-78 38 -165 38z
M519 948v-8q-15 -21 -39.5 -49t-52.5 -55.5t-53 -47.5h-40v9q18 19 40.5 46t43 55t33.5 50h68z" />
    <glyph glyph-name="cacute" unicode="&#x107;" horiz-adv-x="476" 
d="M301 -10q-117 0 -180.5 71.5t-63.5 201.5q0 89 32 151.5t89.5 95t133.5 32.5q39 0 72.5 -7t59.5 -19l-16 -50q-56 25 -116 25q-94 0 -145 -61t-51 -166q0 -100 45 -162t139 -62q40 0 75 8t63 21v-51q-26 -13 -60 -20.5t-77 -7.5zM426 766v-8q-15 -21 -39.5 -49
t-52.5 -55.5t-53 -47.5h-40v9q18 19 40.5 46t43 55t33.5 50h68z" />
    <glyph glyph-name="Ccircumflex" unicode="&#x108;" horiz-adv-x="623" 
d="M404 672q-88 0 -151 -39.5t-96.5 -110t-33.5 -164.5q0 -96 30.5 -167t90.5 -110t150 -39q52 0 95.5 8t82.5 20v-50q-37 -14 -81.5 -22t-102.5 -8q-108 0 -180.5 46t-109 129t-36.5 194q0 106 40.5 188.5t117 129.5t184.5 47q105 0 188 -40l-23 -50q-78 38 -165 38z
M405 946q12 -21 33.5 -48.5t44.5 -54.5t42 -47v-8h-41q-27 22 -55 51t-52 57q-24 -28 -52 -57t-55 -51h-40v8q18 20 41.5 47t44.5 54.5t34 48.5h55z" />
    <glyph glyph-name="ccircumflex" unicode="&#x109;" horiz-adv-x="476" 
d="M301 -10q-117 0 -180.5 71.5t-63.5 201.5q0 89 32 151.5t89.5 95t133.5 32.5q39 0 72.5 -7t59.5 -19l-16 -50q-56 25 -116 25q-94 0 -145 -61t-51 -166q0 -100 45 -162t139 -62q40 0 75 8t63 21v-51q-26 -13 -60 -20.5t-77 -7.5zM312 764q12 -21 33.5 -48.5t44.5 -54.5
t42 -47v-8h-41q-27 22 -55 51t-52 57q-24 -28 -52 -57t-55 -51h-40v8q18 20 41.5 47t44.5 54.5t34 48.5h55z" />
    <glyph glyph-name="Cdot" unicode="&#x10a;" horiz-adv-x="623" 
d="M404 672q-88 0 -151 -39.5t-96.5 -110t-33.5 -164.5q0 -96 30.5 -167t90.5 -110t150 -39q52 0 95.5 8t82.5 20v-50q-37 -14 -81.5 -22t-102.5 -8q-108 0 -180.5 46t-109 129t-36.5 194q0 106 40.5 188.5t117 129.5t184.5 47q105 0 188 -40l-23 -50q-78 38 -165 38z
M373 911q39 0 39 -43q0 -44 -39 -44q-38 0 -38 44q0 43 38 43z" />
    <glyph glyph-name="cdot" unicode="&#x10b;" horiz-adv-x="476" 
d="M301 -10q-117 0 -180.5 71.5t-63.5 201.5q0 89 32 151.5t89.5 95t133.5 32.5q39 0 72.5 -7t59.5 -19l-16 -50q-56 25 -116 25q-94 0 -145 -61t-51 -166q0 -100 45 -162t139 -62q40 0 75 8t63 21v-51q-26 -13 -60 -20.5t-77 -7.5zM280 729q39 0 39 -43q0 -44 -39 -44
q-38 0 -38 44q0 43 38 43z" />
    <glyph glyph-name="Ccaron" unicode="&#x10c;" horiz-adv-x="623" 
d="M404 672q-88 0 -151 -39.5t-96.5 -110t-33.5 -164.5q0 -96 30.5 -167t90.5 -110t150 -39q52 0 95.5 8t82.5 20v-50q-37 -14 -81.5 -22t-102.5 -8q-108 0 -180.5 46t-109 129t-36.5 194q0 106 40.5 188.5t117 129.5t184.5 47q105 0 188 -40l-23 -50q-78 38 -165 38z
M346 788q-12 22 -33 49t-44 54t-41 46v9h40q27 -22 55.5 -51t50.5 -57q24 28 52.5 57t55.5 51h41v-9q-19 -19 -42.5 -46t-45 -54t-33.5 -49h-56z" />
    <glyph glyph-name="ccaron" unicode="&#x10d;" horiz-adv-x="476" 
d="M301 -10q-117 0 -180.5 71.5t-63.5 201.5q0 89 32 151.5t89.5 95t133.5 32.5q39 0 72.5 -7t59.5 -19l-16 -50q-56 25 -116 25q-94 0 -145 -61t-51 -166q0 -100 45 -162t139 -62q40 0 75 8t63 21v-51q-26 -13 -60 -20.5t-77 -7.5zM254 606q-12 22 -33 49t-44 54t-41 46v9
h40q27 -22 55.5 -51t50.5 -57q24 28 52.5 57t55.5 51h41v-9q-19 -19 -42.5 -46t-45 -54t-33.5 -49h-56z" />
    <glyph glyph-name="Dcaron" unicode="&#x10e;" horiz-adv-x="711" 
d="M648 364q0 -180 -95 -272t-277 -92h-176v714h198q170 0 260 -89.5t90 -260.5zM588 362q0 301 -301 301h-129v-612h114q316 0 316 311zM324 788q-12 22 -33 49t-44 54t-41 46v9h40q27 -22 55.5 -51t50.5 -57q24 28 52.5 57t55.5 51h41v-9q-19 -19 -42.5 -46t-45 -54
t-33.5 -49h-56z" />
    <glyph glyph-name="dcaron" unicode="&#x10f;" horiz-adv-x="599" 
d="M279 -10q-107 0 -164.5 68.5t-57.5 201.5q0 138 60.5 210t166.5 72q67 0 109 -29t62 -73h4q-1 24 -2.5 53t-1.5 51v216h57v-760h-46l-8 92h-3q-21 -42 -63 -72t-113 -30zM286 39q92 0 131 56t39 161v10q0 110 -39 168.5t-127 58.5q-86 0 -130 -60.5t-44 -172.5
q0 -109 42 -165t128 -56zM649 760v-8q-8 -33 -26 -75.5t-39 -76.5h-33v9q7 17 15.5 44.5t15 56t9.5 50.5h58z" />
    <glyph glyph-name="Dcroat" unicode="&#x110;" horiz-adv-x="711" 
d="M298 714q170 0 260 -89.5t90 -260.5q0 -180 -95 -272t-277 -92h-172v328h-81v52h81v334h194zM287 663h-125v-283h192v-52h-192v-277h110q316 0 316 311q0 301 -301 301z" />
    <glyph glyph-name="dcroat" unicode="&#x111;" horiz-adv-x="600" 
d="M279 -10q-107 0 -164.5 68.5t-57.5 201.5q0 138 60 209t166 71q67 0 109.5 -29t62.5 -72h4q-2 23 -3 52t-1 53v74h-227v45h227v97h57v-97h75v-45h-75v-618h-47l-7 92h-4q-21 -42 -62.5 -72t-112.5 -30zM286 39q92 0 130.5 56t38.5 161v10q0 110 -38.5 168t-126.5 58
q-86 0 -130 -60t-44 -173q0 -108 42 -164t128 -56z" />
    <glyph glyph-name="Emacron" unicode="&#x112;" horiz-adv-x="553" 
d="M492 0h-392v714h392v-52h-334v-262h315v-51h-315v-297h334v-52zM444 840v-48h-276v48h276z" />
    <glyph glyph-name="emacron" unicode="&#x113;" horiz-adv-x="552" 
d="M290 542q68 0 114 -31.5t69 -86.5t23 -126v-40h-380q0 -105 49 -161.5t141 -56.5q50 0 87 8t81 28v-52q-40 -18 -79 -26t-91 -8q-119 0 -183 73t-64 199q0 81 27.5 144.5t79.5 99.5t126 36zM289 494q-73 0 -118.5 -49t-53.5 -139h319q0 84 -35.5 136t-111.5 52zM420 658
v-48h-276v48h276z" />
    <glyph glyph-name="Ebreve" unicode="&#x114;" horiz-adv-x="553" 
d="M492 0h-392v714h392v-52h-334v-262h315v-51h-315v-297h334v-52zM447 911q-6 -58 -41.5 -90.5t-98.5 -32.5q-64 0 -99 32.5t-39 90.5h40q4 -41 28.5 -58t69.5 -17q44 0 70 17.5t30 57.5h40z" />
    <glyph glyph-name="ebreve" unicode="&#x115;" horiz-adv-x="552" 
d="M290 542q68 0 114 -31.5t69 -86.5t23 -126v-40h-380q0 -105 49 -161.5t141 -56.5q50 0 87 8t81 28v-52q-40 -18 -79 -26t-91 -8q-119 0 -183 73t-64 199q0 81 27.5 144.5t79.5 99.5t126 36zM289 494q-73 0 -118.5 -49t-53.5 -139h319q0 84 -35.5 136t-111.5 52zM422 729
q-6 -58 -41.5 -90.5t-98.5 -32.5q-64 0 -99 32.5t-39 90.5h40q4 -41 28.5 -58t69.5 -17q44 0 70 17.5t30 57.5h40z" />
    <glyph glyph-name="Edotaccent" unicode="&#x116;" horiz-adv-x="553" 
d="M492 0h-392v714h392v-52h-334v-262h315v-51h-315v-297h334v-52zM304 911q39 0 39 -43q0 -44 -39 -44q-38 0 -38 44q0 43 38 43z" />
    <glyph glyph-name="edotaccent" unicode="&#x117;" horiz-adv-x="552" 
d="M290 542q68 0 114 -31.5t69 -86.5t23 -126v-40h-380q0 -105 49 -161.5t141 -56.5q50 0 87 8t81 28v-52q-40 -18 -79 -26t-91 -8q-119 0 -183 73t-64 199q0 81 27.5 144.5t79.5 99.5t126 36zM289 494q-73 0 -118.5 -49t-53.5 -139h319q0 84 -35.5 136t-111.5 52zM279 729
q39 0 39 -43q0 -44 -39 -44q-38 0 -38 44q0 43 38 43z" />
    <glyph glyph-name="Eogonek" unicode="&#x118;" horiz-adv-x="553" 
d="M492 0h-392v714h392v-52h-334v-262h315v-51h-315v-297h334v-52zM387 -124q0 -52 51 -52q16 0 28 2t20 4v-40q-10 -3 -24 -5.5t-32 -2.5q-44 0 -68 22t-24 66q0 39 27.5 76t68.5 67l33 -13q-34 -30 -57 -60t-23 -64z" />
    <glyph glyph-name="eogonek" unicode="&#x119;" horiz-adv-x="552" 
d="M370 -124q0 -52 51 -52q16 0 28 2t20 4v-40q-11 -3 -25 -5.5t-31 -2.5q-44 0 -68.5 22t-24.5 66q0 33 19.5 65.5t52.5 61.5q-39 -7 -88 -7q-119 0 -183 73t-64 199q0 81 27.5 144.5t79.5 99.5t126 36q68 0 114 -31.5t69 -86.5t23 -126v-40h-380q0 -105 49 -161.5
t141 -56.5q50 0 87 8t81 28v-52l-6 -2q-51 -44 -74.5 -78t-23.5 -68zM289 494q-73 0 -118.5 -49t-53.5 -139h319q0 84 -35.5 136t-111.5 52z" />
    <glyph glyph-name="Ecaron" unicode="&#x11a;" horiz-adv-x="553" 
d="M492 0h-392v714h392v-52h-334v-262h315v-51h-315v-297h334v-52zM278 788q-12 22 -33 49t-44 54t-41 46v9h40q27 -22 55.5 -51t50.5 -57q24 28 52.5 57t55.5 51h41v-9q-19 -19 -42.5 -46t-45 -54t-33.5 -49h-56z" />
    <glyph glyph-name="ecaron" unicode="&#x11b;" horiz-adv-x="552" 
d="M290 542q68 0 114 -31.5t69 -86.5t23 -126v-40h-380q0 -105 49 -161.5t141 -56.5q50 0 87 8t81 28v-52q-40 -18 -79 -26t-91 -8q-119 0 -183 73t-64 199q0 81 27.5 144.5t79.5 99.5t126 36zM289 494q-73 0 -118.5 -49t-53.5 -139h319q0 84 -35.5 136t-111.5 52zM252 606
q-12 22 -33 49t-44 54t-41 46v9h40q27 -22 55.5 -51t50.5 -57q24 28 52.5 57t55.5 51h41v-9q-19 -19 -42.5 -46t-45 -54t-33.5 -49h-56z" />
    <glyph glyph-name="Gcircumflex" unicode="&#x11c;" horiz-adv-x="724" 
d="M387 364h259v-332q-52 -21 -110 -31.5t-126 -10.5q-170 0 -259 97t-89 269q0 108 43.5 191.5t125.5 130.5t197 47q58 0 111 -11t99 -32l-24 -52q-91 43 -190 43q-94 0 -161.5 -40t-104 -111.5t-36.5 -165.5q0 -154 76.5 -234.5t223.5 -80.5q52 0 92.5 7.5t73.5 18.5v244
h-201v53zM429 946q12 -21 33.5 -48.5t44.5 -54.5t42 -47v-8h-41q-27 22 -55 51t-52 57q-24 -28 -52 -57t-55 -51h-40v8q18 20 41.5 47t44.5 54.5t34 48.5h55z" />
    <glyph glyph-name="gcircumflex" unicode="&#x11d;" horiz-adv-x="599" 
d="M282 542q63 0 104.5 -24t66.5 -67h3l9 81h46v-549q0 -105 -53.5 -164t-175.5 -59q-60 0 -106 10t-84 26v55q38 -19 86.5 -30.5t105.5 -11.5q87 0 128.5 46t41.5 125v31q0 21 1 42t2 41h-3q-22 -52 -68 -78t-110 -26q-104 0 -161.5 70t-57.5 202q0 129 57.5 204.5
t167.5 75.5zM288 492q-86 0 -129 -60.5t-43 -170.5q0 -109 42.5 -166t123.5 -57q66 0 103.5 27t53.5 74t16 107v34q0 102 -37.5 157t-129.5 55zM317 764q12 -21 33.5 -48.5t44.5 -54.5t42 -47v-8h-41q-27 22 -55 51t-52 57q-24 -28 -52 -57t-55 -51h-40v8q18 20 41.5 47
t44.5 54.5t34 48.5h55z" />
    <glyph glyph-name="Gbreve" unicode="&#x11e;" horiz-adv-x="724" 
d="M387 364h259v-332q-52 -21 -110 -31.5t-126 -10.5q-170 0 -259 97t-89 269q0 108 43.5 191.5t125.5 130.5t197 47q58 0 111 -11t99 -32l-24 -52q-91 43 -190 43q-94 0 -161.5 -40t-104 -111.5t-36.5 -165.5q0 -154 76.5 -234.5t223.5 -80.5q52 0 92.5 7.5t73.5 18.5v244
h-201v53zM540 911q-6 -58 -41.5 -90.5t-98.5 -32.5q-64 0 -99 32.5t-39 90.5h40q4 -41 28.5 -58t69.5 -17q44 0 70 17.5t30 57.5h40z" />
    <glyph glyph-name="gbreve" unicode="&#x11f;" horiz-adv-x="599" 
d="M282 542q63 0 104.5 -24t66.5 -67h3l9 81h46v-549q0 -105 -53.5 -164t-175.5 -59q-60 0 -106 10t-84 26v55q38 -19 86.5 -30.5t105.5 -11.5q87 0 128.5 46t41.5 125v31q0 21 1 42t2 41h-3q-22 -52 -68 -78t-110 -26q-104 0 -161.5 70t-57.5 202q0 129 57.5 204.5
t167.5 75.5zM288 492q-86 0 -129 -60.5t-43 -170.5q0 -109 42.5 -166t123.5 -57q66 0 103.5 27t53.5 74t16 107v34q0 102 -37.5 157t-129.5 55zM430 729q-6 -58 -41.5 -90.5t-98.5 -32.5q-64 0 -99 32.5t-39 90.5h40q4 -41 28.5 -58t69.5 -17q44 0 70 17.5t30 57.5h40z" />
    <glyph glyph-name="Gdot" unicode="&#x120;" horiz-adv-x="724" 
d="M387 364h259v-332q-52 -21 -110 -31.5t-126 -10.5q-170 0 -259 97t-89 269q0 108 43.5 191.5t125.5 130.5t197 47q58 0 111 -11t99 -32l-24 -52q-91 43 -190 43q-94 0 -161.5 -40t-104 -111.5t-36.5 -165.5q0 -154 76.5 -234.5t223.5 -80.5q52 0 92.5 7.5t73.5 18.5v244
h-201v53zM398 911q39 0 39 -43q0 -44 -39 -44q-38 0 -38 44q0 43 38 43z" />
    <glyph glyph-name="gdot" unicode="&#x121;" horiz-adv-x="599" 
d="M282 542q63 0 104.5 -24t66.5 -67h3l9 81h46v-549q0 -105 -53.5 -164t-175.5 -59q-60 0 -106 10t-84 26v55q38 -19 86.5 -30.5t105.5 -11.5q87 0 128.5 46t41.5 125v31q0 21 1 42t2 41h-3q-22 -52 -68 -78t-110 -26q-104 0 -161.5 70t-57.5 202q0 129 57.5 204.5
t167.5 75.5zM288 492q-86 0 -129 -60.5t-43 -170.5q0 -109 42.5 -166t123.5 -57q66 0 103.5 27t53.5 74t16 107v34q0 102 -37.5 157t-129.5 55zM286 729q39 0 39 -43q0 -44 -39 -44q-38 0 -38 44q0 43 38 43z" />
    <glyph glyph-name="uni0122" unicode="&#x122;" horiz-adv-x="724" 
d="M387 364h259v-332q-52 -21 -110 -31.5t-126 -10.5q-170 0 -259 97t-89 269q0 108 43.5 191.5t125.5 130.5t197 47q58 0 111 -11t99 -32l-24 -52q-91 43 -190 43q-94 0 -161.5 -40t-104 -111.5t-36.5 -165.5q0 -154 76.5 -234.5t223.5 -80.5q52 0 92.5 7.5t73.5 18.5v244
h-201v53zM443 -61v-7q-8 -33 -27 -76t-43 -77h-32v9q8 16 17 43.5t16.5 57t10.5 50.5h58z" />
    <glyph glyph-name="uni0123" unicode="&#x123;" horiz-adv-x="599" 
d="M282 542q63 0 104.5 -24t66.5 -67h3l9 81h46v-549q0 -105 -53.5 -164t-175.5 -59q-60 0 -106 10t-84 26v55q38 -19 86.5 -30.5t105.5 -11.5q87 0 128.5 46t41.5 125v31q0 21 1 42t2 41h-3q-22 -52 -68 -78t-110 -26q-104 0 -161.5 70t-57.5 202q0 129 57.5 204.5
t167.5 75.5zM288 492q-86 0 -129 -60.5t-43 -170.5q0 -109 42.5 -166t123.5 -57q66 0 103.5 27t53.5 74t16 107v34q0 102 -37.5 157t-129.5 55zM352 764v-8q-8 -16 -17.5 -43.5t-17 -57t-10.5 -51.5h-58v8q8 33 26.5 75.5t42.5 76.5h34z" />
    <glyph glyph-name="Hcircumflex" unicode="&#x124;" horiz-adv-x="724" 
d="M623 0h-58v348h-407v-348h-58v714h58v-314h407v314h58v-714zM393 946q12 -21 33.5 -48.5t44.5 -54.5t42 -47v-8h-41q-27 22 -55 51t-52 57q-24 -28 -52 -57t-55 -51h-40v8q18 20 41.5 47t44.5 54.5t34 48.5h55z" />
    <glyph glyph-name="hcircumflex" unicode="&#x125;" horiz-adv-x="596" 
d="M144 760v-244q0 -40 -3 -76h4q20 44 66 73t114 29q91 0 139.5 -47t48.5 -147v-348h-57v344q0 76 -34.5 112t-101.5 36q-176 0 -176 -202v-290h-56v760h56zM143 992q12 -21 33.5 -48.5t44.5 -54.5t42 -47v-8h-41q-27 22 -55 51t-52 57q-24 -28 -52 -57t-55 -51h-40v8
q18 20 41.5 47t44.5 54.5t34 48.5h55z" />
    <glyph glyph-name="Hbar" unicode="&#x126;" horiz-adv-x="724" 
d="M100 0v536h-100v48h100v130h58v-130h407v130h58v-130h100v-48h-100v-536h-58v348h-407v-348h-58zM158 400h407v136h-407v-136z" />
    <glyph glyph-name="hbar" unicode="&#x127;" horiz-adv-x="596" 
d="M144 760v-98h228v-45h-228v-111q0 -21 -1 -39t-2 -37h4q20 44 66 73t115 29q91 0 139 -47t48 -147v-338h-57v334q0 76 -34.5 112t-101.5 36q-176 0 -176 -202v-280h-56v617h-75v45h75v98h56z" />
    <glyph glyph-name="Itilde" unicode="&#x128;" horiz-adv-x="311" 
d="M260 0h-210v36l76 11v619l-76 12v36h210v-36l-76 -12v-619l76 -11v-36zM-30 794q4 54 30 83.5t70 29.5q23 0 42.5 -10t37 -23t34 -23t34.5 -10q22 0 38 14.5t22 52.5h38q-4 -54 -31 -84t-69 -30q-23 0 -42.5 10t-36.5 23t-34 23t-37 10q-22 0 -37 -14t-21 -52h-38z" />
    <glyph glyph-name="itilde" unicode="&#x129;" horiz-adv-x="232" 
d="M144 0h-56v532h56v-532zM-70 612q4 54 30 83.5t70 29.5q23 0 42.5 -10t37 -23t34 -23t34.5 -10q22 0 38 14.5t22 52.5h38q-4 -54 -31 -84t-69 -30q-23 0 -42.5 10t-36.5 23t-34 23t-37 10q-22 0 -37 -14t-21 -52h-38z" />
    <glyph glyph-name="Imacron" unicode="&#x12a;" horiz-adv-x="311" 
d="M260 0h-210v36l76 11v619l-76 12v36h210v-36l-76 -12v-619l76 -11v-36zM293 840v-48h-276v48h276z" />
    <glyph glyph-name="imacron" unicode="&#x12b;" horiz-adv-x="232" 
d="M144 0h-56v532h56v-532zM254 658v-48h-276v48h276z" />
    <glyph glyph-name="Ibreve" unicode="&#x12c;" horiz-adv-x="311" 
d="M260 0h-210v36l76 11v619l-76 12v36h210v-36l-76 -12v-619l76 -11v-36zM296 911q-6 -58 -41.5 -90.5t-98.5 -32.5q-64 0 -99 32.5t-39 90.5h40q4 -41 28.5 -58t69.5 -17q44 0 70 17.5t30 57.5h40z" />
    <glyph glyph-name="ibreve" unicode="&#x12d;" horiz-adv-x="232" 
d="M144 0h-56v532h56v-532zM256 729q-6 -58 -41.5 -90.5t-98.5 -32.5q-64 0 -99 32.5t-39 90.5h40q4 -41 28.5 -58t69.5 -17q44 0 70 17.5t30 57.5h40z" />
    <glyph glyph-name="Iogonek" unicode="&#x12e;" horiz-adv-x="311" 
d="M260 0h-210v36l76 11v619l-76 12v36h210v-36l-76 -12v-619l76 -11v-36zM154 -124q0 -52 51 -52q16 0 28 2t20 4v-40q-10 -3 -24 -5.5t-32 -2.5q-44 0 -68 22t-24 66q0 39 27.5 76t68.5 67l33 -13q-34 -30 -57 -60t-23 -64z" />
    <glyph glyph-name="iogonek" unicode="&#x12f;" horiz-adv-x="232" 
d="M116 729q40 0 40 -43q0 -44 -40 -44q-38 0 -38 44q0 43 38 43zM144 532v-532h-56v532h56zM61 -124q0 -52 51 -52q16 0 28 2t20 4v-40q-10 -3 -24 -5.5t-32 -2.5q-44 0 -68 22t-24 66q0 39 27.5 76t68.5 67l33 -13q-34 -30 -57 -60t-23 -64z" />
    <glyph glyph-name="Idotaccent" unicode="&#x130;" horiz-adv-x="311" 
d="M260 0h-210v36l76 11v619l-76 12v36h210v-36l-76 -12v-619l76 -11v-36zM152 911q39 0 39 -43q0 -44 -39 -44q-38 0 -38 44q0 43 38 43z" />
    <glyph glyph-name="dotlessi" unicode="&#x131;" horiz-adv-x="232" 
d="M144 0h-56v532h56v-532z" />
    <glyph glyph-name="IJ" unicode="&#x132;" horiz-adv-x="563" 
d="M260 0h-210v36l76 11v619l-76 12v36h210v-36l-76 -12v-619l76 -11v-36zM299 -182q-26 0 -44 4t-32 8v52q15 -4 34 -8t41 -4q112 0 112 134v710h58v-708q0 -88 -42.5 -138t-126.5 -50z" />
    <glyph glyph-name="ij" unicode="&#x133;" horiz-adv-x="465" 
d="M116 729q40 0 40 -43q0 -44 -40 -44q-38 0 -38 44q0 43 38 43zM144 532v-532h-56v532h56zM310 686q0 43 38 43q40 0 40 -43q0 -44 -40 -44q-38 0 -38 44zM248 -240q-43 0 -68 11v49q28 -11 63 -11q36 0 56.5 22t20.5 69v632h56v-632q0 -68 -33.5 -104t-94.5 -36z" />
    <glyph glyph-name="Jcircumflex" unicode="&#x134;" horiz-adv-x="252" 
d="M-12 -182q-26 0 -44 4t-32 8v52q15 -4 34 -8t41 -4q112 0 112 134v710h58v-708q0 -88 -42.5 -138t-126.5 -50zM155 946q12 -21 33.5 -48.5t44.5 -54.5t42 -47v-8h-41q-27 22 -55 51t-52 57q-24 -28 -52 -57t-55 -51h-40v8q18 20 41.5 47t44.5 54.5t34 48.5h55z" />
    <glyph glyph-name="jcircumflex" unicode="&#x135;" horiz-adv-x="232" 
d="M16 -240q-43 0 -68 11v49q28 -11 63 -11q36 0 56.5 22t20.5 69v632h56v-632q0 -68 -33.5 -104t-94.5 -36zM144 764q12 -21 33.5 -48.5t44.5 -54.5t42 -47v-8h-41q-27 22 -55 51t-52 57q-24 -28 -52 -57t-55 -51h-40v8q18 20 41.5 47t44.5 54.5t34 48.5h55z" />
    <glyph glyph-name="uni0136" unicode="&#x136;" horiz-adv-x="588" 
d="M588 0h-70l-271 370l-89 -85v-285h-58v714h58v-371q20 23 42 46.5t44 47.5l264 277h72l-290 -304zM363 -61v-7q-8 -33 -27 -76t-43 -77h-32v9q8 16 17 43.5t16.5 57t10.5 50.5h58z" />
    <glyph glyph-name="uni0137" unicode="&#x137;" horiz-adv-x="494" 
d="M144 760v-386q0 -32 -1 -66.5t-1 -68.5h1q13 16 29.5 36.5t31.5 36.5l202 220h68l-210 -228l228 -304h-68l-200 266l-80 -82v-184h-56v760h56zM302 -61v-7q-8 -33 -27 -76t-43 -77h-32v9q8 16 17 43.5t16.5 57t10.5 50.5h58z" />
    <glyph glyph-name="kgreenlandic" unicode="&#x138;" horiz-adv-x="494" 
d="M474 532l-204 -232l222 -300h-68l-194 262l-83 -82v-180h-59v532h59v-141q0 -90 -3 -159q14 16 25 29.5t23 28.5l212 242h70z" />
    <glyph glyph-name="Lacute" unicode="&#x139;" horiz-adv-x="515" 
d="M100 0v714h58v-662h334v-52h-392zM273 948v-8q-15 -21 -39.5 -49t-52.5 -55.5t-53 -47.5h-40v9q18 19 40.5 46t43 55t33.5 50h68z" />
    <glyph glyph-name="lacute" unicode="&#x13a;" horiz-adv-x="232" 
d="M145 0h-57v760h57v-760zM258 994v-8q-15 -21 -39.5 -49t-52.5 -55.5t-53 -47.5h-40v9q18 19 40.5 46t43 55t33.5 50h68z" />
    <glyph glyph-name="uni013B" unicode="&#x13b;" horiz-adv-x="515" 
d="M100 0v714h58v-662h334v-52h-392zM338 -61v-7q-8 -33 -27 -76t-43 -77h-32v9q8 16 17 43.5t16.5 57t10.5 50.5h58z" />
    <glyph glyph-name="uni013C" unicode="&#x13c;" horiz-adv-x="232" 
d="M145 0h-57v760h57v-760zM160 -61v-7q-8 -33 -27 -76t-43 -77h-32v9q8 16 17 43.5t16.5 57t10.5 50.5h58z" />
    <glyph glyph-name="Lcaron" unicode="&#x13d;" horiz-adv-x="515" 
d="M100 0v714h58v-662h334v-52h-392zM485 714v-8q-8 -33 -26 -75.5t-39 -76.5h-33v9q7 17 15.5 44.5t15 56t9.5 50.5h58z" />
    <glyph glyph-name="lcaron" unicode="&#x13e;" horiz-adv-x="232" 
d="M145 0h-57v760h57v-760zM282 760v-8q-8 -33 -26 -75.5t-39 -76.5h-33v9q7 17 15.5 44.5t15 56t9.5 50.5h58z" />
    <glyph glyph-name="Ldot" unicode="&#x13f;" horiz-adv-x="515" 
d="M100 0v714h58v-662h334v-52h-392zM370 419q39 0 39 -43q0 -44 -39 -44q-38 0 -38 44q0 43 38 43z" />
    <glyph glyph-name="ldot" unicode="&#x140;" horiz-adv-x="238" 
d="M145 0h-57v760h57v-760zM234 428q39 0 39 -43q0 -44 -39 -44q-38 0 -38 44q0 43 38 43z" />
    <glyph glyph-name="Lslash" unicode="&#x141;" horiz-adv-x="515" 
d="M100 0v265l-64 -39l-24 40l88 56v392h58v-358l154 96l26 -42l-180 -110v-248h334v-52h-392z" />
    <glyph glyph-name="lslash" unicode="&#x142;" horiz-adv-x="232" 
d="M86 0v312l-60 -40l-25 40l85 56v392h57v-356l73 49l24 -39l-97 -65v-349h-57z" />
    <glyph glyph-name="Nacute" unicode="&#x143;" horiz-adv-x="729" 
d="M628 0h-62l-413 624h-3q2 -39 3 -82.5t1 -91.5v-450h-54v714h62l412 -622h4q-2 31 -3 79.5t-1 89.5v453h54v-714zM507 948v-8q-15 -21 -39.5 -49t-52.5 -55.5t-53 -47.5h-40v9q18 19 40.5 46t43 55t33.5 50h68z" />
    <glyph glyph-name="nacute" unicode="&#x144;" horiz-adv-x="596" 
d="M326 542q91 0 139 -47t48 -147v-348h-57v344q0 76 -34.5 112t-101.5 36q-176 0 -176 -202v-290h-56v532h46l8 -92h4q21 44 66.5 73t113.5 29zM449 766v-8q-15 -21 -39.5 -49t-52.5 -55.5t-53 -47.5h-40v9q18 19 40.5 46t43 55t33.5 50h68z" />
    <glyph glyph-name="uni0145" unicode="&#x145;" horiz-adv-x="729" 
d="M628 0h-62l-413 624h-3q2 -39 3 -82.5t1 -91.5v-450h-54v714h62l412 -622h4q-2 31 -3 79.5t-1 89.5v453h54v-714zM409 -61v-7q-8 -33 -27 -76t-43 -77h-32v9q8 16 17 43.5t16.5 57t10.5 50.5h58z" />
    <glyph glyph-name="uni0146" unicode="&#x146;" horiz-adv-x="596" 
d="M326 542q91 0 139 -47t48 -147v-348h-57v344q0 76 -34.5 112t-101.5 36q-176 0 -176 -202v-290h-56v532h46l8 -92h4q21 44 66.5 73t113.5 29zM345 -61v-7q-8 -33 -27 -76t-43 -77h-32v9q8 16 17 43.5t16.5 57t10.5 50.5h58z" />
    <glyph glyph-name="Ncaron" unicode="&#x147;" horiz-adv-x="729" 
d="M628 0h-62l-413 624h-3q2 -39 3 -82.5t1 -91.5v-450h-54v714h62l412 -622h4q-2 31 -3 79.5t-1 89.5v453h54v-714zM334 788q-12 22 -33 49t-44 54t-41 46v9h40q27 -22 55.5 -51t50.5 -57q24 28 52.5 57t55.5 51h41v-9q-19 -19 -42.5 -46t-45 -54t-33.5 -49h-56z" />
    <glyph glyph-name="ncaron" unicode="&#x148;" horiz-adv-x="596" 
d="M326 542q91 0 139 -47t48 -147v-348h-57v344q0 76 -34.5 112t-101.5 36q-176 0 -176 -202v-290h-56v532h46l8 -92h4q21 44 66.5 73t113.5 29zM276 606q-12 22 -33 49t-44 54t-41 46v9h40q27 -22 55.5 -51t50.5 -57q24 28 52.5 57t55.5 51h41v-9q-19 -19 -42.5 -46
t-45 -54t-33.5 -49h-56z" />
    <glyph glyph-name="napostrophe" unicode="&#x149;" horiz-adv-x="634" 
d="M364 542q91 0 139 -47t48 -147v-348h-57v344q0 76 -34.5 112t-101.5 36q-176 0 -176 -202v-290h-56v532h46l8 -92h4q21 44 66.5 73t113.5 29zM113 714l7 -10q-11 -57 -33 -119.5t-46 -115.5h-41q12 37 23.5 80t20 86t12.5 79h57z" />
    <glyph glyph-name="Eng" unicode="&#x14a;" horiz-adv-x="729" 
d="M460 -182q-24 0 -45 4t-33 9v51q16 -5 36 -8.5t42 -3.5q50 0 81.5 31t32.5 104l-421 619h-3q2 -36 3 -84t1 -96v-444h-54v714h62l412 -613h4q-2 35 -3 82.5t-1 92.5v438h54v-710q0 -92 -44 -139t-124 -47z" />
    <glyph glyph-name="eng" unicode="&#x14b;" horiz-adv-x="596" 
d="M389 -240q-22 0 -37.5 3t-28.5 8v49q14 -6 29.5 -8.5t31.5 -2.5q34 0 53 22t19 69v444q0 76 -34.5 112t-101.5 36q-176 0 -176 -202v-290h-56v532h46l8 -92h4q22 44 67 73t113 29q92 0 140 -47t48 -147v-448q0 -68 -33 -104t-92 -36z" />
    <glyph glyph-name="Omacron" unicode="&#x14c;" horiz-adv-x="768" 
d="M705 358q0 -109 -36 -192t-107.5 -129.5t-177.5 -46.5q-108 0 -179.5 46.5t-107 130t-35.5 192.5t36.5 191t109 128.5t179.5 46.5q103 0 173.5 -44.5t107.5 -126.5t37 -196zM123 358q0 -95 28 -166.5t86 -111t147 -39.5q90 0 147.5 39.5t85 110.5t27.5 167
q0 148 -64.5 231.5t-192.5 83.5q-89 0 -148 -39.5t-87.5 -110.5t-28.5 -165zM521 840v-48h-276v48h276z" />
    <glyph glyph-name="omacron" unicode="&#x14d;" horiz-adv-x="590" 
d="M533 266q0 -83 -27.5 -145t-81 -96.5t-130.5 -34.5q-74 0 -127 34t-81.5 96t-28.5 146q0 130 64.5 203t176.5 73q76 0 128.5 -34.5t79.5 -96.5t27 -145zM116 266q0 -102 43 -164.5t135 -62.5q93 0 136.5 62.5t43.5 164.5q0 66 -18 117t-57 80t-102 29q-91 0 -136 -60
t-45 -166zM432 658v-48h-276v48h276z" />
    <glyph glyph-name="Obreve" unicode="&#x14e;" horiz-adv-x="768" 
d="M705 358q0 -109 -36 -192t-107.5 -129.5t-177.5 -46.5q-108 0 -179.5 46.5t-107 130t-35.5 192.5t36.5 191t109 128.5t179.5 46.5q103 0 173.5 -44.5t107.5 -126.5t37 -196zM123 358q0 -95 28 -166.5t86 -111t147 -39.5q90 0 147.5 39.5t85 110.5t27.5 167
q0 148 -64.5 231.5t-192.5 83.5q-89 0 -148 -39.5t-87.5 -110.5t-28.5 -165zM524 911q-6 -58 -41.5 -90.5t-98.5 -32.5q-64 0 -99 32.5t-39 90.5h40q4 -41 28.5 -58t69.5 -17q44 0 70 17.5t30 57.5h40z" />
    <glyph glyph-name="obreve" unicode="&#x14f;" horiz-adv-x="590" 
d="M533 266q0 -83 -27.5 -145t-81 -96.5t-130.5 -34.5q-74 0 -127 34t-81.5 96t-28.5 146q0 130 64.5 203t176.5 73q76 0 128.5 -34.5t79.5 -96.5t27 -145zM116 266q0 -102 43 -164.5t135 -62.5q93 0 136.5 62.5t43.5 164.5q0 66 -18 117t-57 80t-102 29q-91 0 -136 -60
t-45 -166zM434 729q-6 -58 -41.5 -90.5t-98.5 -32.5q-64 0 -99 32.5t-39 90.5h40q4 -41 28.5 -58t69.5 -17q44 0 70 17.5t30 57.5h40z" />
    <glyph glyph-name="Ohungarumlaut" unicode="&#x150;" horiz-adv-x="768" 
d="M705 358q0 -109 -36 -192t-107.5 -129.5t-177.5 -46.5q-108 0 -179.5 46.5t-107 130t-35.5 192.5t36.5 191t109 128.5t179.5 46.5q103 0 173.5 -44.5t107.5 -126.5t37 -196zM123 358q0 -95 28 -166.5t86 -111t147 -39.5q90 0 147.5 39.5t85 110.5t27.5 167
q0 148 -64.5 231.5t-192.5 83.5q-89 0 -148 -39.5t-87.5 -110.5t-28.5 -165zM597 948v-8q-13 -21 -34 -49t-45 -55.5t-46 -47.5h-36v9q16 19 34.5 46t35.5 55t28 50h63zM429 948v-8q-13 -21 -34 -49t-45 -55.5t-46 -47.5h-36v9q16 19 34.5 46t35.5 55t28 50h63z" />
    <glyph glyph-name="ohungarumlaut" unicode="&#x151;" horiz-adv-x="590" 
d="M533 266q0 -83 -27.5 -145t-81 -96.5t-130.5 -34.5q-74 0 -127 34t-81.5 96t-28.5 146q0 130 64.5 203t176.5 73q76 0 128.5 -34.5t79.5 -96.5t27 -145zM116 266q0 -102 43 -164.5t135 -62.5q93 0 136.5 62.5t43.5 164.5q0 66 -18 117t-57 80t-102 29q-91 0 -136 -60
t-45 -166zM509 766v-8q-13 -21 -34 -49t-45 -55.5t-46 -47.5h-36v9q16 19 34.5 46t35.5 55t28 50h63zM341 766v-8q-13 -21 -34 -49t-45 -55.5t-46 -47.5h-36v9q16 19 34.5 46t35.5 55t28 50h63z" />
    <glyph glyph-name="OE" unicode="&#x152;" horiz-adv-x="914" 
d="M382 721q26 0 47 -2t45 -5h378v-52h-322v-262h303v-51h-303v-297h322v-52h-380q-20 -2 -41.5 -4t-46.5 -2q-108 0 -179.5 45.5t-107 128t-35.5 191.5t36 190.5t107.5 126.5t176.5 45zM386 669q-89 0 -147.5 -38.5t-87.5 -108.5t-29 -164q0 -95 28.5 -165.5t86.5 -109
t147 -38.5q27 0 49.5 2.5t38.5 7.5v604q-16 5 -37.5 7.5t-48.5 2.5z" />
    <glyph glyph-name="oe" unicode="&#x153;" horiz-adv-x="956" 
d="M696 542q67 0 112.5 -31.5t68.5 -86.5t23 -126v-40h-374q0 -108 48 -163t138 -55q50 0 86 8t80 28v-52q-39 -18 -78 -26t-89 -8q-83 0 -136 38t-77 104q-26 -65 -77 -103.5t-130 -38.5q-73 0 -125.5 34t-81 96t-28.5 146q0 129 64 202.5t176 73.5q78 0 128 -39t73 -105
q25 64 74.5 104t124.5 40zM695 493q-72 0 -116.5 -47.5t-51.5 -139.5h313q0 84 -35.5 135.5t-109.5 51.5zM294 492q-89 0 -133.5 -58t-44.5 -168q0 -105 42.5 -166t133.5 -61q92 0 134 60.5t42 164.5t-41 166t-133 62z" />
    <glyph glyph-name="Racute" unicode="&#x154;" horiz-adv-x="600" 
d="M278 714q128 0 192.5 -45t64.5 -151q0 -82 -43.5 -128t-108.5 -66l196 -324h-69l-182 308h-170v-308h-58v714h178zM273 662h-115v-304h135q87 0 134.5 41t47.5 117q0 82 -49.5 114t-152.5 32zM451 948v-8q-15 -21 -39.5 -49t-52.5 -55.5t-53 -47.5h-40v9q18 19 40.5 46
t43 55t33.5 50h68z" />
    <glyph glyph-name="racute" unicode="&#x155;" horiz-adv-x="394" 
d="M306 541q42 0 72 -9l-8 -52q-16 4 -32 6t-34 2q-74 0 -116.5 -53.5t-42.5 -142.5v-292h-57v532h48l6 -100h3q20 45 60.5 77t100.5 32zM370 766v-8q-15 -21 -39.5 -49t-52.5 -55.5t-53 -47.5h-40v9q18 19 40.5 46t43 55t33.5 50h68z" />
    <glyph glyph-name="uni0156" unicode="&#x156;" horiz-adv-x="600" 
d="M278 714q128 0 192.5 -45t64.5 -151q0 -82 -43.5 -128t-108.5 -66l196 -324h-69l-182 308h-170v-308h-58v714h178zM273 662h-115v-304h135q87 0 134.5 41t47.5 117q0 82 -49.5 114t-152.5 32zM362 -61v-7q-8 -33 -27 -76t-43 -77h-32v9q8 16 17 43.5t16.5 57t10.5 50.5
h58z" />
    <glyph glyph-name="uni0157" unicode="&#x157;" horiz-adv-x="394" 
d="M306 541q42 0 72 -9l-8 -52q-16 4 -32 6t-34 2q-74 0 -116.5 -53.5t-42.5 -142.5v-292h-57v532h48l6 -100h3q20 45 60.5 77t100.5 32zM160 -61v-7q-8 -33 -27 -76t-43 -77h-32v9q8 16 17 43.5t16.5 57t10.5 50.5h58z" />
    <glyph glyph-name="Rcaron" unicode="&#x158;" horiz-adv-x="600" 
d="M278 714q128 0 192.5 -45t64.5 -151q0 -82 -43.5 -128t-108.5 -66l196 -324h-69l-182 308h-170v-308h-58v714h178zM273 662h-115v-304h135q87 0 134.5 41t47.5 117q0 82 -49.5 114t-152.5 32zM280 788q-12 22 -33 49t-44 54t-41 46v9h40q27 -22 55.5 -51t50.5 -57
q24 28 52.5 57t55.5 51h41v-9q-19 -19 -42.5 -46t-45 -54t-33.5 -49h-56z" />
    <glyph glyph-name="rcaron" unicode="&#x159;" horiz-adv-x="394" 
d="M306 541q42 0 72 -9l-8 -52q-16 4 -32 6t-34 2q-74 0 -116.5 -53.5t-42.5 -142.5v-292h-57v532h48l6 -100h3q20 45 60.5 77t100.5 32zM198 606q-12 22 -33 49t-44 54t-41 46v9h40q27 -22 55.5 -51t50.5 -57q24 28 52.5 57t55.5 51h41v-9q-19 -19 -42.5 -46t-45 -54
t-33.5 -49h-56z" />
    <glyph glyph-name="Sacute" unicode="&#x15a;" horiz-adv-x="546" 
d="M496 186q0 -64 -32 -107.5t-88 -66t-128 -22.5q-64 0 -112 9t-82 23v57q38 -15 88.5 -26.5t109.5 -11.5q82 0 133.5 35.5t51.5 105.5q0 42 -19.5 69.5t-60 48t-103.5 41.5q-60 21 -103 45.5t-66 62t-23 94.5q0 59 29.5 99t81 61t117.5 21q52 0 99 -10t89 -28l-20 -50
q-84 36 -170 36q-74 0 -120.5 -32.5t-46.5 -95.5q0 -46 20 -73.5t58 -46.5t93 -38q63 -22 108.5 -46.5t70.5 -60.5t25 -93zM426 948v-8q-15 -21 -39.5 -49t-52.5 -55.5t-53 -47.5h-40v9q18 19 40.5 46t43 55t33.5 50h68z" />
    <glyph glyph-name="sacute" unicode="&#x15b;" horiz-adv-x="468" 
d="M422 141q0 -73 -53.5 -112t-152.5 -39q-56 0 -98.5 10t-71.5 24v55q35 -18 80 -29.5t92 -11.5q78 0 113 26.5t35 72.5q0 44 -36.5 67.5t-109.5 48.5q-49 17 -86.5 34t-58.5 44.5t-21 74.5q0 64 52 100t139 36q48 0 89.5 -9.5t75.5 -23.5l-20 -47q-31 14 -70 23t-78 9
q-63 0 -98 -22t-35 -64q0 -32 17 -50.5t49 -32t78 -29.5q47 -16 85.5 -34t61 -46t22.5 -75zM377 766v-8q-15 -21 -39.5 -49t-52.5 -55.5t-53 -47.5h-40v9q18 19 40.5 46t43 55t33.5 50h68z" />
    <glyph glyph-name="Scircumflex" unicode="&#x15c;" horiz-adv-x="546" 
d="M496 186q0 -64 -32 -107.5t-88 -66t-128 -22.5q-64 0 -112 9t-82 23v57q38 -15 88.5 -26.5t109.5 -11.5q82 0 133.5 35.5t51.5 105.5q0 42 -19.5 69.5t-60 48t-103.5 41.5q-60 21 -103 45.5t-66 62t-23 94.5q0 59 29.5 99t81 61t117.5 21q52 0 99 -10t89 -28l-20 -50
q-84 36 -170 36q-74 0 -120.5 -32.5t-46.5 -95.5q0 -46 20 -73.5t58 -46.5t93 -38q63 -22 108.5 -46.5t70.5 -60.5t25 -93zM312 946q12 -21 33.5 -48.5t44.5 -54.5t42 -47v-8h-41q-27 22 -55 51t-52 57q-24 -28 -52 -57t-55 -51h-40v8q18 20 41.5 47t44.5 54.5t34 48.5h55z
" />
    <glyph glyph-name="scircumflex" unicode="&#x15d;" horiz-adv-x="468" 
d="M422 141q0 -73 -53.5 -112t-152.5 -39q-56 0 -98.5 10t-71.5 24v55q35 -18 80 -29.5t92 -11.5q78 0 113 26.5t35 72.5q0 44 -36.5 67.5t-109.5 48.5q-49 17 -86.5 34t-58.5 44.5t-21 74.5q0 64 52 100t139 36q48 0 89.5 -9.5t75.5 -23.5l-20 -47q-31 14 -70 23t-78 9
q-63 0 -98 -22t-35 -64q0 -32 17 -50.5t49 -32t78 -29.5q47 -16 85.5 -34t61 -46t22.5 -75zM263 764q12 -21 33.5 -48.5t44.5 -54.5t42 -47v-8h-41q-27 22 -55 51t-52 57q-24 -28 -52 -57t-55 -51h-40v8q18 20 41.5 47t44.5 54.5t34 48.5h55z" />
    <glyph glyph-name="Scedilla" unicode="&#x15e;" horiz-adv-x="546" 
d="M496 186q0 -64 -32 -107.5t-88 -66t-128 -22.5q-64 0 -112 9t-82 23v57q38 -15 88.5 -26.5t109.5 -11.5q82 0 133.5 35.5t51.5 105.5q0 42 -19.5 69.5t-60 48t-103.5 41.5q-60 21 -103 45.5t-66 62t-23 94.5q0 59 29.5 99t81 61t117.5 21q52 0 99 -10t89 -28l-20 -50
q-84 36 -170 36q-74 0 -120.5 -32.5t-46.5 -95.5q0 -46 20 -73.5t58 -46.5t93 -38q63 -22 108.5 -46.5t70.5 -60.5t25 -93zM352 -142q0 -46 -34.5 -72t-95.5 -26q-34 0 -54 6v39q10 -3 24 -4t31 -1q37 0 59 14t22 42q0 29 -25.5 42.5t-71.5 15.5l43 86h42l-30 -59
q40 -5 65 -25t25 -58z" />
    <glyph glyph-name="scedilla" unicode="&#x15f;" horiz-adv-x="468" 
d="M422 141q0 -73 -53.5 -112t-152.5 -39q-56 0 -98.5 10t-71.5 24v55q35 -18 80 -29.5t92 -11.5q78 0 113 26.5t35 72.5q0 44 -36.5 67.5t-109.5 48.5q-49 17 -86.5 34t-58.5 44.5t-21 74.5q0 64 52 100t139 36q48 0 89.5 -9.5t75.5 -23.5l-20 -47q-31 14 -70 23t-78 9
q-63 0 -98 -22t-35 -64q0 -32 17 -50.5t49 -32t78 -29.5q47 -16 85.5 -34t61 -46t22.5 -75zM324 -142q0 -46 -34.5 -72t-95.5 -26q-34 0 -54 6v39q10 -3 24 -4t31 -1q37 0 59 14t22 42q0 29 -25.5 42.5t-71.5 15.5l43 86h42l-30 -59q40 -5 65 -25t25 -58z" />
    <glyph glyph-name="Scaron" unicode="&#x160;" horiz-adv-x="546" 
d="M496 186q0 -64 -32 -107.5t-88 -66t-128 -22.5q-64 0 -112 9t-82 23v57q38 -15 88.5 -26.5t109.5 -11.5q82 0 133.5 35.5t51.5 105.5q0 42 -19.5 69.5t-60 48t-103.5 41.5q-60 21 -103 45.5t-66 62t-23 94.5q0 59 29.5 99t81 61t117.5 21q52 0 99 -10t89 -28l-20 -50
q-84 36 -170 36q-74 0 -120.5 -32.5t-46.5 -95.5q0 -46 20 -73.5t58 -46.5t93 -38q63 -22 108.5 -46.5t70.5 -60.5t25 -93zM254 788q-12 22 -33 49t-44 54t-41 46v9h40q27 -22 55.5 -51t50.5 -57q24 28 52.5 57t55.5 51h41v-9q-19 -19 -42.5 -46t-45 -54t-33.5 -49h-56z" />
    <glyph glyph-name="scaron" unicode="&#x161;" horiz-adv-x="468" 
d="M422 141q0 -73 -53.5 -112t-152.5 -39q-56 0 -98.5 10t-71.5 24v55q35 -18 80 -29.5t92 -11.5q78 0 113 26.5t35 72.5q0 44 -36.5 67.5t-109.5 48.5q-49 17 -86.5 34t-58.5 44.5t-21 74.5q0 64 52 100t139 36q48 0 89.5 -9.5t75.5 -23.5l-20 -47q-31 14 -70 23t-78 9
q-63 0 -98 -22t-35 -64q0 -32 17 -50.5t49 -32t78 -29.5q47 -16 85.5 -34t61 -46t22.5 -75zM205 606q-12 22 -33 49t-44 54t-41 46v9h40q27 -22 55.5 -51t50.5 -57q24 28 52.5 57t55.5 51h41v-9q-19 -19 -42.5 -46t-45 -54t-33.5 -49h-56z" />
    <glyph glyph-name="uni0162" unicode="&#x162;" horiz-adv-x="530" 
d="M294 0h-58v662h-230v52h518v-52h-230v-662zM352 -142q0 -46 -34.5 -72t-95.5 -26q-34 0 -54 6v39q10 -3 24 -4t31 -1q37 0 59 14t22 42q0 29 -25.5 42.5t-71.5 15.5l43 86h42l-30 -59q40 -5 65 -25t25 -58z" />
    <glyph glyph-name="uni0163" unicode="&#x163;" horiz-adv-x="340" 
d="M238 38q22 0 42.5 3.5t34.5 8.5v-46q-16 -6 -37.5 -10t-47.5 -4q-66 0 -102 37.5t-36 120.5v338h-79v32l79 18l20 123h36v-127h164v-46h-164v-336q0 -112 90 -112zM290 -142q0 -46 -34.5 -72t-95.5 -26q-34 0 -54 6v39q10 -3 24 -4t31 -1q37 0 59 14t22 42
q0 29 -25.5 42.5t-71.5 15.5l43 86h42l-30 -59q40 -5 65 -25t25 -58z" />
    <glyph glyph-name="Tcaron" unicode="&#x164;" horiz-adv-x="530" 
d="M294 0h-58v662h-230v52h518v-52h-230v-662zM235 788q-12 22 -33 49t-44 54t-41 46v9h40q27 -22 55.5 -51t50.5 -57q24 28 52.5 57t55.5 51h41v-9q-19 -19 -42.5 -46t-45 -54t-33.5 -49h-56z" />
    <glyph glyph-name="tcaron" unicode="&#x165;" horiz-adv-x="340" 
d="M238 38q22 0 42.5 3.5t34.5 8.5v-46q-16 -6 -37.5 -10t-47.5 -4q-66 0 -102 37.5t-36 120.5v338h-79v32l79 18l20 123h36v-127h164v-46h-164v-336q0 -112 90 -112zM418 760v-8q-8 -33 -26 -75.5t-39 -76.5h-33v9q7 17 15.5 44.5t15 56t9.5 50.5h58z" />
    <glyph glyph-name="Tbar" unicode="&#x166;" horiz-adv-x="530" 
d="M236 0v340h-170v50h170v272h-230v52h518v-52h-230v-272h168v-50h-168v-340h-58z" />
    <glyph glyph-name="tbar" unicode="&#x167;" horiz-adv-x="340" 
d="M238 38q22 0 42.5 3.5t34.5 8.5v-46q-16 -6 -37.5 -10t-47.5 -4q-66 0 -102 37.5t-36 120.5v134h-71v46h71v158h-79v32l79 18l20 123h36v-127h164v-46h-164v-158h150v-46h-150v-132q0 -112 90 -112z" />
    <glyph glyph-name="Utilde" unicode="&#x168;" horiz-adv-x="722" 
d="M629 714v-462q0 -122 -71 -192t-200 -70q-128 0 -197 70t-69 194v460h58v-460q0 -104 54 -158.5t158 -54.5q101 0 155.5 54.5t54.5 152.5v466h57zM188 794q4 54 30 83.5t70 29.5q23 0 42.5 -10t37 -23t34 -23t34.5 -10q22 0 38 14.5t22 52.5h38q-4 -54 -31 -84t-69 -30
q-23 0 -42.5 10t-36.5 23t-34 23t-37 10q-22 0 -37 -14t-21 -52h-38z" />
    <glyph glyph-name="utilde" unicode="&#x169;" horiz-adv-x="596" 
d="M507 532v-532h-47l-8 91h-3q-22 -43 -67.5 -72t-113.5 -29q-188 0 -188 194v348h58v-344q0 -76 34 -112.5t102 -36.5q176 0 176 203v290h57zM122 612q4 54 30 83.5t70 29.5q23 0 42.5 -10t37 -23t34 -23t34.5 -10q22 0 38 14.5t22 52.5h38q-4 -54 -31 -84t-69 -30
q-23 0 -42.5 10t-36.5 23t-34 23t-37 10q-22 0 -37 -14t-21 -52h-38z" />
    <glyph glyph-name="Umacron" unicode="&#x16a;" horiz-adv-x="722" 
d="M629 714v-462q0 -122 -71 -192t-200 -70q-128 0 -197 70t-69 194v460h58v-460q0 -104 54 -158.5t158 -54.5q101 0 155.5 54.5t54.5 152.5v466h57zM498 840v-48h-276v48h276z" />
    <glyph glyph-name="umacron" unicode="&#x16b;" horiz-adv-x="596" 
d="M507 532v-532h-47l-8 91h-3q-22 -43 -67.5 -72t-113.5 -29q-188 0 -188 194v348h58v-344q0 -76 34 -112.5t102 -36.5q176 0 176 203v290h57zM435 658v-48h-276v48h276z" />
    <glyph glyph-name="Ubreve" unicode="&#x16c;" horiz-adv-x="722" 
d="M629 714v-462q0 -122 -71 -192t-200 -70q-128 0 -197 70t-69 194v460h58v-460q0 -104 54 -158.5t158 -54.5q101 0 155.5 54.5t54.5 152.5v466h57zM501 911q-6 -58 -41.5 -90.5t-98.5 -32.5q-64 0 -99 32.5t-39 90.5h40q4 -41 28.5 -58t69.5 -17q44 0 70 17.5t30 57.5h40z
" />
    <glyph glyph-name="ubreve" unicode="&#x16d;" horiz-adv-x="596" 
d="M507 532v-532h-47l-8 91h-3q-22 -43 -67.5 -72t-113.5 -29q-188 0 -188 194v348h58v-344q0 -76 34 -112.5t102 -36.5q176 0 176 203v290h57zM438 729q-6 -58 -41.5 -90.5t-98.5 -32.5q-64 0 -99 32.5t-39 90.5h40q4 -41 28.5 -58t69.5 -17q44 0 70 17.5t30 57.5h40z" />
    <glyph glyph-name="Uring" unicode="&#x16e;" horiz-adv-x="722" 
d="M629 714v-462q0 -122 -71 -192t-200 -70q-128 0 -197 70t-69 194v460h58v-460q0 -104 54 -158.5t158 -54.5q101 0 155.5 54.5t54.5 152.5v466h57zM361 790q-44 0 -74.5 28t-30.5 76q0 46 30 74t75 28q44 0 74.5 -28.5t30.5 -73.5q0 -48 -30.5 -76t-74.5 -28zM361 828
q29 0 47.5 18.5t18.5 47.5q0 28 -19 47t-47 19q-29 0 -48 -19t-19 -47q0 -29 18 -47.5t49 -18.5z" />
    <glyph glyph-name="uring" unicode="&#x16f;" horiz-adv-x="596" 
d="M507 532v-532h-47l-8 91h-3q-22 -43 -67.5 -72t-113.5 -29q-188 0 -188 194v348h58v-344q0 -76 34 -112.5t102 -36.5q176 0 176 203v290h57zM297 608q-44 0 -74.5 28t-30.5 76q0 46 30 74t75 28q44 0 74.5 -28.5t30.5 -73.5q0 -48 -30.5 -76t-74.5 -28zM297 646
q29 0 47.5 18.5t18.5 47.5q0 28 -19 47t-47 19q-29 0 -48 -19t-19 -47q0 -29 18 -47.5t49 -18.5z" />
    <glyph glyph-name="Uhungarumlaut" unicode="&#x170;" horiz-adv-x="722" 
d="M629 714v-462q0 -122 -71 -192t-200 -70q-128 0 -197 70t-69 194v460h58v-460q0 -104 54 -158.5t158 -54.5q101 0 155.5 54.5t54.5 152.5v466h57zM575 948v-8q-13 -21 -34 -49t-45 -55.5t-46 -47.5h-36v9q16 19 34.5 46t35.5 55t28 50h63zM407 948v-8q-13 -21 -34 -49
t-45 -55.5t-46 -47.5h-36v9q16 19 34.5 46t35.5 55t28 50h63z" />
    <glyph glyph-name="uhungarumlaut" unicode="&#x171;" horiz-adv-x="596" 
d="M507 532v-532h-47l-8 91h-3q-22 -43 -67.5 -72t-113.5 -29q-188 0 -188 194v348h58v-344q0 -76 34 -112.5t102 -36.5q176 0 176 203v290h57zM511 766v-8q-13 -21 -34 -49t-45 -55.5t-46 -47.5h-36v9q16 19 34.5 46t35.5 55t28 50h63zM343 766v-8q-13 -21 -34 -49
t-45 -55.5t-46 -47.5h-36v9q16 19 34.5 46t35.5 55t28 50h63z" />
    <glyph glyph-name="Uogonek" unicode="&#x172;" horiz-adv-x="722" 
d="M448 -114q0 -33 13 -47.5t39 -14.5q15 0 27.5 2t20.5 4v-40q-11 -3 -24.5 -5.5t-31.5 -2.5q-44 0 -68 23t-24 73q0 34 16 66t40 59q-44 -13 -98 -13q-128 0 -197 70t-69 194v460h58v-460q0 -104 54 -158.5t158 -54.5q101 0 155.5 54.5t54.5 152.5v466h57v-462
q0 -145 -97 -214q-35 -37 -59.5 -74t-24.5 -78z" />
    <glyph glyph-name="uogonek" unicode="&#x173;" horiz-adv-x="596" 
d="M507 532v-532h-47l-8 91h-3q-22 -43 -67.5 -72t-113.5 -29q-188 0 -188 194v348h58v-344q0 -76 34 -112.5t102 -36.5q176 0 176 203v290h57zM419 -124q0 -52 51 -52q16 0 28 2t20 4v-40q-10 -3 -24 -5.5t-32 -2.5q-44 0 -68 22t-24 66q0 39 27.5 76t68.5 67l33 -13
q-34 -30 -57 -60t-23 -64z" />
    <glyph glyph-name="Wcircumflex" unicode="&#x174;" horiz-adv-x="900" 
d="M878 714l-194 -714h-58l-150 525q-20 74 -30 117q-3 -20 -9.5 -48t-15.5 -60l-149 -534h-58l-191 714h60l129 -490q11 -42 19.5 -76.5t14.5 -67.5q6 34 14 70t20 77l138 487h58l142 -490q14 -43 22 -78.5t14 -67.5q4 33 12 67.5t20 77.5l132 491h60zM477 946
q12 -21 33.5 -48.5t44.5 -54.5t42 -47v-8h-41q-27 22 -55 51t-52 57q-24 -28 -52 -57t-55 -51h-40v8q18 20 41.5 47t44.5 54.5t34 48.5h55z" />
    <glyph glyph-name="wcircumflex" unicode="&#x175;" horiz-adv-x="736" 
d="M514 0l-108 346q-10 33 -19 62.5t-15 55.5h-2q-6 -26 -14 -56t-19 -63l-113 -345h-60l-150 532h59l90 -329q12 -44 20.5 -77.5t12.5 -59.5h2q6 24 14 57t22 73l110 336h58l106 -336q10 -36 20 -70t14 -60h4q3 24 11.5 58.5t19.5 78.5l87 329h58l-145 -532h-63zM401 764
q12 -21 33.5 -48.5t44.5 -54.5t42 -47v-8h-41q-27 22 -55 51t-52 57q-24 -28 -52 -57t-55 -51h-40v8q18 20 41.5 47t44.5 54.5t34 48.5h55z" />
    <glyph glyph-name="Ycircumflex" unicode="&#x176;" horiz-adv-x="536" 
d="M268 332l204 382h64l-238 -438v-276h-58v272l-240 442h64zM295 946q12 -21 33.5 -48.5t44.5 -54.5t42 -47v-8h-41q-27 22 -55 51t-52 57q-24 -28 -52 -57t-55 -51h-40v8q18 20 41.5 47t44.5 54.5t34 48.5h55z" />
    <glyph glyph-name="ycircumflex" unicode="&#x177;" horiz-adv-x="469" 
d="M0 532h61l127 -331q16 -44 28 -78.5t19 -61.5h3q7 23 19 59t28 80l124 332h61l-240 -627q-27 -70 -64 -108.5t-100 -38.5q-20 0 -35 3t-29 7v48q26 -9 57 -9q42 0 68.5 26t46.5 79l35 90zM262 764q12 -21 33.5 -48.5t44.5 -54.5t42 -47v-8h-41q-27 22 -55 51t-52 57
q-24 -28 -52 -57t-55 -51h-40v8q18 20 41.5 47t44.5 54.5t34 48.5h55z" />
    <glyph glyph-name="Ydieresis" unicode="&#x178;" horiz-adv-x="536" 
d="M268 332l204 382h64l-238 -438v-276h-58v272l-240 442h64zM139 862q0 40 34 40q36 0 36 -40q0 -41 -36 -41q-34 0 -34 41zM325 862q0 40 34 40q36 0 36 -40q0 -41 -36 -41q-34 0 -34 41z" />
    <glyph glyph-name="Zacute" unicode="&#x179;" horiz-adv-x="575" 
d="M536 0h-499v43l415 619h-395v52h467v-43l-414 -619h426v-52zM432 948v-8q-15 -21 -39.5 -49t-52.5 -55.5t-53 -47.5h-40v9q18 19 40.5 46t43 55t33.5 50h68z" />
    <glyph glyph-name="zacute" unicode="&#x17a;" horiz-adv-x="463" 
d="M422 0h-382v37l312 449h-290v46h358v-40l-312 -446h314v-46zM373 766v-8q-15 -21 -39.5 -49t-52.5 -55.5t-53 -47.5h-40v9q18 19 40.5 46t43 55t33.5 50h68z" />
    <glyph glyph-name="Zdotaccent" unicode="&#x17b;" horiz-adv-x="575" 
d="M536 0h-499v43l415 619h-395v52h467v-43l-414 -619h426v-52zM286 911q39 0 39 -43q0 -44 -39 -44q-38 0 -38 44q0 43 38 43z" />
    <glyph glyph-name="zdotaccent" unicode="&#x17c;" horiz-adv-x="463" 
d="M422 0h-382v37l312 449h-290v46h358v-40l-312 -446h314v-46zM228 729q39 0 39 -43q0 -44 -39 -44q-38 0 -38 44q0 43 38 43z" />
    <glyph glyph-name="Zcaron" unicode="&#x17d;" horiz-adv-x="575" 
d="M536 0h-499v43l415 619h-395v52h467v-43l-414 -619h426v-52zM260 788q-12 22 -33 49t-44 54t-41 46v9h40q27 -22 55.5 -51t50.5 -57q24 28 52.5 57t55.5 51h41v-9q-19 -19 -42.5 -46t-45 -54t-33.5 -49h-56z" />
    <glyph glyph-name="zcaron" unicode="&#x17e;" horiz-adv-x="463" 
d="M422 0h-382v37l312 449h-290v46h358v-40l-312 -446h314v-46zM201 606q-12 22 -33 49t-44 54t-41 46v9h40q27 -22 55.5 -51t50.5 -57q24 28 52.5 57t55.5 51h41v-9q-19 -19 -42.5 -46t-45 -54t-33.5 -49h-56z" />
    <glyph glyph-name="longs" unicode="&#x17f;" horiz-adv-x="310" 
d="M250 716q-51 0 -78 -33t-27 -103v-580h-57v581q0 92 43 138t120 46q25 0 46 -4t39 -10l-13 -47q-16 4 -34 8t-39 4z" />
    <glyph glyph-name="uni0180" unicode="&#x180;" horiz-adv-x="599" 
d="M317 -10q-67 0 -109.5 28t-62.5 68h-5l-10 -86h-43v618h-75v45h75v97h57v-97h228v-45h-228v-68q0 -28 -1 -61t-3 -53h4q20 45 65.5 75.5t115.5 30.5q103 0 160 -69.5t57 -205.5q0 -126 -57.5 -201.5t-167.5 -75.5zM310 39q86 0 129.5 59.5t43.5 169.5q0 225 -165 225
q-93 0 -133.5 -58t-40.5 -168v-7q0 -108 38.5 -164.5t127.5 -56.5z" />
    <glyph glyph-name="uni0181" unicode="&#x181;" horiz-adv-x="708" 
d="M177 0v663h-26q-47 0 -68 -20.5t-21 -55.5q0 -17 3.5 -32t6.5 -22h-52q-10 23 -10 56q0 58 35 91.5t105 33.5h224q133 0 195.5 -41t62.5 -133q0 -62 -35 -106t-103 -56v-4q78 -12 119 -53.5t41 -117.5q0 -69 -32 -114t-88.5 -67t-131.5 -22h-225zM235 399h153
q99 0 141.5 34t42.5 101q0 69 -47 99t-150 30h-140v-264zM235 50h163q194 0 194 156q0 74 -50 108.5t-153 34.5h-154v-299z" />
    <glyph glyph-name="uni0182" unicode="&#x182;" horiz-adv-x="599" 
d="M100 0v714h404v-52h-346v-260h128q134 0 193 -48.5t59 -147.5q0 -100 -58.5 -153t-181.5 -53h-198zM158 51h132q99 0 143.5 37.5t44.5 117.5q0 84 -50 114.5t-150 30.5h-120v-300z" />
    <glyph glyph-name="uni0183" unicode="&#x183;" horiz-adv-x="599" 
d="M317 -10q-67 0 -109.5 28t-62.5 68h-5l-10 -86h-43v760h399v-50h-342v-160q0 -28 -1 -61t-3 -53h4q20 45 65.5 75.5t115.5 30.5q103 0 160 -69.5t57 -205.5q0 -126 -57.5 -201.5t-167.5 -75.5zM310 39q86 0 129.5 59.5t43.5 169.5q0 225 -165 225q-93 0 -133.5 -58
t-40.5 -168v-7q0 -108 38.5 -164.5t127.5 -56.5z" />
    <glyph glyph-name="uni0184" unicode="&#x184;" horiz-adv-x="607" 
d="M328 -5q-124 0 -178 60.5t-54 168.5v490h58v-312h142q129 0 190.5 -51t61.5 -147q0 -93 -55.5 -151t-164.5 -58zM328 46q80 0 120 41.5t40 116.5q0 82 -51.5 114.5t-148.5 32.5h-134v-123q0 -96 42 -139t132 -43z" />
    <glyph glyph-name="uni0185" unicode="&#x185;" horiz-adv-x="598" 
d="M313 -10q-107 0 -167 68t-60 202v500h56v-210q0 -28 -1 -61t-2 -53h3q20 44 65.5 75t116.5 31q102 0 159 -69.5t57 -205.5q0 -126 -57 -201.5t-170 -75.5zM314 39q84 0 126 59.5t42 169.5q0 225 -166 225q-93 0 -133.5 -58t-40.5 -168v-8q0 -107 45 -163.5t127 -56.5z
" />
    <glyph glyph-name="uni0186" unicode="&#x186;" horiz-adv-x="623" 
d="M224 -10q-57 0 -99 8t-79 21v51q39 -12 80.5 -20t91.5 -8q90 0 153 41t96 114t33 169q0 93 -29 161.5t-88.5 106.5t-149.5 38q-47 0 -92 -11t-83 -30l-23 51q40 20 92.5 31t112.5 11q109 0 180 -44.5t106 -125t35 -188.5q0 -109 -39 -194t-114 -133.5t-184 -48.5z" />
    <glyph glyph-name="uni0187" unicode="&#x187;" horiz-adv-x="623" 
d="M640 858q20 0 34.5 -3.5t23.5 -7.5v-49q-8 3 -22 6.5t-31 3.5q-26 0 -40.5 -14.5t-14.5 -47.5v-60l-23 -52q-38 19 -78 28.5t-85 9.5q-88 0 -151 -39.5t-96.5 -110t-33.5 -164.5q0 -96 30.5 -167t90.5 -110t150 -39q52 0 95.5 8t82.5 20v-50q-37 -14 -81.5 -22t-102.5 -8
q-108 0 -180.5 46t-109 129t-36.5 194q0 106 40.5 188.5t117 129.5t184.5 47q70 0 136 -20v39q0 115 100 115z" />
    <glyph glyph-name="uni0188" unicode="&#x188;" horiz-adv-x="480" 
d="M301 -10q-117 0 -180.5 71.5t-63.5 201.5q0 89 32 151.5t89.5 95t133.5 32.5q22 0 42.5 -3t39.5 -7v114q0 122 104 122q19 0 31.5 -3.5t22.5 -7.5v-49q-8 3 -21 6.5t-29 3.5q-27 0 -42.5 -16t-15.5 -53v-133l-16 -50q-56 25 -116 25q-94 0 -145 -61t-51 -166
q0 -100 45 -162t139 -62q40 0 75 8t63 21v-51q-26 -13 -60 -20.5t-77 -7.5z" />
    <glyph glyph-name="uni0189" unicode="&#x189;" horiz-adv-x="711" 
d="M298 714q170 0 260 -89.5t90 -260.5q0 -180 -95 -272t-277 -92h-172v328h-81v52h81v334h194zM287 663h-125v-283h192v-52h-192v-277h110q316 0 316 311q0 301 -301 301z" />
    <glyph glyph-name="uni018A" unicode="&#x18a;" horiz-adv-x="786" 
d="M175 0v663h-24q-47 0 -68 -20.5t-21 -55.5q0 -17 3.5 -32t6.5 -22h-52q-10 23 -10 56q0 60 35 92.5t105 32.5h224q169 0 259.5 -89.5t90.5 -260.5q0 -180 -95 -272t-277 -92h-177zM233 51h114q315 0 315 311q0 301 -300 301h-129v-612z" />
    <glyph glyph-name="uni018B" unicode="&#x18b;" horiz-adv-x="599" 
d="M311 0q-257 0 -257 196q0 100 66 157t206 57h110v252h-343v52h401v-714h-183zM317 51h119v309h-104q-104 0 -161 -35t-57 -126q0 -77 49.5 -112.5t153.5 -35.5z" />
    <glyph glyph-name="uni018C" unicode="&#x18c;" horiz-adv-x="599" 
d="M279 -10q-107 0 -164.5 68.5t-57.5 201.5q0 138 60.5 210t166.5 72q67 0 109 -29t62 -73h4q-1 24 -2.5 53t-1.5 51v166h-341v50h398v-760h-46l-8 92h-3q-21 -42 -63 -72t-113 -30zM286 39q92 0 131 56t39 161v10q0 110 -39 168.5t-127 58.5q-86 0 -130 -60.5t-44 -172.5
q0 -109 42 -165t128 -56z" />
    <glyph glyph-name="uni018D" unicode="&#x18d;" horiz-adv-x="586" 
d="M272 -232q-56 0 -102 14t-90 36l24 46q40 -22 81 -35t89 -13q56 0 84.5 25.5t28.5 64.5q0 30 -14.5 52t-44.5 43t-78 47q-57 32 -100.5 67t-68 80.5t-24.5 108.5q0 111 63 174.5t174 63.5q70 0 123 -26.5t83 -76t30 -119.5q0 -93 -55.5 -155.5t-160.5 -94.5
q62 -36 96.5 -71.5t34.5 -92.5q0 -66 -49 -102t-124 -36zM267 98q55 14 101.5 40.5t74.5 70.5t28 111q0 80 -48 126.5t-129 46.5q-86 0 -132 -49.5t-46 -139.5q0 -75 40.5 -123t110.5 -83z" />
    <glyph glyph-name="uni018E" unicode="&#x18e;" horiz-adv-x="553" 
d="M61 0v52h334v297h-315v51h315v262h-334v52h392v-714h-392z" />
    <glyph glyph-name="uni018F" unicode="&#x18f;" horiz-adv-x="711" 
d="M316 672q-63 0 -113.5 -10.5t-92.5 -25.5v54q38 14 87.5 24t118.5 10q107 0 181.5 -44t113.5 -126t39 -196q0 -113 -35 -195.5t-103 -127.5t-168 -45q-146 0 -216 89.5t-70 271.5v29h530q-4 136 -72 214t-200 78zM344 42q116 0 178 76t66 210h-469q0 -147 54.5 -216.5
t170.5 -69.5z" />
    <glyph glyph-name="uni0190" unicode="&#x190;" horiz-adv-x="565" 
d="M310 724q69 0 121.5 -18t90.5 -44l-28 -42q-38 23 -80 38.5t-103 15.5q-73 0 -119.5 -35t-46.5 -101q0 -68 46.5 -105t148.5 -37h102v-50h-105q-107 0 -164.5 -38t-57.5 -114t51 -115.5t148 -39.5q57 0 112.5 14.5t98.5 36.5v-55q-41 -19 -95 -32t-119 -13
q-133 0 -194.5 54t-61.5 146q0 76 43.5 121.5t119.5 60.5v3q-57 13 -95 52.5t-38 114.5q0 82 60 132t165 50z" />
    <glyph glyph-name="uni0191" unicode="&#x191;" horiz-adv-x="506" 
d="M38 -192q-19 0 -32 3t-24 8v51q11 -4 23.5 -7t27.5 -3q32 0 49.5 20.5t17.5 65.5v768h392v-52h-334v-294h316v-52h-316v-374q0 -68 -33 -101t-87 -33z" />
    <glyph glyph-name="florin" unicode="&#x192;" horiz-adv-x="571" 
d="M404 724q27 0 49.5 -5t42.5 -11l-14 -47q-16 5 -36 9.5t-42 4.5q-52 0 -77 -30.5t-25 -104.5v-78h138v-47h-136v-496q0 -80 -36.5 -119.5t-106.5 -39.5q-22 0 -38.5 2.5t-29.5 6.5v49q16 -4 31.5 -6.5t33.5 -2.5q45 0 66.5 26.5t21.5 86.5v493h-101v31l101 17v78
q0 96 39.5 139.5t118.5 43.5z" />
    <glyph glyph-name="uni0193" unicode="&#x193;" horiz-adv-x="724" 
d="M688 858q20 0 34.5 -3.5t23.5 -7.5v-49q-8 3 -22 6.5t-32 3.5q-26 0 -40 -14.5t-14 -47.5v-64l-24 -52q-91 43 -190 43q-94 0 -161.5 -40t-104 -111.5t-36.5 -165.5q0 -154 76.5 -234.5t223.5 -80.5q52 0 92.5 7.5t73.5 18.5v244h-201v53h259v-332q-52 -21 -110 -31.5
t-126 -10.5q-170 0 -259 97t-89 269q0 108 43.5 191.5t125.5 130.5t197 47q87 0 159 -25v43q0 115 101 115z" />
    <glyph glyph-name="uni0194" unicode="&#x194;" horiz-adv-x="594" 
d="M285 -240q-50 0 -78.5 34.5t-28.5 87.5q0 50 22 107.5t54 118.5l-256 606h62l173 -414q17 -43 31 -78.5t22 -63.5q8 28 21.5 63.5t31.5 80.5l171 412h62l-253 -606q34 -66 54 -121.5t20 -104.5q0 -52 -28.5 -87t-79.5 -35zM286 -188q52 0 52 72q0 38 -15 81.5t-37 88.5
q-22 -46 -38 -90t-16 -78q0 -38 15 -56t39 -18z" />
    <glyph glyph-name="uni0195" unicode="&#x195;" horiz-adv-x="916" 
d="M642 -11q-198 0 -198 198v157q0 76 -34 112t-98 36q-168 0 -168 -202v-290h-56v760h56v-244q0 -40 -3 -76h4q20 44 64.5 73t110.5 29q88 0 134.5 -47t46.5 -147v-155q0 -79 33.5 -117t107.5 -38q72 0 105 39.5t33 122.5v340h56v-342q0 -106 -48 -157.5t-146 -51.5z" />
    <glyph glyph-name="uni0196" unicode="&#x196;" horiz-adv-x="322" 
d="M226 -10q-59 0 -97.5 33t-38.5 119v572h58v-564q0 -58 22 -83t64 -25q22 0 42.5 3.5t35.5 8.5v-49q-33 -15 -86 -15z" />
    <glyph glyph-name="uni0197" unicode="&#x197;" horiz-adv-x="311" 
d="M260 714v-36l-76 -12v-269h92v-51h-92v-299l76 -11v-36h-209v36l75 11v299h-91v51h91v269l-75 12v36h209z" />
    <glyph glyph-name="uni0198" unicode="&#x198;" horiz-adv-x="588" 
d="M566 720q14 0 24 -2t17 -5v-47q-7 2 -18 3t-21 1q-20 0 -39.5 -12t-46.5 -40l-192 -207l298 -411h-70l-268 370l-92 -91v-279h-58v714h58v-375q20 24 42 48.5t43 50.5l193 206q40 45 68 60.5t62 15.5z" />
    <glyph glyph-name="uni0199" unicode="&#x199;" horiz-adv-x="494" 
d="M210 764q15 0 29 -2.5t23 -5.5v-50q-8 3 -19.5 5.5t-26.5 2.5q-34 0 -53 -21t-19 -67v-252q0 -32 -0.5 -66.5t-1.5 -67.5h2q11 15 28 35.5t32 36.5l202 220h68l-210 -228l228 -304h-68l-200 266l-80 -82v-184h-56v624q0 68 30.5 104t91.5 36z" />
    <glyph glyph-name="uni019A" unicode="&#x19a;" horiz-adv-x="232" 
d="M88 0v361h-74v45h74v354h57v-354h74v-45h-74v-361h-57z" />
    <glyph glyph-name="uni019B" unicode="&#x19b;" horiz-adv-x="511" 
d="M-6 0l230 532l-22 66l-112 -33l-14 43l108 32q-17 44 -35.5 60.5t-52.5 16.5q-15 0 -27.5 -2t-22.5 -5v48q12 3 26.5 5.5t31.5 2.5q54 0 81.5 -24.5t52.5 -85.5l116 34l13 -43l-112 -33l183 -524q10 -28 21.5 -39.5t27.5 -11.5q8 0 15.5 1.5t11.5 3.5v-45q-16 -8 -42 -8
q-32 0 -50.5 17.5t-31.5 54.5l-100 288q-10 30 -21.5 62.5t-16.5 56.5h-4q-8 -27 -18.5 -56t-22.5 -57l-153 -357h-60z" />
    <glyph glyph-name="uni019C" unicode="&#x19c;" horiz-adv-x="996" 
d="M280 -10q-94 0 -142.5 49t-48.5 163v512h58v-511q0 -86 35.5 -124t105.5 -38q89 0 133.5 48.5t44.5 158.5v466h58v-511q0 -86 35 -124t106 -38q89 0 133 51.5t44 165.5v456h58v-714h-46l-10 93h-3q-22 -43 -67.5 -73t-117.5 -30q-75 0 -116.5 29.5t-59.5 82.5h-4
q-24 -52 -74 -82t-122 -30z" />
    <glyph glyph-name="uni019D" unicode="&#x19d;" horiz-adv-x="729" 
d="M38 -192q-19 0 -32 3t-24 8v51q12 -4 24 -7t27 -3q32 0 49.5 20.5t17.5 65.5v768h62l412 -622h4q-2 31 -3 79.5t-1 89.5v453h54v-714h-62l-413 624h-3q2 -39 3 -82.5t1 -91.5v-508q0 -68 -31 -101t-85 -33z" />
    <glyph glyph-name="uni019E" unicode="&#x19e;" horiz-adv-x="596" 
d="M326 542q91 0 139 -47t48 -147v-588h-57v584q0 76 -34 112t-102 36q-176 0 -176 -202v-290h-56v532h46l8 -92h4q21 44 66.5 73t113.5 29z" />
    <glyph glyph-name="uni019F" unicode="&#x19f;" horiz-adv-x="768" 
d="M705 358q0 -109 -36 -192t-107.5 -129.5t-177.5 -46.5q-108 0 -179.5 46.5t-107 130t-35.5 192.5t36.5 191t109 128.5t179.5 46.5q103 0 173.5 -44.5t107.5 -126.5t37 -196zM387 673q-85 0 -142.5 -35.5t-87 -99.5t-34.5 -149h520q-7 134 -71 209t-185 75zM384 41
q86 0 142.5 36.5t85.5 103.5t32 157h-521q3 -89 32 -156t86 -104t143 -37z" />
    <glyph glyph-name="Ohorn" unicode="&#x1a0;" horiz-adv-x="768" 
d="M704 358q0 -109 -36 -192t-107 -129.5t-177 -46.5q-108 0 -179.5 46.5t-107 130t-35.5 192.5t36.5 191t109 128.5t179.5 46.5q82 0 143.5 -28.5t101.5 -81.5q38 11 57 46t19 99h58l6 -8q-12 -138 -116 -175q48 -87 48 -219zM123 358q0 -95 28 -166.5t85.5 -111
t147.5 -39.5t147.5 39.5t85 110.5t27.5 167q0 148 -64.5 231.5t-192.5 83.5q-90 0 -148.5 -39.5t-87 -110.5t-28.5 -165z" />
    <glyph glyph-name="ohorn" unicode="&#x1a1;" horiz-adv-x="592" 
d="M533 266q0 -83 -27.5 -145t-81 -96.5t-130.5 -34.5q-74 0 -127 34t-81.5 96t-28.5 146q0 130 64.5 203t176.5 73q56 0 98.5 -19t71.5 -53q38 14 55 49t17 95h58l6 -8q-8 -70 -35 -112t-74 -61q38 -68 38 -167zM116 266q0 -105 43 -166t135 -61q94 0 137 61t43 166
q0 102 -41.5 164t-135.5 62q-91 0 -136 -58t-45 -168z" />
    <glyph glyph-name="uni01A2" unicode="&#x1a2;" horiz-adv-x="1066" 
d="M679 358q0 -109 -34.5 -192t-103.5 -129.5t-171 -46.5t-170.5 46.5t-103 130t-34.5 192.5t35.5 191t105 128.5t171.5 46.5q73 0 129 -25.5t95 -71.5q27 44 74.5 70t109.5 26q92 0 142 -52.5t50 -161.5v-510h-58v507q0 83 -36.5 124t-105.5 41q-110 0 -150 -80
q55 -92 55 -234zM123 358q0 -95 27 -166.5t82.5 -111t138.5 -39.5q85 0 139.5 39.5t81 110.5t26.5 167q0 148 -62 231.5t-182 83.5q-84 0 -140 -39.5t-83.5 -110.5t-27.5 -165z" />
    <glyph glyph-name="uni01A3" unicode="&#x1a3;" horiz-adv-x="828" 
d="M520 266q0 -83 -27 -145t-78.5 -96.5t-126.5 -34.5q-72 0 -124 34t-79.5 96t-27.5 146q0 130 62.5 203t172.5 73q51 0 91.5 -16.5t68.5 -47.5q22 28 58 46t82 18q154 0 154 -186v-596h-56v592q0 140 -108 140q-36 0 -62 -12.5t-44 -34.5q22 -35 33 -80.5t11 -98.5z
M116 266q0 -102 42 -164.5t130 -62.5q90 0 132 62.5t42 164.5q0 66 -17.5 117t-55 80t-98.5 29q-88 0 -131.5 -60t-43.5 -166z" />
    <glyph glyph-name="uni01A4" unicode="&#x1a4;" horiz-adv-x="664" 
d="M175 0v663h-24q-47 0 -68 -20.5t-21 -55.5q0 -17 3.5 -32t6.5 -22h-52q-10 23 -10 56q0 58 35 91.5t105 33.5h203q257 0 257 -202q0 -103 -66 -161.5t-206 -58.5h-105v-292h-58zM233 342h99q104 0 161 36.5t57 130.5q0 80 -49.5 117t-153.5 37h-114v-321z" />
    <glyph glyph-name="uni01A5" unicode="&#x1a5;" horiz-adv-x="599" 
d="M212 765q20 0 37 -3.5t27 -7.5v-49q-9 4 -23.5 6.5t-33.5 2.5q-37 0 -55 -21t-18 -67v-88q0 -21 -1.5 -52t-2.5 -52h4q20 44 63.5 76t117.5 32q102 0 159.5 -68.5t57.5 -204.5t-60 -207.5t-162 -71.5q-70 0 -113 30t-63 72h-4q2 -26 3 -55t1 -55v-218h-58v861
q0 67 31 103.5t93 36.5zM319 492q-89 0 -130.5 -55.5t-42.5 -160.5v-10q0 -114 41.5 -170.5t127.5 -56.5q83 0 126 61t43 170q0 107 -41 164.5t-124 57.5z" />
    <glyph glyph-name="uni01A6" unicode="&#x1a6;" horiz-adv-x="600" 
d="M510 -100l-182 308h-170v-208h-58v714h58v-100h120q128 0 192.5 -45t64.5 -151q0 -82 -43.5 -128t-108.5 -66l196 -324h-69zM158 258h135q87 0 134.5 41t47.5 117q0 82 -49.5 114t-152.5 32h-115v-304z" />
    <glyph glyph-name="uni01A7" unicode="&#x1a7;" horiz-adv-x="546" 
d="M269 724q98 0 160 -43.5t62 -131.5q0 -57 -23.5 -95.5t-67.5 -64.5t-104 -48q-62 -23 -104 -44.5t-63.5 -49t-21.5 -71.5q0 -68 50.5 -101.5t132.5 -33.5q58 0 110 13t90 28v-56q-33 -14 -83.5 -25t-115.5 -11q-71 0 -126 21t-86 63t-31 105q0 59 27 95.5t75 62t110 49.5
q55 21 93.5 41t58.5 48t20 72q0 64 -43.5 94.5t-118.5 30.5q-41 0 -84 -10t-83 -28l-18 50q41 18 87.5 29t96.5 11z" />
    <glyph glyph-name="uni01A8" unicode="&#x1a8;" horiz-adv-x="468" 
d="M224 542q92 0 140.5 -34t48.5 -100q0 -45 -22 -72.5t-60 -46.5t-87 -36q-75 -26 -111.5 -50.5t-36.5 -68.5q0 -45 34 -70.5t112 -25.5q47 0 94 11.5t81 27.5v-53q-29 -14 -74 -24t-101 -10q-202 0 -202 148q0 46 22.5 74.5t61 47.5t87.5 36q46 17 79 31t50.5 33t17.5 50
q0 41 -34.5 62.5t-97.5 21.5q-35 0 -73 -9t-69 -23l-20 47q34 14 75 23.5t85 9.5z" />
    <glyph glyph-name="uni01A9" unicode="&#x1a9;" horiz-adv-x="555" 
d="M31 0v47l258 325l-252 295v47h472v-53h-293h-54.5t-53.5 1l248 -288l-257 -322h439v-52h-507z" />
    <glyph glyph-name="uni01AA" unicode="&#x1aa;" horiz-adv-x="354" 
d="M116 765q59 0 92.5 -35.5t33.5 -100.5v-711q0 -57 23 -82.5t67 -25.5q21 0 40 3t30 7v-46q-27 -12 -76 -12q-63 0 -101.5 34.5t-38.5 117.5v626h-68q-62 0 -94.5 30t-32.5 83q0 46 30.5 79t94.5 33zM112 716q-34 0 -51 -18t-17 -44q0 -65 81 -65h61v36q0 91 -74 91z" />
    <glyph glyph-name="uni01AB" unicode="&#x1ab;" horiz-adv-x="340" 
d="M204 -240q-20 0 -34.5 4t-23.5 8v49q10 -5 24 -8t30 -3q29 0 46 17t17 53v113q-17 -3 -37 -3q-63 0 -98.5 37.5t-35.5 120.5v338h-79v32l79 18l20 123h36v-127h164v-46h-164v-336q0 -55 21 -83.5t69 -28.5q22 0 42.5 3.5t34.5 8.5v-169q0 -58 -28.5 -89.5t-82.5 -31.5z
" />
    <glyph glyph-name="uni01AC" unicode="&#x1ac;" horiz-adv-x="534" 
d="M246 0v662h-92q-48 0 -69.5 -20t-21.5 -54q0 -18 4 -33.5t7 -22.5h-54q-4 10 -7 25.5t-3 30.5q0 58 34 92t108 34h382v-52h-230v-662h-58z" />
    <glyph glyph-name="uni01AD" unicode="&#x1ad;" horiz-adv-x="340" 
d="M218 765q22 0 39 -3.5t29 -8.5v-49q-10 4 -29.5 7.5t-39.5 3.5q-69 0 -69 -78v-105h164v-46h-164v-336q0 -112 90 -112q22 0 42.5 3.5t34.5 8.5v-46q-16 -6 -37.5 -10t-47.5 -4q-66 0 -102 37.5t-36 120.5v338h-79v32l79 18v98q0 63 33 97t93 34z" />
    <glyph glyph-name="uni01AE" unicode="&#x1ae;" horiz-adv-x="530" 
d="M368 -196q-64 0 -98 36t-34 112v710h-230v52h518v-52h-230v-705q0 -56 22 -78.5t60 -22.5q16 0 29 3t23 7v-51q-22 -11 -60 -11z" />
    <glyph glyph-name="Uhorn" unicode="&#x1af;" horiz-adv-x="746" 
d="M629 714v-100q43 9 63 43.5t20 102.5h58l6 -8q-8 -74 -40.5 -120.5t-106.5 -61.5v-318q0 -122 -68.5 -192t-198.5 -70t-200 70t-70 194v460h58v-461q0 -103 55 -157.5t159 -54.5q102 0 155 54.5t53 152.5v466h57z" />
    <glyph glyph-name="uhorn" unicode="&#x1b0;" horiz-adv-x="624" 
d="M641 614l6 -8q-7 -70 -38 -118t-102 -61v-427h-47l-8 91h-3q-22 -43 -67.5 -72t-112.5 -29q-189 0 -189 194v348h58v-344q0 -76 34 -112.5t102 -36.5q176 0 176 203v290h57v-62q41 10 59 45.5t18 98.5h57z" />
    <glyph glyph-name="uni01B1" unicode="&#x1b1;" horiz-adv-x="776" 
d="M389 41q124 0 192.5 75.5t68.5 204.5q0 121 -49 201.5t-143 143.5v48h279v-52h-203q50 -34 90.5 -82t64 -112t23.5 -148q0 -100 -39.5 -174t-112 -115.5t-171.5 -41.5q-101 0 -173.5 39.5t-111.5 113.5t-39 177q0 126 49.5 209t126.5 134h-201v52h279v-48
q-99 -62 -146.5 -144.5t-47.5 -200.5q0 -132 69.5 -206t194.5 -74z" />
    <glyph glyph-name="uni01B2" unicode="&#x1b2;" horiz-adv-x="722" 
d="M358 -10q-128 0 -197 70t-69 194v460h58v-460q0 -104 54 -158.5t158 -54.5q101 0 155.5 54.5t54.5 152.5v342q0 44 -20 63t-52 19q-22 0 -41.5 -6t-32.5 -14v52q14 8 35.5 14t48.5 6q56 0 87.5 -33t31.5 -97v-342q0 -122 -71 -192t-200 -70z" />
    <glyph glyph-name="uni01B3" unicode="&#x1b3;" horiz-adv-x="560" 
d="M49 725q36 0 57.5 -18.5t39.5 -56.5l150 -318l201 382h63l-235 -438v-276h-58v272l-171 352q-12 24 -24.5 37t-34.5 13q-24 0 -38 -8v50q8 3 20.5 6t29.5 3z" />
    <glyph glyph-name="uni01B4" unicode="&#x1b4;" horiz-adv-x="505" 
d="M478 541q15 0 28 -2.5t21 -6.5v-46q-6 2 -15 4t-19 2q-24 0 -37.5 -15t-25.5 -45l-200 -527q-27 -70 -64 -108.5t-100 -38.5q-20 0 -35 3t-29 7v48q26 -9 57 -9q42 0 69 26t48 79l33 90l-209 530h61l127 -331q16 -44 28 -78.5t19 -61.5h3q7 23 19.5 59t28.5 80l95 255
q16 44 37.5 65t59.5 21z" />
    <glyph glyph-name="uni01B5" unicode="&#x1b5;" horiz-adv-x="575" 
d="M80 394h192l180 268h-395v52h467v-43l-185 -277h149v-48h-181l-197 -294h426v-52h-499v43l203 303h-160v48z" />
    <glyph glyph-name="uni01B6" unicode="&#x1b6;" horiz-adv-x="463" 
d="M420 532v-40l-136 -194h130v-48h-164l-142 -204h314v-46h-382v37l148 213h-130v48h164l130 188h-290v46h358z" />
    <glyph glyph-name="uni01B7" unicode="&#x1b7;" horiz-adv-x="581" 
d="M486 714v-46l-252 -266q133 -2 203 -51t70 -149q0 -95 -67 -153.5t-198 -58.5q-122 0 -204 42v55q43 -23 97.5 -35.5t106.5 -12.5q100 0 152 43t52 120t-55.5 114t-164.5 37h-60v49l244 260h-356v52h432z" />
    <glyph glyph-name="uni01B8" unicode="&#x1b8;" horiz-adv-x="567" 
d="M311 -10q-87 0 -144.5 27.5t-86 76t-28.5 110.5q0 106 70 159t184 55l-227 250v46h428v-52h-353l224 -248v-44h-58q-99 0 -153 -40t-54 -126q0 -78 51.5 -121.5t151.5 -43.5q55 0 108.5 13t97.5 34v-54q-42 -20 -94 -31t-117 -11z" />
    <glyph glyph-name="uni01B9" unicode="&#x1b9;" horiz-adv-x="468" 
d="M268 -240q-75 0 -128.5 28t-82 77.5t-28.5 114.5q0 111 70.5 169.5t196.5 62.5l-243 278v42h383v-50h-312l241 -276v-42h-49q-111 0 -170 -44t-59 -138q0 -80 49.5 -126.5t135.5 -46.5q52 0 98 11.5t80 27.5v-54q-34 -16 -78.5 -25t-103.5 -9z" />
    <glyph glyph-name="uni01BA" unicode="&#x1ba;" horiz-adv-x="480" 
d="M208 -240q-84 0 -132 29.5t-48 88.5q0 52 38 85t136 37q81 4 119.5 32.5t38.5 97.5q0 49 -25 75t-69 35.5t-101 9.5h-47v44l195 188h-272v50h355v-42l-202 -192q63 -1 113.5 -16.5t80.5 -51.5t30 -99q0 -85 -53 -130t-163 -49q-70 -4 -94 -23t-24 -52q0 -32 31 -50
t93 -18q51 0 91 8.5t74 22.5v-53q-28 -11 -70 -19t-95 -8z" />
    <glyph glyph-name="uni01BB" unicode="&#x1bb;" horiz-adv-x="571" 
d="M266 768q92 0 145.5 -48.5t53.5 -134.5q0 -53 -16.5 -97t-48.5 -90h102v-47h-134l-248 -301v-3h386v-47h-452v48l248 303h-210v47h244q35 50 52.5 92t17.5 94q0 65 -38 99.5t-104 34.5q-50 0 -90.5 -18.5t-75.5 -47.5l-31 40q40 33 88.5 54.5t110.5 21.5z" />
    <glyph glyph-name="uni01BC" unicode="&#x1bc;" horiz-adv-x="574" 
d="M252 -10q-62 0 -108.5 12t-80.5 28v56q40 -20 87.5 -33.5t102.5 -13.5q90 0 144.5 44.5t54.5 136.5q0 86 -55.5 124t-142.5 38h-104v280h-96v52h432v-52h-278v-230h54q73 0 129.5 -24t89 -71t32.5 -117q0 -110 -70.5 -170t-190.5 -60z" />
    <glyph glyph-name="uni01BD" unicode="&#x1bd;" horiz-adv-x="452" 
d="M198 -8q-54 0 -97.5 10t-70.5 24v54q33 -16 76 -28t94 -12q76 0 115.5 34t39.5 90q0 55 -36.5 83.5t-114.5 28.5h-90v206h-74v50h351v-50h-225v-158h52q104 0 149 -43.5t45 -113.5q0 -47 -22.5 -86.5t-70 -64t-121.5 -24.5z" />
    <glyph glyph-name="uni01BE" unicode="&#x1be;" horiz-adv-x="451" 
d="M203 -10q-55 0 -94 8.5t-65 21.5v54q32 -15 73 -25.5t87 -10.5q81 0 113.5 28.5t32.5 72.5q0 31 -14.5 50.5t-42 33t-66.5 27.5q-27 10 -45.5 25t-28 41.5t-9.5 71.5v98h-86v32l86 18l20 123h37v-127h163v-46h-163v-97q0 -49 14 -67t43 -28q40 -14 74 -31.5t54 -45.5
t20 -73q0 -70 -51 -112t-152 -42z" />
    <glyph glyph-name="uni01BF" unicode="&#x1bf;" horiz-adv-x="594" 
d="M326 542q93 0 149.5 -57.5t56.5 -164.5q0 -98 -47 -170t-134 -113t-206 -44v-229h-57v768h47l7 -102h3q19 44 62 78t119 34zM316 492q-92 0 -131.5 -57.5t-39.5 -163.5v-230q155 8 241.5 79.5t86.5 198.5q0 80 -41.5 126.5t-115.5 46.5z" />
    <glyph glyph-name="uni01C0" unicode="&#x1c0;" horiz-adv-x="347" 
d="M148 0v760h52v-760h-52z" />
    <glyph glyph-name="uni01C1" unicode="&#x1c1;" horiz-adv-x="545" 
d="M148 0v760h52v-760h-52zM346 0v760h52v-760h-52z" />
    <glyph glyph-name="uni01C2" unicode="&#x1c2;" horiz-adv-x="516" 
d="M284 760v-267h166v-49h-166v-118h166v-49h-166v-277h-52v277h-166v49h166v118h-166v49h166v267h52z" />
    <glyph glyph-name="uni01C3" unicode="&#x1c3;" horiz-adv-x="245" 
d="M144 188h-41l-13 526h68zM78 38q0 49 44 49t44 -49t-44 -49t-44 49z" />
    <glyph glyph-name="uni01C4" unicode="&#x1c4;" horiz-adv-x="1276" 
d="M648 364q0 -180 -95 -272t-277 -92h-176v714h198q170 0 260 -89.5t90 -260.5zM588 362q0 301 -301 301h-129v-612h114q316 0 316 311zM1237 0h-499v43l415 619h-395v52h467v-43l-414 -619h426v-52zM960 788q-12 22 -33 49t-44 54t-41 46v9h40q27 -22 55.5 -51t50.5 -57
q24 28 52.5 57t55.5 51h41v-9q-19 -19 -42.5 -46t-45 -54t-33.5 -49h-56z" />
    <glyph glyph-name="uni01C5" unicode="&#x1c5;" horiz-adv-x="1174" 
d="M648 364q0 -180 -95 -272t-277 -92h-176v714h198q170 0 260 -89.5t90 -260.5zM588 362q0 301 -301 301h-129v-612h114q316 0 316 311zM1133 0h-382v37l312 449h-290v46h358v-40l-312 -446h314v-46zM912 606q-12 22 -33 49t-44 54t-41 46v9h40q27 -22 55.5 -51t50.5 -57
q24 28 52.5 57t55.5 51h41v-9q-19 -19 -42.5 -46t-45 -54t-33.5 -49h-56z" />
    <glyph glyph-name="uni01C6" unicode="&#x1c6;" horiz-adv-x="1062" 
d="M279 -10q-107 0 -164.5 68.5t-57.5 201.5q0 138 60.5 210t166.5 72q67 0 109 -29t62 -73h4q-1 24 -2.5 53t-1.5 51v216h57v-760h-46l-8 92h-3q-21 -42 -63 -72t-113 -30zM286 39q92 0 131 56t39 161v10q0 110 -39 168.5t-127 58.5q-86 0 -130 -60.5t-44 -172.5
q0 -109 42 -165t128 -56zM1021 0h-382v37l312 449h-290v46h358v-40l-312 -446h314v-46zM800 606q-12 22 -33 49t-44 54t-41 46v9h40q27 -22 55.5 -51t50.5 -57q24 28 52.5 57t55.5 51h41v-9q-19 -19 -42.5 -46t-45 -54t-33.5 -49h-56z" />
    <glyph glyph-name="uni01C7" unicode="&#x1c7;" horiz-adv-x="768" 
d="M100 0v714h58v-662h334v-52h-392zM503 -182q-26 0 -44 4t-32 8v52q15 -4 34 -8t41 -4q112 0 112 134v710h58v-708q0 -88 -42.5 -138t-126.5 -50z" />
    <glyph glyph-name="uni01C8" unicode="&#x1c8;" horiz-adv-x="748" 
d="M100 0v714h58v-662h334v-52h-392zM593 686q0 43 38 43q40 0 40 -43q0 -44 -40 -44q-38 0 -38 44zM531 -240q-43 0 -68 11v49q28 -11 63 -11q36 0 56.5 22t20.5 69v632h56v-632q0 -68 -33.5 -104t-94.5 -36z" />
    <glyph glyph-name="uni01C9" unicode="&#x1c9;" horiz-adv-x="465" 
d="M145 0h-57v760h57v-760zM310 686q0 43 38 43q40 0 40 -43q0 -44 -40 -44q-38 0 -38 44zM248 -240q-43 0 -68 11v49q28 -11 63 -11q36 0 56.5 22t20.5 69v632h56v-632q0 -68 -33.5 -104t-94.5 -36z" />
    <glyph glyph-name="uni01CA" unicode="&#x1ca;" horiz-adv-x="981" 
d="M628 0h-62l-413 624h-3q2 -39 3 -82.5t1 -91.5v-450h-54v714h62l412 -622h4q-2 31 -3 79.5t-1 89.5v453h54v-714zM717 -182q-26 0 -44 4t-32 8v52q15 -4 34 -8t41 -4q112 0 112 134v710h58v-708q0 -88 -42.5 -138t-126.5 -50z" />
    <glyph glyph-name="uni01CB" unicode="&#x1cb;" horiz-adv-x="961" 
d="M628 0h-62l-413 624h-3q2 -39 3 -82.5t1 -91.5v-450h-54v714h62l412 -622h4q-2 31 -3 79.5t-1 89.5v453h54v-714zM807 686q0 43 38 43q40 0 40 -43q0 -44 -40 -44q-38 0 -38 44zM745 -240q-43 0 -68 11v49q28 -11 63 -11q36 0 56.5 22t20.5 69v632h56v-632
q0 -68 -33.5 -104t-94.5 -36z" />
    <glyph glyph-name="uni01CC" unicode="&#x1cc;" horiz-adv-x="828" 
d="M326 542q91 0 139 -47t48 -147v-348h-57v344q0 76 -34.5 112t-101.5 36q-176 0 -176 -202v-290h-56v532h46l8 -92h4q21 44 66.5 73t113.5 29zM674 686q0 43 38 43q40 0 40 -43q0 -44 -40 -44q-38 0 -38 44zM612 -240q-43 0 -68 11v49q28 -11 63 -11q36 0 56.5 22t20.5 69
v632h56v-632q0 -68 -33.5 -104t-94.5 -36z" />
    <glyph glyph-name="uni01CD" unicode="&#x1cd;" horiz-adv-x="608" 
d="M547 0l-95 246h-296l-97 -246h-59l280 716h54l274 -716h-61zM434 298l-96 258q-4 14 -14 44t-18 53q-8 -26 -17 -52.5t-15 -45.5l-99 -257h259zM276 788q-12 22 -33 49t-44 54t-41 46v9h40q27 -22 55.5 -51t50.5 -57q24 28 52.5 57t55.5 51h41v-9q-19 -19 -42.5 -46
t-45 -54t-33.5 -49h-56z" />
    <glyph glyph-name="uni01CE" unicode="&#x1ce;" horiz-adv-x="536" 
d="M276 541q90 0 134 -44t44 -139v-358h-43l-11 90h-2q-28 -45 -70 -72.5t-116 -27.5q-76 0 -120.5 38t-44.5 111q0 79 64.5 121t189.5 47l97 5v37q0 79 -31.5 111.5t-92.5 32.5q-41 0 -79 -10.5t-76 -30.5l-18 46q37 19 82 31t93 12zM398 268l-90 -4q-102 -4 -152 -34.5
t-50 -91.5q0 -49 31 -74.5t85 -25.5q83 0 128.5 47t47.5 132v51zM236 606q-12 22 -33 49t-44 54t-41 46v9h40q27 -22 55.5 -51t50.5 -57q24 28 52.5 57t55.5 51h41v-9q-19 -19 -42.5 -46t-45 -54t-33.5 -49h-56z" />
    <glyph glyph-name="uni01CF" unicode="&#x1cf;" horiz-adv-x="311" 
d="M260 0h-210v36l76 11v619l-76 12v36h210v-36l-76 -12v-619l76 -11v-36zM126 788q-12 22 -33 49t-44 54t-41 46v9h40q27 -22 55.5 -51t50.5 -57q24 28 52.5 57t55.5 51h41v-9q-19 -19 -42.5 -46t-45 -54t-33.5 -49h-56z" />
    <glyph glyph-name="uni01D0" unicode="&#x1d0;" horiz-adv-x="232" 
d="M144 0h-56v532h56v-532zM86 606q-12 22 -33 49t-44 54t-41 46v9h40q27 -22 55.5 -51t50.5 -57q24 28 52.5 57t55.5 51h41v-9q-19 -19 -42.5 -46t-45 -54t-33.5 -49h-56z" />
    <glyph glyph-name="uni01D1" unicode="&#x1d1;" horiz-adv-x="768" 
d="M705 358q0 -109 -36 -192t-107.5 -129.5t-177.5 -46.5q-108 0 -179.5 46.5t-107 130t-35.5 192.5t36.5 191t109 128.5t179.5 46.5q103 0 173.5 -44.5t107.5 -126.5t37 -196zM123 358q0 -95 28 -166.5t86 -111t147 -39.5q90 0 147.5 39.5t85 110.5t27.5 167
q0 148 -64.5 231.5t-192.5 83.5q-89 0 -148 -39.5t-87.5 -110.5t-28.5 -165zM354 788q-12 22 -33 49t-44 54t-41 46v9h40q27 -22 55.5 -51t50.5 -57q24 28 52.5 57t55.5 51h41v-9q-19 -19 -42.5 -46t-45 -54t-33.5 -49h-56z" />
    <glyph glyph-name="uni01D2" unicode="&#x1d2;" horiz-adv-x="590" 
d="M533 266q0 -83 -27.5 -145t-81 -96.5t-130.5 -34.5q-74 0 -127 34t-81.5 96t-28.5 146q0 130 64.5 203t176.5 73q76 0 128.5 -34.5t79.5 -96.5t27 -145zM116 266q0 -102 43 -164.5t135 -62.5q93 0 136.5 62.5t43.5 164.5q0 66 -18 117t-57 80t-102 29q-91 0 -136 -60
t-45 -166zM265 606q-12 22 -33 49t-44 54t-41 46v9h40q27 -22 55.5 -51t50.5 -57q24 28 52.5 57t55.5 51h41v-9q-19 -19 -42.5 -46t-45 -54t-33.5 -49h-56z" />
    <glyph glyph-name="uni01D3" unicode="&#x1d3;" horiz-adv-x="722" 
d="M629 714v-462q0 -122 -71 -192t-200 -70q-128 0 -197 70t-69 194v460h58v-460q0 -104 54 -158.5t158 -54.5q101 0 155.5 54.5t54.5 152.5v466h57zM331 788q-12 22 -33 49t-44 54t-41 46v9h40q27 -22 55.5 -51t50.5 -57q24 28 52.5 57t55.5 51h41v-9q-19 -19 -42.5 -46
t-45 -54t-33.5 -49h-56z" />
    <glyph glyph-name="uni01D4" unicode="&#x1d4;" horiz-adv-x="596" 
d="M507 532v-532h-47l-8 91h-3q-22 -43 -67.5 -72t-113.5 -29q-188 0 -188 194v348h58v-344q0 -76 34 -112.5t102 -36.5q176 0 176 203v290h57zM268 606q-12 22 -33 49t-44 54t-41 46v9h40q27 -22 55.5 -51t50.5 -57q24 28 52.5 57t55.5 51h41v-9q-19 -19 -42.5 -46t-45 -54
t-33.5 -49h-56z" />
    <glyph glyph-name="uni01D5" unicode="&#x1d5;" horiz-adv-x="722" 
d="M629 714v-462q0 -122 -71 -192t-200 -70q-128 0 -197 70t-69 194v460h58v-460q0 -104 54 -158.5t158 -54.5q101 0 155.5 54.5t54.5 152.5v466h57zM499 998v-48h-276v48h276zM267 886q36 0 36 -40t-36 -40q-34 0 -34 40t34 40zM453 886q36 0 36 -40t-36 -40q-34 0 -34 40
t34 40z" />
    <glyph glyph-name="uni01D6" unicode="&#x1d6;" horiz-adv-x="596" 
d="M507 532v-532h-47l-8 91h-3q-22 -43 -67.5 -72t-113.5 -29q-188 0 -188 194v348h58v-344q0 -76 34 -112.5t102 -36.5q176 0 176 203v290h57zM436 816v-48h-276v48h276zM204 704q36 0 36 -40t-36 -40q-34 0 -34 40t34 40zM390 704q36 0 36 -40t-36 -40q-34 0 -34 40t34 40
z" />
    <glyph glyph-name="uni01D7" unicode="&#x1d7;" horiz-adv-x="722" 
d="M629 714v-462q0 -122 -71 -192t-200 -70q-128 0 -197 70t-69 194v460h58v-460q0 -104 54 -158.5t158 -54.5q101 0 155.5 54.5t54.5 152.5v466h57zM325 922v8q26 28 56 65t49 70h67v-9q-14 -20 -36 -44t-47.5 -47.5t-48.5 -42.5h-40zM267 806q-34 0 -34 40t34 40
q36 0 36 -40t-36 -40zM453 806q-34 0 -34 40t34 40q36 0 36 -40t-36 -40z" />
    <glyph glyph-name="uni01D8" unicode="&#x1d8;" horiz-adv-x="596" 
d="M507 532v-532h-47l-8 91h-3q-22 -43 -67.5 -72t-113.5 -29q-188 0 -188 194v348h58v-344q0 -76 34 -112.5t102 -36.5q176 0 176 203v290h57zM262 740v8q26 28 56 65t49 70h67v-9q-14 -20 -36 -44t-47.5 -47.5t-48.5 -42.5h-40zM204 624q-34 0 -34 40t34 40q36 0 36 -40
t-36 -40zM390 624q-34 0 -34 40t34 40q36 0 36 -40t-36 -40z" />
    <glyph glyph-name="uni01D9" unicode="&#x1d9;" horiz-adv-x="722" 
d="M629 714v-462q0 -122 -71 -192t-200 -70q-128 0 -197 70t-69 194v460h58v-460q0 -104 54 -158.5t158 -54.5q101 0 155.5 54.5t54.5 152.5v466h57zM333 922q-12 20 -33 45t-44 48.5t-41 40.5v9h38q28 -21 56 -43.5t52 -49.5q25 27 52.5 50.5t54.5 42.5h39v-9
q-18 -17 -41 -40.5t-44 -48.5t-33 -45h-56zM267 806q-34 0 -34 40t34 40q36 0 36 -40t-36 -40zM453 806q-34 0 -34 40t34 40q36 0 36 -40t-36 -40z" />
    <glyph glyph-name="uni01DA" unicode="&#x1da;" horiz-adv-x="596" 
d="M507 532v-532h-47l-8 91h-3q-22 -43 -67.5 -72t-113.5 -29q-188 0 -188 194v348h58v-344q0 -76 34 -112.5t102 -36.5q176 0 176 203v290h57zM270 740q-12 20 -33 45t-44 48.5t-41 40.5v9h38q28 -21 56 -43.5t52 -49.5q25 27 52.5 50.5t54.5 42.5h39v-9q-18 -17 -41 -40.5
t-44 -48.5t-33 -45h-56zM204 624q-34 0 -34 40t34 40q36 0 36 -40t-36 -40zM390 624q-34 0 -34 40t34 40q36 0 36 -40t-36 -40z" />
    <glyph glyph-name="uni01DB" unicode="&#x1db;" horiz-adv-x="722" 
d="M629 714v-462q0 -122 -71 -192t-200 -70q-128 0 -197 70t-69 194v460h58v-460q0 -104 54 -158.5t158 -54.5q101 0 155.5 54.5t54.5 152.5v466h57zM295 1065q19 -33 49 -70t56 -65v-8h-40q-35 28 -73 66t-60 68v9h68zM267 886q36 0 36 -40t-36 -40q-34 0 -34 40t34 40z
M453 886q36 0 36 -40t-36 -40q-34 0 -34 40t34 40z" />
    <glyph glyph-name="uni01DC" unicode="&#x1dc;" horiz-adv-x="596" 
d="M507 532v-532h-47l-8 91h-3q-22 -43 -67.5 -72t-113.5 -29q-188 0 -188 194v348h58v-344q0 -76 34 -112.5t102 -36.5q176 0 176 203v290h57zM232 883q19 -33 49 -70t56 -65v-8h-40q-35 28 -73 66t-60 68v9h68zM204 704q36 0 36 -40t-36 -40q-34 0 -34 40t34 40zM390 704
q36 0 36 -40t-36 -40q-34 0 -34 40t34 40z" />
    <glyph glyph-name="uni01DD" unicode="&#x1dd;" horiz-adv-x="552" 
d="M248 542q119 0 183 -73t64 -199q0 -81 -27.5 -144.5t-79.5 -99.5t-126 -36q-68 0 -114 31.5t-69 86.5t-23 126v40h380q0 105 -49 161.5t-141 56.5q-50 0 -87 -8t-81 -28v52q40 18 79 26t91 8zM434 226h-319q0 -84 36 -136t112 -52q73 0 118 49t53 139z" />
    <glyph glyph-name="uni01DE" unicode="&#x1de;" horiz-adv-x="608" 
d="M547 0l-95 246h-296l-97 -246h-59l280 716h54l274 -716h-61zM434 298l-96 258q-4 14 -14 44t-18 53q-8 -26 -17 -52.5t-15 -45.5l-99 -257h259zM444 998v-48h-276v48h276zM212 886q36 0 36 -40t-36 -40q-34 0 -34 40t34 40zM398 886q36 0 36 -40t-36 -40q-34 0 -34 40
t34 40z" />
    <glyph glyph-name="uni01DF" unicode="&#x1df;" horiz-adv-x="536" 
d="M276 541q90 0 134 -44t44 -139v-358h-43l-11 90h-2q-28 -45 -70 -72.5t-116 -27.5q-76 0 -120.5 38t-44.5 111q0 79 64.5 121t189.5 47l97 5v37q0 79 -31.5 111.5t-92.5 32.5q-41 0 -79 -10.5t-76 -30.5l-18 46q37 19 82 31t93 12zM398 268l-90 -4q-102 -4 -152 -34.5
t-50 -91.5q0 -49 31 -74.5t85 -25.5q83 0 128.5 47t47.5 132v51zM404 816v-48h-276v48h276zM172 704q36 0 36 -40t-36 -40q-34 0 -34 40t34 40zM358 704q36 0 36 -40t-36 -40q-34 0 -34 40t34 40z" />
    <glyph glyph-name="uni01E0" unicode="&#x1e0;" horiz-adv-x="608" 
d="M547 0l-95 246h-296l-97 -246h-59l280 716h54l274 -716h-61zM434 298l-96 258q-4 14 -14 44t-18 53q-8 -26 -17 -52.5t-15 -45.5l-99 -257h259zM444 976v-47h-276v47h276zM306 868q40 0 40 -44q0 -43 -40 -43q-38 0 -38 43q0 44 38 44z" />
    <glyph glyph-name="uni01E1" unicode="&#x1e1;" horiz-adv-x="536" 
d="M276 541q90 0 134 -44t44 -139v-358h-43l-11 90h-2q-28 -45 -70 -72.5t-116 -27.5q-76 0 -120.5 38t-44.5 111q0 79 64.5 121t189.5 47l97 5v37q0 79 -31.5 111.5t-92.5 32.5q-41 0 -79 -10.5t-76 -30.5l-18 46q37 19 82 31t93 12zM398 268l-90 -4q-102 -4 -152 -34.5
t-50 -91.5q0 -49 31 -74.5t85 -25.5q83 0 128.5 47t47.5 132v51zM404 816v-47h-276v47h276zM266 708q38 0 38 -44q0 -43 -38 -43q-39 0 -39 43q0 44 39 44z" />
    <glyph glyph-name="uni01E2" unicode="&#x1e2;" horiz-adv-x="822" 
d="M786 0h-379v246h-235l-111 -246h-62l323 714h464v-52h-321v-262h301v-51h-301v-297h321v-52zM195 298h212v364h-50zM586 840v-48h-276v48h276z" />
    <glyph glyph-name="uni01E3" unicode="&#x1e3;" horiz-adv-x="857" 
d="M604 542q64 0 108.5 -31.5t67 -86.5t21.5 -126v-39h-357q0 -109 46 -164t129 -55q46 0 81.5 8t78.5 28v-52q-39 -18 -77 -26t-84 -8q-76 0 -128 36t-76 98q-27 -61 -74 -97.5t-127 -36.5q-77 0 -121.5 38t-44.5 111q0 79 63.5 121t182.5 47l93 5v38q0 78 -32 110.5
t-90 32.5q-38 0 -76 -10.5t-76 -30.5l-18 46q38 20 83 31.5t91 11.5q66 0 105 -28.5t53 -90.5q24 54 69 87t109 33zM603 494q-65 0 -107.5 -48t-49.5 -140h295q1 84 -33.5 136t-104.5 52zM385 268l-85 -4q-96 -4 -145 -34.5t-49 -91.5q0 -49 30 -74.5t84 -25.5q78 0 121 47
t44 132v51zM568 658v-48h-276v48h276z" />
    <glyph glyph-name="uni01E4" unicode="&#x1e4;" horiz-adv-x="724" 
d="M415 -10q-178 0 -265.5 97t-87.5 267q0 109 43.5 192.5t125.5 131t197 47.5q58 0 111 -11t99 -32l-24 -52q-91 43 -191 43q-95 0 -162 -39.5t-103 -110.5t-36 -167q0 -158 76.5 -236.5t223.5 -78.5q52 0 92.5 7t73.5 20v90h-180v48h180v110h-201v52h259v-162h64v-48h-64
v-125q-50 -20 -106 -31.5t-125 -11.5z" />
    <glyph glyph-name="uni01E5" unicode="&#x1e5;" horiz-adv-x="599" 
d="M282 542q63 0 104.5 -24t66.5 -67h3l9 81h46v-585h68v-47h-73q-11 -64 -66 -102t-158 -38q-60 0 -106 10t-84 26v55q38 -19 86.5 -30.5t105.5 -11.5q72 0 112 23t51 68h-176v47h183v83q0 38 3 78h-3q-22 -52 -68 -78t-110 -26q-104 0 -161.5 68.5t-57.5 196.5
q0 125 57.5 199t167.5 74zM288 492q-86 0 -129 -59t-43 -165q0 -105 42.5 -160.5t123.5 -55.5q66 0 103.5 26.5t53.5 72t16 103.5v32q0 98 -37.5 152t-129.5 54z" />
    <glyph glyph-name="uni01E6" unicode="&#x1e6;" horiz-adv-x="724" 
d="M387 364h259v-332q-52 -21 -110 -31.5t-126 -10.5q-170 0 -259 97t-89 269q0 108 43.5 191.5t125.5 130.5t197 47q58 0 111 -11t99 -32l-24 -52q-91 43 -190 43q-94 0 -161.5 -40t-104 -111.5t-36.5 -165.5q0 -154 76.5 -234.5t223.5 -80.5q52 0 92.5 7.5t73.5 18.5v244
h-201v53zM371 788q-12 22 -33 49t-44 54t-41 46v9h40q27 -22 55.5 -51t50.5 -57q24 28 52.5 57t55.5 51h41v-9q-19 -19 -42.5 -46t-45 -54t-33.5 -49h-56z" />
    <glyph glyph-name="uni01E7" unicode="&#x1e7;" horiz-adv-x="599" 
d="M282 542q63 0 104.5 -24t66.5 -67h3l9 81h46v-549q0 -105 -53.5 -164t-175.5 -59q-60 0 -106 10t-84 26v55q38 -19 86.5 -30.5t105.5 -11.5q87 0 128.5 46t41.5 125v31q0 21 1 42t2 41h-3q-22 -52 -68 -78t-110 -26q-104 0 -161.5 70t-57.5 202q0 129 57.5 204.5
t167.5 75.5zM288 492q-86 0 -129 -60.5t-43 -170.5q0 -109 42.5 -166t123.5 -57q66 0 103.5 27t53.5 74t16 107v34q0 102 -37.5 157t-129.5 55zM260 606q-12 22 -33 49t-44 54t-41 46v9h40q27 -22 55.5 -51t50.5 -57q24 28 52.5 57t55.5 51h41v-9q-19 -19 -42.5 -46t-45 -54
t-33.5 -49h-56z" />
    <glyph glyph-name="uni01E8" unicode="&#x1e8;" horiz-adv-x="588" 
d="M588 0h-70l-271 370l-89 -85v-285h-58v714h58v-371q20 23 42 46.5t44 47.5l264 277h72l-290 -304zM286 788q-12 22 -33 49t-44 54t-41 46v9h40q27 -22 55.5 -51t50.5 -57q24 28 52.5 57t55.5 51h41v-9q-19 -19 -42.5 -46t-45 -54t-33.5 -49h-56z" />
    <glyph glyph-name="uni01E9" unicode="&#x1e9;" horiz-adv-x="494" 
d="M144 760v-386q0 -32 -1 -66.5t-1 -68.5h1q13 16 29.5 36.5t31.5 36.5l202 220h68l-210 -228l228 -304h-68l-200 266l-80 -82v-184h-56v760h56zM86 834q-12 22 -33 49t-44 54t-41 46v9h40q27 -22 55.5 -51t50.5 -57q24 28 52.5 57t55.5 51h41v-9q-19 -19 -42.5 -46
t-45 -54t-33.5 -49h-56z" />
    <glyph glyph-name="uni01EA" unicode="&#x1ea;" horiz-adv-x="768" 
d="M705 358q0 -109 -36 -192t-107.5 -129.5t-177.5 -46.5q-108 0 -179.5 46.5t-107 130t-35.5 192.5t36.5 191t109 128.5t179.5 46.5q103 0 173.5 -44.5t107.5 -126.5t37 -196zM123 358q0 -95 28 -166.5t86 -111t147 -39.5q90 0 147.5 39.5t85 110.5t27.5 167
q0 148 -64.5 231.5t-192.5 83.5q-89 0 -148 -39.5t-87.5 -110.5t-28.5 -165zM359 -124q0 -52 51 -52q16 0 28 2t20 4v-40q-10 -3 -24 -5.5t-32 -2.5q-44 0 -68 22t-24 66q0 39 27.5 76t68.5 67l33 -13q-34 -30 -57 -60t-23 -64z" />
    <glyph glyph-name="uni01EB" unicode="&#x1eb;" horiz-adv-x="590" 
d="M533 266q0 -83 -27.5 -145t-81 -96.5t-130.5 -34.5q-74 0 -127 34t-81.5 96t-28.5 146q0 130 64.5 203t176.5 73q76 0 128.5 -34.5t79.5 -96.5t27 -145zM116 266q0 -102 43 -164.5t135 -62.5q93 0 136.5 62.5t43.5 164.5q0 66 -18 117t-57 80t-102 29q-91 0 -136 -60
t-45 -166zM281 -124q0 -52 51 -52q16 0 28 2t20 4v-40q-10 -3 -24 -5.5t-32 -2.5q-44 0 -68 22t-24 66q0 39 27.5 76t68.5 67l33 -13q-34 -30 -57 -60t-23 -64z" />
    <glyph glyph-name="uni01EC" unicode="&#x1ec;" horiz-adv-x="768" 
d="M705 358q0 -109 -36 -192t-107.5 -129.5t-177.5 -46.5q-108 0 -179.5 46.5t-107 130t-35.5 192.5t36.5 191t109 128.5t179.5 46.5q103 0 173.5 -44.5t107.5 -126.5t37 -196zM123 358q0 -95 28 -166.5t86 -111t147 -39.5q90 0 147.5 39.5t85 110.5t27.5 167
q0 148 -64.5 231.5t-192.5 83.5q-89 0 -148 -39.5t-87.5 -110.5t-28.5 -165zM521 840v-48h-276v48h276zM377 -124q0 -52 51 -52q16 0 28 2t20 4v-40q-10 -3 -24 -5.5t-32 -2.5q-44 0 -68 22t-24 66q0 39 27.5 76t68.5 67l33 -13q-34 -30 -57 -60t-23 -64z" />
    <glyph glyph-name="uni01ED" unicode="&#x1ed;" horiz-adv-x="590" 
d="M533 266q0 -83 -27.5 -145t-81 -96.5t-130.5 -34.5q-74 0 -127 34t-81.5 96t-28.5 146q0 130 64.5 203t176.5 73q76 0 128.5 -34.5t79.5 -96.5t27 -145zM116 266q0 -102 43 -164.5t135 -62.5q93 0 136.5 62.5t43.5 164.5q0 66 -18 117t-57 80t-102 29q-91 0 -136 -60
t-45 -166zM432 658v-48h-276v48h276zM281 -124q0 -52 51 -52q16 0 28 2t20 4v-40q-10 -3 -24 -5.5t-32 -2.5q-44 0 -68 22t-24 66q0 39 27.5 76t68.5 67l33 -13q-34 -30 -57 -60t-23 -64z" />
    <glyph glyph-name="uni01EE" unicode="&#x1ee;" horiz-adv-x="581" 
d="M486 714v-46l-252 -266q133 -2 203 -51t70 -149q0 -95 -67 -153.5t-198 -58.5q-122 0 -204 42v55q43 -23 97.5 -35.5t106.5 -12.5q100 0 152 43t52 120t-55.5 114t-164.5 37h-60v49l244 260h-356v52h432zM245 788q-12 22 -33 49t-44 54t-41 46v9h40q27 -22 55.5 -51
t50.5 -57q24 28 52.5 57t55.5 51h41v-9q-19 -19 -42.5 -46t-45 -54t-33.5 -49h-56z" />
    <glyph glyph-name="uni01EF" unicode="&#x1ef;" horiz-adv-x="468" 
d="M414 532v-42l-246 -278q129 -4 198 -59.5t69 -159.5q0 -69 -29.5 -121.5t-84.5 -82t-131 -29.5q-56 0 -98.5 9t-76.5 25v54q35 -16 80 -27.5t97 -11.5q86 0 136 49.5t50 133.5q0 89 -59 130.5t-171 41.5h-48v42l242 276h-312v50h384zM190 606q-12 22 -33 49t-44 54
t-41 46v9h40q27 -22 55.5 -51t50.5 -57q24 28 52.5 57t55.5 51h41v-9q-19 -19 -42.5 -46t-45 -54t-33.5 -49h-56z" />
    <glyph glyph-name="uni01F0" unicode="&#x1f0;" horiz-adv-x="232" 
d="M16 -240q-43 0 -68 11v49q28 -11 63 -11q36 0 56.5 22t20.5 69v632h56v-632q0 -68 -33.5 -104t-94.5 -36zM86 606q-12 22 -33 49t-44 54t-41 46v9h40q27 -22 55.5 -51t50.5 -57q24 28 52.5 57t55.5 51h41v-9q-19 -19 -42.5 -46t-45 -54t-33.5 -49h-56z" />
    <glyph glyph-name="uni01F1" unicode="&#x1f1;" horiz-adv-x="1276" 
d="M648 364q0 -180 -95 -272t-277 -92h-176v714h198q170 0 260 -89.5t90 -260.5zM588 362q0 301 -301 301h-129v-612h114q316 0 316 311zM1237 0h-499v43l415 619h-395v52h467v-43l-414 -619h426v-52z" />
    <glyph glyph-name="uni01F2" unicode="&#x1f2;" horiz-adv-x="1174" 
d="M648 364q0 -180 -95 -272t-277 -92h-176v714h198q170 0 260 -89.5t90 -260.5zM588 362q0 301 -301 301h-129v-612h114q316 0 316 311zM1133 0h-382v37l312 449h-290v46h358v-40l-312 -446h314v-46z" />
    <glyph glyph-name="uni01F3" unicode="&#x1f3;" horiz-adv-x="1062" 
d="M279 -10q-107 0 -164.5 68.5t-57.5 201.5q0 138 60.5 210t166.5 72q67 0 109 -29t62 -73h4q-1 24 -2.5 53t-1.5 51v216h57v-760h-46l-8 92h-3q-21 -42 -63 -72t-113 -30zM286 39q92 0 131 56t39 161v10q0 110 -39 168.5t-127 58.5q-86 0 -130 -60.5t-44 -172.5
q0 -109 42 -165t128 -56zM1021 0h-382v37l312 449h-290v46h358v-40l-312 -446h314v-46z" />
    <glyph glyph-name="uni01F4" unicode="&#x1f4;" horiz-adv-x="724" 
d="M387 364h259v-332q-52 -21 -110 -31.5t-126 -10.5q-170 0 -259 97t-89 269q0 108 43.5 191.5t125.5 130.5t197 47q58 0 111 -11t99 -32l-24 -52q-91 43 -190 43q-94 0 -161.5 -40t-104 -111.5t-36.5 -165.5q0 -154 76.5 -234.5t223.5 -80.5q52 0 92.5 7.5t73.5 18.5v244
h-201v53zM543 948v-8q-15 -21 -39.5 -49t-52.5 -55.5t-53 -47.5h-40v9q18 19 40.5 46t43 55t33.5 50h68z" />
    <glyph glyph-name="uni01F5" unicode="&#x1f5;" horiz-adv-x="599" 
d="M282 542q63 0 104.5 -24t66.5 -67h3l9 81h46v-549q0 -105 -53.5 -164t-175.5 -59q-60 0 -106 10t-84 26v55q38 -19 86.5 -30.5t105.5 -11.5q87 0 128.5 46t41.5 125v31q0 21 1 42t2 41h-3q-22 -52 -68 -78t-110 -26q-104 0 -161.5 70t-57.5 202q0 129 57.5 204.5
t167.5 75.5zM288 492q-86 0 -129 -60.5t-43 -170.5q0 -109 42.5 -166t123.5 -57q66 0 103.5 27t53.5 74t16 107v34q0 102 -37.5 157t-129.5 55zM432 766v-8q-15 -21 -39.5 -49t-52.5 -55.5t-53 -47.5h-40v9q18 19 40.5 46t43 55t33.5 50h68z" />
    <glyph glyph-name="uni01F6" unicode="&#x1f6;" horiz-adv-x="969" 
d="M100 0v714h58v-314h353v314h58v-536q0 -74 34.5 -105t92.5 -31q57 0 89.5 32.5t32.5 103.5v354h57v-356q0 -92 -48.5 -139t-132.5 -47q-86 0 -134.5 46.5t-48.5 140.5v171h-353v-348h-58z" />
    <glyph glyph-name="uni01F7" unicode="&#x1f7;" horiz-adv-x="629" 
d="M366 725q58 0 105 -25.5t75 -80.5t28 -143q0 -167 -109 -289.5t-309 -192.5v-234h-56v955h46l9 -119h3q15 33 41.5 62.5t67.5 48t99 18.5zM356 674q-100 0 -150 -64t-50 -179v-383q108 38 189 98t126 142t45 186q0 72 -21 116t-57.5 64t-81.5 20z" />
    <glyph glyph-name="uni01F8" unicode="&#x1f8;" horiz-adv-x="729" 
d="M628 0h-62l-413 624h-3q2 -39 3 -82.5t1 -91.5v-450h-54v714h62l412 -622h4q-2 31 -3 79.5t-1 89.5v453h54v-714zM305 948q13 -22 33.5 -50t43 -55t41.5 -46v-9h-40q-25 20 -53 47.5t-53 55.5t-39 49v8h67z" />
    <glyph glyph-name="uni01F9" unicode="&#x1f9;" horiz-adv-x="596" 
d="M326 542q91 0 139 -47t48 -147v-348h-57v344q0 76 -34.5 112t-101.5 36q-176 0 -176 -202v-290h-56v532h46l8 -92h4q21 44 66.5 73t113.5 29zM247 766q13 -22 33.5 -50t43 -55t41.5 -46v-9h-40q-25 20 -53 47.5t-53 55.5t-39 49v8h67z" />
    <glyph glyph-name="Aringacute" unicode="&#x1fa;" horiz-adv-x="608" 
d="M275 826v7q26 27 54.5 62t46.5 67h68v-8q-21 -28 -57.5 -64.5t-71.5 -63.5h-40zM-4 0l272 593q-32 9 -50.5 33.5t-18.5 64.5q0 47 30 75t77 28q46 0 76 -28t30 -75q0 -38 -18 -62.5t-50 -35.5l267 -593h-61l-96 212h-301l-96 -212h-61zM305 620q31 0 50 18.5t19 51.5
q0 32 -19 50.5t-50 18.5t-50 -18.5t-19 -50.5q0 -33 19 -51.5t50 -18.5zM174 265h260l-98 223q-6 16 -14 37t-16 43q-8 -22 -16 -43t-15 -37z" />
    <glyph glyph-name="aringacute" unicode="&#x1fb;" horiz-adv-x="536" 
d="M410 954v-6q-14 -18 -39 -38.5t-52.5 -41t-50.5 -37.5h-42v7q26 24 55 56.5t48 59.5h81zM276 796q44 0 74.5 -28.5t30.5 -73.5q0 -48 -30.5 -76t-74.5 -28q-45 0 -75.5 28t-30.5 76q0 46 30.5 74t75.5 28zM276 760q-28 0 -47.5 -19t-19.5 -47q0 -29 18 -47.5t49 -18.5
q28 0 47 18.5t19 47.5q0 28 -19.5 47t-46.5 19zM276 541q90 0 134 -44t44 -139v-358h-43l-11 90h-2q-28 -45 -70 -72.5t-116 -27.5q-76 0 -120.5 38t-44.5 111q0 79 64.5 121t189.5 47l97 5v37q0 79 -31.5 111.5t-92.5 32.5q-41 0 -79 -10.5t-76 -30.5l-18 46q37 19 82 31
t93 12zM398 268l-90 -4q-102 -4 -152 -34.5t-50 -91.5q0 -49 31 -74.5t85 -25.5q83 0 128.5 47t47.5 132v51z" />
    <glyph glyph-name="AEacute" unicode="&#x1fc;" horiz-adv-x="822" 
d="M786 0h-379v246h-235l-111 -246h-62l323 714h464v-52h-321v-262h301v-51h-301v-297h321v-52zM195 298h212v364h-50zM590 948v-8q-15 -21 -39.5 -49t-52.5 -55.5t-53 -47.5h-40v9q18 19 40.5 46t43 55t33.5 50h68z" />
    <glyph glyph-name="aeacute" unicode="&#x1fd;" horiz-adv-x="857" 
d="M604 542q64 0 108.5 -31.5t67 -86.5t21.5 -126v-39h-357q0 -109 46 -164t129 -55q46 0 81.5 8t78.5 28v-52q-39 -18 -77 -26t-84 -8q-76 0 -128 36t-76 98q-27 -61 -74 -97.5t-127 -36.5q-77 0 -121.5 38t-44.5 111q0 79 63.5 121t182.5 47l93 5v38q0 78 -32 110.5
t-90 32.5q-38 0 -76 -10.5t-76 -30.5l-18 46q38 20 83 31.5t91 11.5q66 0 105 -28.5t53 -90.5q24 54 69 87t109 33zM603 494q-65 0 -107.5 -48t-49.5 -140h295q1 84 -33.5 136t-104.5 52zM385 268l-85 -4q-96 -4 -145 -34.5t-49 -91.5q0 -49 30 -74.5t84 -25.5q78 0 121 47
t44 132v51zM573 766v-8q-15 -21 -39.5 -49t-52.5 -55.5t-53 -47.5h-40v9q18 19 40.5 46t43 55t33.5 50h68z" />
    <glyph glyph-name="Oslashacute" unicode="&#x1fe;" horiz-adv-x="768" 
d="M705 358q0 -109 -36 -192t-107.5 -129.5t-177.5 -46.5q-61 0 -109.5 15.5t-86.5 44.5l-56 -78l-41 27l60 83q-44 50 -66.5 120.5t-22.5 156.5q0 109 36.5 191t109 128.5t179.5 46.5q56 0 103 -14.5t84 -40.5l54 73l40 -28l-56 -77q45 -48 69 -119t24 -161zM123 358
q0 -70 15.5 -128t47.5 -99l357 493q-61 49 -156 49q-89 0 -148 -39.5t-87.5 -110.5t-28.5 -165zM644 358q0 151 -66 232l-358 -495q30 -25 71.5 -39.5t92.5 -14.5q90 0 147.5 39.5t85 110.5t27.5 167zM526 948v-8q-15 -21 -39.5 -49t-52.5 -55.5t-53 -47.5h-40v9
q18 19 40.5 46t43 55t33.5 50h68z" />
    <glyph glyph-name="oslashacute" unicode="&#x1ff;" horiz-adv-x="590" 
d="M533 266q0 -83 -27.5 -145t-81 -96.5t-130.5 -34.5q-45 0 -80.5 13t-63.5 36l-53 -69l-39 28l58 73q-28 37 -43.5 86t-15.5 109q0 130 64.5 203t176.5 73q85 0 140 -46l48 64l40 -26l-53 -69q60 -75 60 -199zM116 266q0 -44 8 -82t25 -66l258 337q-20 17 -47.5 27
t-62.5 10q-91 0 -136 -60t-45 -166zM474 266q0 45 -8.5 84t-26.5 68l-259 -338q21 -20 49.5 -30.5t64.5 -10.5q93 0 136.5 62.5t43.5 164.5zM437 766v-8q-15 -21 -39.5 -49t-52.5 -55.5t-53 -47.5h-40v9q18 19 40.5 46t43 55t33.5 50h68z" />
    <glyph glyph-name="uni0200" unicode="&#x200;" horiz-adv-x="608" 
d="M547 0l-95 246h-296l-97 -246h-59l280 716h54l274 -716h-61zM434 298l-96 258q-4 14 -14 44t-18 53q-8 -26 -17 -52.5t-15 -45.5l-99 -257h259zM329 948q11 -22 28 -50t35.5 -55t34.5 -46v-9h-36q-22 20 -46 47.5t-45.5 55.5t-34.5 49v8h64zM161 948q11 -22 28 -50
t35.5 -55t34.5 -46v-9h-36q-22 20 -46 47.5t-45.5 55.5t-34.5 49v8h64z" />
    <glyph glyph-name="uni0201" unicode="&#x201;" horiz-adv-x="536" 
d="M276 541q90 0 134 -44t44 -139v-358h-43l-11 90h-2q-28 -45 -70 -72.5t-116 -27.5q-76 0 -120.5 38t-44.5 111q0 79 64.5 121t189.5 47l97 5v37q0 79 -31.5 111.5t-92.5 32.5q-41 0 -79 -10.5t-76 -30.5l-18 46q37 19 82 31t93 12zM398 268l-90 -4q-102 -4 -152 -34.5
t-50 -91.5q0 -49 31 -74.5t85 -25.5q83 0 128.5 47t47.5 132v51zM289 766q11 -22 28 -50t35.5 -55t34.5 -46v-9h-36q-22 20 -46 47.5t-45.5 55.5t-34.5 49v8h64zM121 766q11 -22 28 -50t35.5 -55t34.5 -46v-9h-36q-22 20 -46 47.5t-45.5 55.5t-34.5 49v8h64z" />
    <glyph glyph-name="uni0202" unicode="&#x202;" horiz-adv-x="608" 
d="M547 0l-95 246h-296l-97 -246h-59l280 716h54l274 -716h-61zM434 298l-96 258q-4 14 -14 44t-18 53q-8 -26 -17 -52.5t-15 -45.5l-99 -257h259zM308 911q64 0 99 -32.5t39 -90.5h-40q-4 40 -28.5 58t-70.5 18q-90 0 -99 -76h-40q6 57 41.5 90t98.5 33z" />
    <glyph glyph-name="uni0203" unicode="&#x203;" horiz-adv-x="536" 
d="M276 541q90 0 134 -44t44 -139v-358h-43l-11 90h-2q-28 -45 -70 -72.5t-116 -27.5q-76 0 -120.5 38t-44.5 111q0 79 64.5 121t189.5 47l97 5v37q0 79 -31.5 111.5t-92.5 32.5q-41 0 -79 -10.5t-76 -30.5l-18 46q37 19 82 31t93 12zM398 268l-90 -4q-102 -4 -152 -34.5
t-50 -91.5q0 -49 31 -74.5t85 -25.5q83 0 128.5 47t47.5 132v51zM268 729q64 0 99 -32.5t39 -90.5h-40q-4 40 -28.5 58t-70.5 18q-90 0 -99 -76h-40q6 57 41.5 90t98.5 33z" />
    <glyph glyph-name="uni0204" unicode="&#x204;" horiz-adv-x="553" 
d="M492 0h-392v714h392v-52h-334v-262h315v-51h-315v-297h334v-52zM330 948q11 -22 28 -50t35.5 -55t34.5 -46v-9h-36q-22 20 -46 47.5t-45.5 55.5t-34.5 49v8h64zM162 948q11 -22 28 -50t35.5 -55t34.5 -46v-9h-36q-22 20 -46 47.5t-45.5 55.5t-34.5 49v8h64z" />
    <glyph glyph-name="uni0205" unicode="&#x205;" horiz-adv-x="552" 
d="M290 542q68 0 114 -31.5t69 -86.5t23 -126v-40h-380q0 -105 49 -161.5t141 -56.5q50 0 87 8t81 28v-52q-40 -18 -79 -26t-91 -8q-119 0 -183 73t-64 199q0 81 27.5 144.5t79.5 99.5t126 36zM289 494q-73 0 -118.5 -49t-53.5 -139h319q0 84 -35.5 136t-111.5 52zM306 766
q11 -22 28 -50t35.5 -55t34.5 -46v-9h-36q-22 20 -46 47.5t-45.5 55.5t-34.5 49v8h64zM138 766q11 -22 28 -50t35.5 -55t34.5 -46v-9h-36q-22 20 -46 47.5t-45.5 55.5t-34.5 49v8h64z" />
    <glyph glyph-name="uni0206" unicode="&#x206;" horiz-adv-x="553" 
d="M492 0h-392v714h392v-52h-334v-262h315v-51h-315v-297h334v-52zM310 911q64 0 99 -32.5t39 -90.5h-40q-4 40 -28.5 58t-70.5 18q-90 0 -99 -76h-40q6 57 41.5 90t98.5 33z" />
    <glyph glyph-name="uni0207" unicode="&#x207;" horiz-adv-x="552" 
d="M290 542q68 0 114 -31.5t69 -86.5t23 -126v-40h-380q0 -105 49 -161.5t141 -56.5q50 0 87 8t81 28v-52q-40 -18 -79 -26t-91 -8q-119 0 -183 73t-64 199q0 81 27.5 144.5t79.5 99.5t126 36zM289 494q-73 0 -118.5 -49t-53.5 -139h319q0 84 -35.5 136t-111.5 52zM284 729
q64 0 99 -32.5t39 -90.5h-40q-4 40 -28.5 58t-70.5 18q-90 0 -99 -76h-40q6 57 41.5 90t98.5 33z" />
    <glyph glyph-name="uni0208" unicode="&#x208;" horiz-adv-x="311" 
d="M260 0h-210v36l76 11v619l-76 12v36h210v-36l-76 -12v-619l76 -11v-36zM178 948q11 -22 28 -50t35.5 -55t34.5 -46v-9h-36q-22 20 -46 47.5t-45.5 55.5t-34.5 49v8h64zM10 948q11 -22 28 -50t35.5 -55t34.5 -46v-9h-36q-22 20 -46 47.5t-45.5 55.5t-34.5 49v8h64z" />
    <glyph glyph-name="uni0209" unicode="&#x209;" horiz-adv-x="232" 
d="M144 0h-56v532h56v-532zM139 766q11 -22 28 -50t35.5 -55t34.5 -46v-9h-36q-22 20 -46 47.5t-45.5 55.5t-34.5 49v8h64zM-29 766q11 -22 28 -50t35.5 -55t34.5 -46v-9h-36q-22 20 -46 47.5t-45.5 55.5t-34.5 49v8h64z" />
    <glyph glyph-name="uni020A" unicode="&#x20a;" horiz-adv-x="311" 
d="M260 0h-210v36l76 11v619l-76 12v36h210v-36l-76 -12v-619l76 -11v-36zM158 911q64 0 99 -32.5t39 -90.5h-40q-4 40 -28.5 58t-70.5 18q-90 0 -99 -76h-40q6 57 41.5 90t98.5 33z" />
    <glyph glyph-name="uni020B" unicode="&#x20b;" horiz-adv-x="232" 
d="M144 0h-56v532h56v-532zM118 729q64 0 99 -32.5t39 -90.5h-40q-4 40 -28.5 58t-70.5 18q-90 0 -99 -76h-40q6 57 41.5 90t98.5 33z" />
    <glyph glyph-name="uni020C" unicode="&#x20c;" horiz-adv-x="768" 
d="M705 358q0 -109 -36 -192t-107.5 -129.5t-177.5 -46.5q-108 0 -179.5 46.5t-107 130t-35.5 192.5t36.5 191t109 128.5t179.5 46.5q103 0 173.5 -44.5t107.5 -126.5t37 -196zM123 358q0 -95 28 -166.5t86 -111t147 -39.5q90 0 147.5 39.5t85 110.5t27.5 167
q0 148 -64.5 231.5t-192.5 83.5q-89 0 -148 -39.5t-87.5 -110.5t-28.5 -165zM407 948q11 -22 28 -50t35.5 -55t34.5 -46v-9h-36q-22 20 -46 47.5t-45.5 55.5t-34.5 49v8h64zM239 948q11 -22 28 -50t35.5 -55t34.5 -46v-9h-36q-22 20 -46 47.5t-45.5 55.5t-34.5 49v8h64z" />
    <glyph glyph-name="uni020D" unicode="&#x20d;" horiz-adv-x="590" 
d="M533 266q0 -83 -27.5 -145t-81 -96.5t-130.5 -34.5q-74 0 -127 34t-81.5 96t-28.5 146q0 130 64.5 203t176.5 73q76 0 128.5 -34.5t79.5 -96.5t27 -145zM116 266q0 -102 43 -164.5t135 -62.5q93 0 136.5 62.5t43.5 164.5q0 66 -18 117t-57 80t-102 29q-91 0 -136 -60
t-45 -166zM318 766q11 -22 28 -50t35.5 -55t34.5 -46v-9h-36q-22 20 -46 47.5t-45.5 55.5t-34.5 49v8h64zM150 766q11 -22 28 -50t35.5 -55t34.5 -46v-9h-36q-22 20 -46 47.5t-45.5 55.5t-34.5 49v8h64z" />
    <glyph glyph-name="uni020E" unicode="&#x20e;" horiz-adv-x="768" 
d="M705 358q0 -109 -36 -192t-107.5 -129.5t-177.5 -46.5q-108 0 -179.5 46.5t-107 130t-35.5 192.5t36.5 191t109 128.5t179.5 46.5q103 0 173.5 -44.5t107.5 -126.5t37 -196zM123 358q0 -95 28 -166.5t86 -111t147 -39.5q90 0 147.5 39.5t85 110.5t27.5 167
q0 148 -64.5 231.5t-192.5 83.5q-89 0 -148 -39.5t-87.5 -110.5t-28.5 -165zM386 911q64 0 99 -32.5t39 -90.5h-40q-4 40 -28.5 58t-70.5 18q-90 0 -99 -76h-40q6 57 41.5 90t98.5 33z" />
    <glyph glyph-name="uni020F" unicode="&#x20f;" horiz-adv-x="590" 
d="M533 266q0 -83 -27.5 -145t-81 -96.5t-130.5 -34.5q-74 0 -127 34t-81.5 96t-28.5 146q0 130 64.5 203t176.5 73q76 0 128.5 -34.5t79.5 -96.5t27 -145zM116 266q0 -102 43 -164.5t135 -62.5q93 0 136.5 62.5t43.5 164.5q0 66 -18 117t-57 80t-102 29q-91 0 -136 -60
t-45 -166zM297 729q64 0 99 -32.5t39 -90.5h-40q-4 40 -28.5 58t-70.5 18q-90 0 -99 -76h-40q6 57 41.5 90t98.5 33z" />
    <glyph glyph-name="uni0210" unicode="&#x210;" horiz-adv-x="600" 
d="M278 714q128 0 192.5 -45t64.5 -151q0 -82 -43.5 -128t-108.5 -66l196 -324h-69l-182 308h-170v-308h-58v714h178zM273 662h-115v-304h135q87 0 134.5 41t47.5 117q0 82 -49.5 114t-152.5 32zM332 948q11 -22 28 -50t35.5 -55t34.5 -46v-9h-36q-22 20 -46 47.5
t-45.5 55.5t-34.5 49v8h64zM164 948q11 -22 28 -50t35.5 -55t34.5 -46v-9h-36q-22 20 -46 47.5t-45.5 55.5t-34.5 49v8h64z" />
    <glyph glyph-name="uni0211" unicode="&#x211;" horiz-adv-x="394" 
d="M306 541q42 0 72 -9l-8 -52q-16 4 -32 6t-34 2q-74 0 -116.5 -53.5t-42.5 -142.5v-292h-57v532h48l6 -100h3q20 45 60.5 77t100.5 32zM251 766q11 -22 28 -50t35.5 -55t34.5 -46v-9h-36q-22 20 -46 47.5t-45.5 55.5t-34.5 49v8h64zM83 766q11 -22 28 -50t35.5 -55
t34.5 -46v-9h-36q-22 20 -46 47.5t-45.5 55.5t-34.5 49v8h64z" />
    <glyph glyph-name="uni0212" unicode="&#x212;" horiz-adv-x="600" 
d="M278 714q128 0 192.5 -45t64.5 -151q0 -82 -43.5 -128t-108.5 -66l196 -324h-69l-182 308h-170v-308h-58v714h178zM273 662h-115v-304h135q87 0 134.5 41t47.5 117q0 82 -49.5 114t-152.5 32zM312 911q64 0 99 -32.5t39 -90.5h-40q-4 40 -28.5 58t-70.5 18q-90 0 -99 -76
h-40q6 57 41.5 90t98.5 33z" />
    <glyph glyph-name="uni0213" unicode="&#x213;" horiz-adv-x="394" 
d="M306 541q42 0 72 -9l-8 -52q-16 4 -32 6t-34 2q-74 0 -116.5 -53.5t-42.5 -142.5v-292h-57v532h48l6 -100h3q20 45 60.5 77t100.5 32zM230 729q64 0 99 -32.5t39 -90.5h-40q-4 40 -28.5 58t-70.5 18q-90 0 -99 -76h-40q6 57 41.5 90t98.5 33z" />
    <glyph glyph-name="uni0214" unicode="&#x214;" horiz-adv-x="722" 
d="M629 714v-462q0 -122 -71 -192t-200 -70q-128 0 -197 70t-69 194v460h58v-460q0 -104 54 -158.5t158 -54.5q101 0 155.5 54.5t54.5 152.5v466h57zM384 948q11 -22 28 -50t35.5 -55t34.5 -46v-9h-36q-22 20 -46 47.5t-45.5 55.5t-34.5 49v8h64zM216 948q11 -22 28 -50
t35.5 -55t34.5 -46v-9h-36q-22 20 -46 47.5t-45.5 55.5t-34.5 49v8h64z" />
    <glyph glyph-name="uni0215" unicode="&#x215;" horiz-adv-x="596" 
d="M507 532v-532h-47l-8 91h-3q-22 -43 -67.5 -72t-113.5 -29q-188 0 -188 194v348h58v-344q0 -76 34 -112.5t102 -36.5q176 0 176 203v290h57zM320 766q11 -22 28 -50t35.5 -55t34.5 -46v-9h-36q-22 20 -46 47.5t-45.5 55.5t-34.5 49v8h64zM152 766q11 -22 28 -50t35.5 -55
t34.5 -46v-9h-36q-22 20 -46 47.5t-45.5 55.5t-34.5 49v8h64z" />
    <glyph glyph-name="uni0216" unicode="&#x216;" horiz-adv-x="722" 
d="M629 714v-462q0 -122 -71 -192t-200 -70q-128 0 -197 70t-69 194v460h58v-460q0 -104 54 -158.5t158 -54.5q101 0 155.5 54.5t54.5 152.5v466h57zM363 911q64 0 99 -32.5t39 -90.5h-40q-4 40 -28.5 58t-70.5 18q-90 0 -99 -76h-40q6 57 41.5 90t98.5 33z" />
    <glyph glyph-name="uni0217" unicode="&#x217;" horiz-adv-x="596" 
d="M507 532v-532h-47l-8 91h-3q-22 -43 -67.5 -72t-113.5 -29q-188 0 -188 194v348h58v-344q0 -76 34 -112.5t102 -36.5q176 0 176 203v290h57zM300 729q64 0 99 -32.5t39 -90.5h-40q-4 40 -28.5 58t-70.5 18q-90 0 -99 -76h-40q6 57 41.5 90t98.5 33z" />
    <glyph glyph-name="uni0218" unicode="&#x218;" horiz-adv-x="546" 
d="M496 186q0 -64 -32 -107.5t-88 -66t-128 -22.5q-64 0 -112 9t-82 23v57q38 -15 88.5 -26.5t109.5 -11.5q82 0 133.5 35.5t51.5 105.5q0 42 -19.5 69.5t-60 48t-103.5 41.5q-60 21 -103 45.5t-66 62t-23 94.5q0 59 29.5 99t81 61t117.5 21q52 0 99 -10t89 -28l-20 -50
q-84 36 -170 36q-74 0 -120.5 -32.5t-46.5 -95.5q0 -46 20 -73.5t58 -46.5t93 -38q63 -22 108.5 -46.5t70.5 -60.5t25 -93zM306 -61v-7q-8 -33 -27 -76t-43 -77h-32v9q8 16 17 43.5t16.5 57t10.5 50.5h58z" />
    <glyph glyph-name="uni0219" unicode="&#x219;" horiz-adv-x="468" 
d="M422 141q0 -73 -53.5 -112t-152.5 -39q-56 0 -98.5 10t-71.5 24v55q35 -18 80 -29.5t92 -11.5q78 0 113 26.5t35 72.5q0 44 -36.5 67.5t-109.5 48.5q-49 17 -86.5 34t-58.5 44.5t-21 74.5q0 64 52 100t139 36q48 0 89.5 -9.5t75.5 -23.5l-20 -47q-31 14 -70 23t-78 9
q-63 0 -98 -22t-35 -64q0 -32 17 -50.5t49 -32t78 -29.5q47 -16 85.5 -34t61 -46t22.5 -75zM278 -61v-7q-8 -33 -27 -76t-43 -77h-32v9q8 16 17 43.5t16.5 57t10.5 50.5h58z" />
    <glyph glyph-name="uni021A" unicode="&#x21a;" horiz-adv-x="530" 
d="M294 0h-58v662h-230v52h518v-52h-230v-662zM309 -61v-7q-8 -33 -27 -76t-43 -77h-32v9q8 16 17 43.5t16.5 57t10.5 50.5h58z" />
    <glyph glyph-name="uni021B" unicode="&#x21b;" horiz-adv-x="340" 
d="M238 38q22 0 42.5 3.5t34.5 8.5v-46q-16 -6 -37.5 -10t-47.5 -4q-66 0 -102 37.5t-36 120.5v338h-79v32l79 18l20 123h36v-127h164v-46h-164v-336q0 -112 90 -112zM244 -61v-7q-8 -33 -27 -76t-43 -77h-32v9q8 16 17 43.5t16.5 57t10.5 50.5h58z" />
    <glyph glyph-name="uni021C" unicode="&#x21c;" horiz-adv-x="558" 
d="M40 -180v56q150 38 238 81t126 94t38 116q0 67 -33 108t-95 69q-34 -12 -72 -23t-78 -21l-12 48q91 23 152.5 46.5t93 57.5t31.5 90q0 47 -21.5 76t-57.5 42.5t-77 13.5q-60 0 -107.5 -17.5t-91.5 -47.5l-30 41q53 38 108.5 56t121.5 18q56 0 105 -18t79.5 -58t30.5 -104
t-33.5 -106t-89.5 -70q57 -26 97 -72.5t40 -127.5q0 -88 -48 -151t-150 -110t-265 -87z" />
    <glyph glyph-name="uni021D" unicode="&#x21d;" horiz-adv-x="480" 
d="M30 -240v52q108 24 184 55.5t116.5 77t40.5 110.5q0 56 -27.5 91t-77.5 58q-27 -12 -59.5 -21.5t-67.5 -18.5l-11 44q83 22 133 45t72.5 53.5t22.5 73.5q0 60 -39.5 87t-94.5 27q-44 0 -83 -10.5t-73 -28.5l-20 43q82 44 176 44q54 0 97.5 -17.5t69 -53t25.5 -91.5
q0 -52 -26.5 -89t-73.5 -63q46 -21 81 -61.5t35 -111.5q0 -85 -50 -141t-140 -92t-210 -62z" />
    <glyph glyph-name="uni021E" unicode="&#x21e;" horiz-adv-x="724" 
d="M623 0h-58v348h-407v-348h-58v714h58v-314h407v314h58v-714zM336 788q-12 22 -33 49t-44 54t-41 46v9h40q27 -22 55.5 -51t50.5 -57q24 28 52.5 57t55.5 51h41v-9q-19 -19 -42.5 -46t-45 -54t-33.5 -49h-56z" />
    <glyph glyph-name="uni021F" unicode="&#x21f;" horiz-adv-x="596" 
d="M144 760v-244q0 -40 -3 -76h4q20 44 66 73t114 29q91 0 139.5 -47t48.5 -147v-348h-57v344q0 76 -34.5 112t-101.5 36q-176 0 -176 -202v-290h-56v760h56zM86 834q-12 22 -33 49t-44 54t-41 46v9h40q27 -22 55.5 -51t50.5 -57q24 28 52.5 57t55.5 51h41v-9
q-19 -19 -42.5 -46t-45 -54t-33.5 -49h-56z" />
    <glyph glyph-name="uni0220" unicode="&#x220;" horiz-adv-x="697" 
d="M372 724q112 0 172 -60t60 -192v-712h-58v709q0 107 -43.5 155.5t-135.5 48.5q-109 0 -159 -59t-50 -168v-446h-58v714h46l8 -108h4q25 50 79.5 84t134.5 34z" />
    <glyph glyph-name="uni0221" unicode="&#x221;" horiz-adv-x="854" 
d="M542 -101l-52 3q2 31 7 64t13 60q-31 23 -40 76h-3q-23 -50 -65.5 -81t-121.5 -31q-107 0 -165 68.5t-58 201.5q0 138 60.5 210t166.5 72q67 0 109 -29t62 -73h4q-1 24 -2.5 53t-1.5 51v216h57v-581q0 -31 4.5 -56t13.5 -41q26 57 71 98.5t117 41.5q57 0 90.5 -27
t33.5 -74q0 -52 -41 -86.5t-135 -34.5q-36 0 -65.5 2t-43.5 5q-5 -22 -9 -52t-6 -56zM286 39q92 0 131 55.5t39 161.5v10q0 110 -39 168.5t-127 58.5q-86 0 -130 -60.5t-44 -172.5q0 -109 42 -165t128 -56zM668 47q68 0 93.5 19.5t25.5 51.5q0 26 -19 41t-57 15
q-39 0 -66 -16.5t-45 -44t-29 -59.5q16 -3 41.5 -5t55.5 -2z" />
    <glyph glyph-name="uni0222" unicode="&#x222;" horiz-adv-x="654" 
d="M327 -11q-81 0 -142 28t-95 81t-34 128q0 62 21.5 104.5t58 68t79.5 35.5q-61 16 -92.5 62t-31.5 132v96h58v-95q0 -89 39.5 -130t136.5 -41t139 41t42 133v92h58v-95q0 -88 -33 -132.5t-92 -63.5q43 -9 80 -34.5t58.5 -68t20.5 -105.5q0 -115 -72 -175.5t-199 -60.5z
M328 40q104 0 157 48.5t53 136.5q0 90 -51 136.5t-163 46.5q-104 0 -155.5 -47t-51.5 -135t53.5 -137t157.5 -49z" />
    <glyph glyph-name="uni0223" unicode="&#x223;" horiz-adv-x="596" 
d="M298 -11q-70 0 -124 28.5t-84 83t-30 132.5q0 65 19 108.5t51 69.5t70 37q-52 13 -80.5 53.5t-28.5 131.5v114h57v-111q0 -92 35 -127.5t113 -35.5q53 0 87 14.5t50.5 51t16.5 101.5v107h56v-113q0 -90 -29.5 -131.5t-79.5 -55.5q39 -11 71 -36.5t51 -69.5t18 -109
q-1 -118 -65 -180.5t-174 -62.5zM300 38q86 0 132 50.5t46 143.5q0 94 -44 143t-138 49q-87 0 -132 -49.5t-45 -141.5t47 -143.5t134 -51.5z" />
    <glyph glyph-name="uni0224" unicode="&#x224;" horiz-adv-x="575" 
d="M536 0h-499v43l415 619h-395v52h467v-43l-414 -619h426v-52zM441 -184q-15 0 -28.5 3.5t-21.5 7.5v49q8 -3 20 -6t26 -3q46 0 46 57v76h-18v52h70v-126q0 -53 -23 -81.5t-71 -28.5z" />
    <glyph glyph-name="uni0225" unicode="&#x225;" horiz-adv-x="463" 
d="M420 532v-40l-312 -446h319v-120q0 -53 -23.5 -81.5t-70.5 -28.5q-16 0 -29.5 3.5t-21.5 7.5v49q8 -3 20 -6t26 -3q46 0 46 57v76h-334v37l312 449h-290v46h358z" />
    <glyph glyph-name="uni0226" unicode="&#x226;" horiz-adv-x="608" 
d="M547 0l-95 246h-296l-97 -246h-59l280 716h54l274 -716h-61zM434 298l-96 258q-4 14 -14 44t-18 53q-8 -26 -17 -52.5t-15 -45.5l-99 -257h259zM302 911q39 0 39 -43q0 -44 -39 -44q-38 0 -38 44q0 43 38 43z" />
    <glyph glyph-name="uni0227" unicode="&#x227;" horiz-adv-x="536" 
d="M276 541q90 0 134 -44t44 -139v-358h-43l-11 90h-2q-28 -45 -70 -72.5t-116 -27.5q-76 0 -120.5 38t-44.5 111q0 79 64.5 121t189.5 47l97 5v37q0 79 -31.5 111.5t-92.5 32.5q-41 0 -79 -10.5t-76 -30.5l-18 46q37 19 82 31t93 12zM398 268l-90 -4q-102 -4 -152 -34.5
t-50 -91.5q0 -49 31 -74.5t85 -25.5q83 0 128.5 47t47.5 132v51zM262 729q39 0 39 -43q0 -44 -39 -44q-38 0 -38 44q0 43 38 43z" />
    <glyph glyph-name="uni0228" unicode="&#x228;" horiz-adv-x="553" 
d="M492 0h-392v714h392v-52h-334v-262h315v-51h-315v-297h334v-52zM384 -142q0 -46 -34.5 -72t-95.5 -26q-34 0 -54 6v39q10 -3 24 -4t31 -1q37 0 59 14t22 42q0 29 -25.5 42.5t-71.5 15.5l43 86h42l-30 -59q40 -5 65 -25t25 -58z" />
    <glyph glyph-name="uni0229" unicode="&#x229;" horiz-adv-x="552" 
d="M290 542q68 0 114 -31.5t69 -86.5t23 -126v-40h-380q0 -105 49 -161.5t141 -56.5q50 0 87 8t81 28v-52q-40 -18 -79 -26t-91 -8q-119 0 -183 73t-64 199q0 81 27.5 144.5t79.5 99.5t126 36zM289 494q-73 0 -118.5 -49t-53.5 -139h319q0 84 -35.5 136t-111.5 52zM383 -142
q0 -46 -34.5 -72t-95.5 -26q-34 0 -54 6v39q10 -3 24 -4t31 -1q37 0 59 14t22 42q0 29 -25.5 42.5t-71.5 15.5l43 86h42l-30 -59q40 -5 65 -25t25 -58z" />
    <glyph glyph-name="uni022A" unicode="&#x22a;" horiz-adv-x="768" 
d="M705 358q0 -109 -36 -192t-107.5 -129.5t-177.5 -46.5q-108 0 -179.5 46.5t-107 130t-35.5 192.5t36.5 191t109 128.5t179.5 46.5q103 0 173.5 -44.5t107.5 -126.5t37 -196zM123 358q0 -95 28 -166.5t86 -111t147 -39.5q90 0 147.5 39.5t85 110.5t27.5 167
q0 148 -64.5 231.5t-192.5 83.5q-89 0 -148 -39.5t-87.5 -110.5t-28.5 -165zM522 998v-48h-276v48h276zM290 886q36 0 36 -40t-36 -40q-34 0 -34 40t34 40zM476 886q36 0 36 -40t-36 -40q-34 0 -34 40t34 40z" />
    <glyph glyph-name="uni022B" unicode="&#x22b;" horiz-adv-x="590" 
d="M533 266q0 -83 -27.5 -145t-81 -96.5t-130.5 -34.5q-74 0 -127 34t-81.5 96t-28.5 146q0 130 64.5 203t176.5 73q76 0 128.5 -34.5t79.5 -96.5t27 -145zM116 266q0 -102 43 -164.5t135 -62.5q93 0 136.5 62.5t43.5 164.5q0 66 -18 117t-57 80t-102 29q-91 0 -136 -60
t-45 -166zM433 816v-48h-276v48h276zM201 704q36 0 36 -40t-36 -40q-34 0 -34 40t34 40zM387 704q36 0 36 -40t-36 -40q-34 0 -34 40t34 40z" />
    <glyph glyph-name="uni022C" unicode="&#x22c;" horiz-adv-x="768" 
d="M705 358q0 -109 -36 -192t-107.5 -129.5t-177.5 -46.5q-108 0 -179.5 46.5t-107 130t-35.5 192.5t36.5 191t109 128.5t179.5 46.5q103 0 173.5 -44.5t107.5 -126.5t37 -196zM123 358q0 -95 28 -166.5t86 -111t147 -39.5q90 0 147.5 39.5t85 110.5t27.5 167
q0 148 -64.5 231.5t-192.5 83.5q-89 0 -148 -39.5t-87.5 -110.5t-28.5 -165zM246 950v48h276v-48h-276zM219 786q5 51 29 78.5t64 27.5q23 0 42 -9.5t35.5 -21.5t33 -21.5t33.5 -9.5q22 0 36 14t20 48h38q-4 -50 -29 -78t-65 -28q-22 0 -41 9t-35.5 21.5t-33 21.5t-35.5 9
q-21 0 -35 -14t-19 -47h-38z" />
    <glyph glyph-name="uni022D" unicode="&#x22d;" horiz-adv-x="590" 
d="M533 266q0 -83 -27.5 -145t-81 -96.5t-130.5 -34.5q-74 0 -127 34t-81.5 96t-28.5 146q0 130 64.5 203t176.5 73q76 0 128.5 -34.5t79.5 -96.5t27 -145zM116 266q0 -102 43 -164.5t135 -62.5q93 0 136.5 62.5t43.5 164.5q0 66 -18 117t-57 80t-102 29q-91 0 -136 -60
t-45 -166zM157 768v48h276v-48h-276zM130 604q5 51 29 78.5t64 27.5q23 0 42 -9.5t35.5 -21.5t33 -21.5t33.5 -9.5q22 0 36 14t20 48h38q-4 -50 -29 -78t-65 -28q-22 0 -41 9t-35.5 21.5t-33 21.5t-35.5 9q-21 0 -35 -14t-19 -47h-38z" />
    <glyph glyph-name="uni022E" unicode="&#x22e;" horiz-adv-x="768" 
d="M705 358q0 -109 -36 -192t-107.5 -129.5t-177.5 -46.5q-108 0 -179.5 46.5t-107 130t-35.5 192.5t36.5 191t109 128.5t179.5 46.5q103 0 173.5 -44.5t107.5 -126.5t37 -196zM123 358q0 -95 28 -166.5t86 -111t147 -39.5q90 0 147.5 39.5t85 110.5t27.5 167
q0 148 -64.5 231.5t-192.5 83.5q-89 0 -148 -39.5t-87.5 -110.5t-28.5 -165zM380 911q39 0 39 -43q0 -44 -39 -44q-38 0 -38 44q0 43 38 43z" />
    <glyph glyph-name="uni022F" unicode="&#x22f;" horiz-adv-x="590" 
d="M533 266q0 -83 -27.5 -145t-81 -96.5t-130.5 -34.5q-74 0 -127 34t-81.5 96t-28.5 146q0 130 64.5 203t176.5 73q76 0 128.5 -34.5t79.5 -96.5t27 -145zM116 266q0 -102 43 -164.5t135 -62.5q93 0 136.5 62.5t43.5 164.5q0 66 -18 117t-57 80t-102 29q-91 0 -136 -60
t-45 -166zM292 729q39 0 39 -43q0 -44 -39 -44q-38 0 -38 44q0 43 38 43z" />
    <glyph glyph-name="uni0230" unicode="&#x230;" horiz-adv-x="768" 
d="M705 358q0 -109 -36 -192t-107.5 -129.5t-177.5 -46.5q-108 0 -179.5 46.5t-107 130t-35.5 192.5t36.5 191t109 128.5t179.5 46.5q103 0 173.5 -44.5t107.5 -126.5t37 -196zM123 358q0 -95 28 -166.5t86 -111t147 -39.5q90 0 147.5 39.5t85 110.5t27.5 167
q0 148 -64.5 231.5t-192.5 83.5q-89 0 -148 -39.5t-87.5 -110.5t-28.5 -165zM522 976v-47h-276v47h276zM384 868q40 0 40 -44q0 -43 -40 -43q-38 0 -38 43q0 44 38 44z" />
    <glyph glyph-name="uni0231" unicode="&#x231;" horiz-adv-x="590" 
d="M533 266q0 -83 -27.5 -145t-81 -96.5t-130.5 -34.5q-74 0 -127 34t-81.5 96t-28.5 146q0 130 64.5 203t176.5 73q76 0 128.5 -34.5t79.5 -96.5t27 -145zM116 266q0 -102 43 -164.5t135 -62.5q93 0 136.5 62.5t43.5 164.5q0 66 -18 117t-57 80t-102 29q-91 0 -136 -60
t-45 -166zM433 816v-47h-276v47h276zM295 708q38 0 38 -44q0 -43 -38 -43q-39 0 -39 43q0 44 39 44z" />
    <glyph glyph-name="uni0232" unicode="&#x232;" horiz-adv-x="536" 
d="M268 332l204 382h64l-238 -438v-276h-58v272l-240 442h64zM405 840v-48h-276v48h276z" />
    <glyph glyph-name="uni0233" unicode="&#x233;" horiz-adv-x="469" 
d="M0 532h61l127 -331q16 -44 28 -78.5t19 -61.5h3q7 23 19 59t28 80l124 332h61l-240 -627q-27 -70 -64 -108.5t-100 -38.5q-20 0 -35 3t-29 7v48q26 -9 57 -9q42 0 68.5 26t46.5 79l35 90zM372 658v-48h-276v48h276z" />
    <glyph glyph-name="uni0234" unicode="&#x234;" horiz-adv-x="361" 
d="M62 -24l-46 16q14 43 33 80.5t41 63.5q-2 14 -2 32v34v558h57v-578q16 10 37 18t48 8q57 0 87.5 -29.5t30.5 -76.5q0 -50 -34 -81t-88 -31q-47 0 -77 22t-45 60q-12 -17 -23 -43.5t-19 -52.5zM226 36q32 0 50 18t18 46t-18 44.5t-50 16.5q-23 0 -43.5 -9.5t-36.5 -25.5
q3 -38 22.5 -64t57.5 -26z" />
    <glyph glyph-name="uni0235" unicode="&#x235;" horiz-adv-x="730" 
d="M430 -24l-46 16q15 43 33.5 80.5t40.5 63.5q-1 14 -1.5 30t-0.5 31v147q0 76 -34.5 112t-101.5 36q-176 0 -176 -202v-290h-56v532h46l8 -92h4q21 44 66.5 73t113.5 29q91 0 139 -47t48 -147v-166q16 10 37 18t48 8q56 0 87 -31t31 -77q0 -52 -34 -81t-88 -29
q-46 0 -76.5 22t-45.5 59q-12 -17 -22.5 -43t-19.5 -52zM594 36q33 0 50.5 18t17.5 46t-18 44.5t-50 16.5q-23 0 -43.5 -9.5t-36.5 -25.5q3 -38 22.5 -64t57.5 -26z" />
    <glyph glyph-name="uni0236" unicode="&#x236;" horiz-adv-x="365" 
d="M66 -24l-46 16q14 43 32.5 80.5t40.5 63.5q-1 16 -1 34v34v282h-79v32l79 18l20 123h36v-127h164v-46h-164v-304q16 10 37.5 18t48.5 8q56 0 86.5 -31t30.5 -77q0 -52 -34 -81t-87 -29q-46 0 -76.5 22t-46.5 59q-11 -17 -22 -43t-19 -52zM230 36q33 0 50.5 18t17.5 46
t-18 44.5t-50 16.5q-24 0 -44 -9.5t-36 -25.5q3 -38 22 -64t58 -26z" />
    <glyph glyph-name="uni0237" unicode="&#x237;" horiz-adv-x="232" 
d="M16 -240q-43 0 -68 11v49q28 -11 63 -11q36 0 56.5 22t20.5 69v632h56v-632q0 -68 -33.5 -104t-94.5 -36z" />
    <glyph glyph-name="uni0238" unicode="&#x238;" horiz-adv-x="967" 
d="M286 -10q-116 0 -172.5 74t-56.5 200q0 136 58.5 207t163.5 71q71 0 113.5 -31t62.5 -75h4q-1 19 -2.5 51.5t-1.5 60.5v212h57v-210q0 -28 -1 -61t-3 -53h4q20 44 63 75t113 31q105 0 163.5 -70.5t58.5 -206.5q0 -126 -57 -200.5t-173 -74.5q-150 0 -197 144
q-23 -72 -73.5 -108t-123.5 -36zM287 39q85 0 127 59.5t42 168.5q0 110 -39.5 168.5t-131.5 58.5q-85 0 -127 -60.5t-42 -169.5q0 -108 42.5 -166.5t128.5 -58.5zM681 39q86 0 128 58.5t42 168.5q0 112 -42.5 169.5t-128.5 57.5q-90 0 -129 -57t-39 -169q0 -113 41.5 -170.5
t127.5 -57.5z" />
    <glyph glyph-name="uni0239" unicode="&#x239;" horiz-adv-x="967" 
d="M682 542q116 0 172 -74t56 -200q0 -136 -58.5 -207t-163.5 -71q-70 0 -113 31t-63 75h-4q2 -18 3 -50.5t1 -61.5v-220h-57v219q0 29 1 61.5t2 52.5h-3q-19 -44 -62 -75.5t-114 -31.5q-105 0 -163.5 71t-58.5 207q0 126 57 200t172 74q153 0 198 -144q23 73 73.5 108.5
t124.5 35.5zM286 494q-86 0 -128 -58.5t-42 -168.5q0 -112 42 -170t128 -58q90 0 129.5 57.5t39.5 169.5q0 228 -169 228zM680 494q-86 0 -127 -60t-41 -168q0 -111 39 -169t131 -58q85 0 127 60.5t42 169.5q0 108 -42 166.5t-129 58.5z" />
    <glyph glyph-name="uni023A" unicode="&#x23a;" horiz-adv-x="608" 
d="M547 0l-95 246h-141l-111 -321h-46l111 321h-109l-97 -246h-59l280 716h54l50 -130l60 174h46l-82 -237l200 -523h-61zM175 298h109l72 209l-18 49q-4 14 -14 44t-18 53q-8 -26 -17 -52.5t-15 -45.5zM434 298l-54 145l-50 -145h104z" />
    <glyph glyph-name="uni023B" unicode="&#x23b;" horiz-adv-x="623" 
d="M546 760l-18 -52q34 -9 64 -24l-23 -50q-29 14 -59 23l-209 -602q42 -13 93 -13q52 0 95.5 8t82.5 20v-50q-37 -14 -81.5 -22t-102.5 -8q-57 0 -105 13l-27 -78h-47l32 93q-89 40 -134 128.5t-45 212.5q0 106 40.5 188.5t117 129.5t184.5 47q41 0 80 -6l15 42h47z
M404 672q-88 0 -151 -39.5t-96.5 -110t-33.5 -164.5q0 -102 34.5 -176t102.5 -110l207 595q-31 5 -63 5z" />
    <glyph glyph-name="uni023C" unicode="&#x23c;" horiz-adv-x="476" 
d="M301 -10q-49 0 -89 13l-64 -181h-47l70 199q-114 65 -114 242q0 89 32 151.5t89.5 95t133.5 32.5q21 0 41 -2l65 184h47l-67 -192q25 -6 46 -16l-16 -50q-22 10 -48 16l-151 -430q31 -12 71 -12t75 8t63 21v-51q-26 -13 -60 -20.5t-77 -7.5zM116 264q0 -64 18 -113
t55 -77l147 416q-12 1 -24 1q-94 0 -145 -61t-51 -166z" />
    <glyph glyph-name="uni023D" unicode="&#x23d;" horiz-adv-x="515" 
d="M100 0v331h-92v48h92v335h58v-335h184v-48h-184v-279h334v-52h-392z" />
    <glyph glyph-name="uni023E" unicode="&#x23e;" horiz-adv-x="530" 
d="M294 0h-58v229l-152 -304h-49l201 402v335h-230v52h424l23 46h49l-23 -46h45v-52h-71l-159 -318v-344zM294 662v-220l110 220h-110z" />
    <glyph glyph-name="uni023F" unicode="&#x23f;" horiz-adv-x="468" 
d="M346 -240q-50 0 -79.5 16t-47 49.5t-29.5 84.5q-9 40 -27 61t-53 30q-19 5 -35.5 11t-28.5 12v55q35 -18 80 -29.5t92 -11.5q78 0 113 26.5t35 72.5q0 44 -36.5 67.5t-109.5 48.5q-49 17 -86.5 34t-58.5 44.5t-21 74.5q0 64 52 100t139 36q48 0 89.5 -9.5t75.5 -23.5
l-20 -47q-31 14 -70 23t-78 9q-63 0 -98 -22t-35 -64q0 -32 17 -50.5t49 -32t78 -29.5q47 -16 85.5 -34t61 -46t22.5 -75q0 -77 -57 -114t-155 -37q14 -13 21.5 -32.5t13.5 -41.5q14 -57 36 -82t72 -25q20 0 40 4.5t33 8.5v-48q-12 -4 -33 -9t-47 -5z" />
    <glyph glyph-name="uni0240" unicode="&#x240;" horiz-adv-x="463" 
d="M370 -240q-54 0 -88 17t-55 50t-36 83q-17 50 -46 70t-85 20h-20v37l312 449h-290v46h358v-40l-314 -448q55 -7 87.5 -36.5t52.5 -91.5q18 -57 45.5 -82t84.5 -25q22 0 41 3.5t33 9.5v-49q-13 -5 -32.5 -9t-47.5 -4z" />
    <glyph glyph-name="uni0241" unicode="&#x241;" horiz-adv-x="422" 
d="M185 724q97 0 152 -51.5t55 -142.5q0 -64 -25 -111t-69 -82t-101 -60v-277h-58v310q53 19 97 47.5t70 70t26 100.5q0 68 -38 106t-112 38q-44 0 -85 -13t-70 -32l-21 47q34 22 79 36t100 14z" />
    <glyph glyph-name="uni0242" unicode="&#x242;" horiz-adv-x="414" 
d="M185 541q97 0 149 -51t52 -138q0 -86 -53 -146t-137 -98v-108h-57v139q53 19 96 46.5t68 68t25 96.5q0 68 -38 105t-108 37q-44 0 -82.5 -13t-67.5 -31l-22 44q34 21 77 35t98 14z" />
    <glyph glyph-name="uni0243" unicode="&#x243;" horiz-adv-x="632" 
d="M100 0v178h-84v52h84v484h198q132 0 195 -41t63 -133q0 -62 -36 -106t-103 -56v-4q78 -12 118.5 -53.5t40.5 -117.5q0 -69 -31.5 -114t-88 -67t-130.5 -22h-226zM158 399h153q98 0 141.5 34t43.5 101q0 69 -47 99t-151 30h-140v-264zM158 50h163q194 0 194 156
q0 74 -49.5 108.5t-153.5 34.5h-154v-119h151v-52h-151v-128z" />
    <glyph glyph-name="uni0244" unicode="&#x244;" horiz-adv-x="722" 
d="M12 370v52h80v292h58v-292h422v292h57v-292h81v-52h-81v-118q0 -122 -71 -192t-200 -70q-128 0 -197 70t-69 194v116h-80zM150 254q0 -104 54 -158.5t158 -54.5q101 0 155.5 54.5t54.5 152.5v122h-422v-116z" />
    <glyph glyph-name="uni0245" unicode="&#x245;" horiz-adv-x="586" 
d="M322 714l263 -714h-61l-188 510q-14 38 -25 73t-19 63q-8 -28 -19 -61.5t-25 -73.5l-187 -511h-61l262 714h60z" />
    <glyph glyph-name="uni0246" unicode="&#x246;" horiz-adv-x="553" 
d="M492 0h-257l-23 -75h-46l23 75h-89v714h304l14 46h45l-14 -46h43v-52h-58l-79 -262h118v-51h-134l-89 -297h242v-52zM158 400h151l79 262h-230v-262zM158 52h46l90 297h-136v-297z" />
    <glyph glyph-name="uni0247" unicode="&#x247;" horiz-adv-x="552" 
d="M290 542q30 0 56 -6l63 182h47l-69 -198q54 -28 81.5 -86.5t27.5 -135.5v-40h-200l-70 -204q35 -14 80 -14q50 0 87 8t81 28v-52q-40 -18 -79 -26t-91 -8q-53 0 -95 15l-66 -189h-47l72 208q-54 32 -82.5 93t-28.5 145q0 81 27.5 144.5t79.5 99.5t126 36zM289 494
q-73 0 -118.5 -49t-53.5 -139h149l64 183q-19 5 -41 5zM436 306q0 57 -16 99.5t-50 65.5l-57 -165h123zM116 258q0 -127 70 -182l63 182h-133z" />
    <glyph glyph-name="uni0248" unicode="&#x248;" horiz-adv-x="252" 
d="M-13 -182q-24 0 -42.5 4t-32.5 9v51q15 -5 33.5 -8.5t40.5 -3.5q56 0 84.5 31t28.5 96v326h-89v51h89v340h58v-340h89v-51h-89v-321q0 -93 -43.5 -138.5t-126.5 -45.5z" />
    <glyph glyph-name="uni0249" unicode="&#x249;" horiz-adv-x="232" 
d="M90 670q-8 15 -2 26t16 18q10 6 20 3.5t18 -16.5q9 -14 3.5 -25.5t-15.5 -17.5q-22 -14 -40 12zM16 -240q-43 0 -68 11v49q28 -11 63 -11q36 0 56.5 22t20.5 69v350h-80v48h80v234h56v-234h82v-48h-82v-350q0 -68 -33.5 -104t-94.5 -36z" />
    <glyph glyph-name="uni024A" unicode="&#x24a;" horiz-adv-x="750" 
d="M367 723q88 0 148.5 -39.5t85.5 -98.5h3l8 129h48v-812q0 -50 18 -71t54 -21q14 0 26 3t22 7v-50q-10 -5 -24 -8.5t-31 -3.5q-59 0 -91 34t-32 104v142q0 22 1 47t2 46h-3q-26 -61 -85.5 -101t-153.5 -40q-99 0 -166 46.5t-100.5 130t-33.5 192.5t34 191t101.5 127.5
t168.5 45.5zM366 672q-81 0 -135 -39.5t-81 -110t-27 -164.5q0 -95 26.5 -166.5t80.5 -111t136 -39.5q118 0 177 64.5t59 185.5v135q0 246 -236 246z" />
    <glyph glyph-name="uni024B" unicode="&#x24b;" horiz-adv-x="599" 
d="M280 542q68 0 110.5 -29t62.5 -69h3l8 88h46v-627q0 -55 16.5 -76.5t48.5 -21.5q17 0 29.5 3.5t21.5 7.5v-46q-9 -6 -25 -10t-37 -4q-50 0 -80 32.5t-30 110.5v95q0 21 0.5 50.5t2.5 50.5h-4q-20 -46 -66 -76.5t-116 -30.5q-101 0 -158 69.5t-57 204.5q0 126 57 202
t167 76zM286 493q-86 0 -129 -61t-43 -168q0 -110 41 -168t125 -58q92 0 132.5 56.5t41.5 161.5v14q0 110 -39.5 166.5t-128.5 56.5z" />
    <glyph glyph-name="uni024C" unicode="&#x24c;" horiz-adv-x="600" 
d="M278 714q128 0 192.5 -45t64.5 -151q0 -82 -43.5 -128t-108.5 -66l196 -324h-69l-182 308h-170v-308h-58v308h-90v50h90v356h178zM273 662h-115v-304h135q87 0 134.5 41t47.5 117q0 82 -49.5 114t-152.5 32z" />
    <glyph glyph-name="uni024D" unicode="&#x24d;" horiz-adv-x="394" 
d="M280 304v-48h-135v-256h-57v256h-76v48h76v228h48l6 -100h3q20 45 60.5 77t100.5 32q42 0 72 -9l-8 -52q-16 4 -32 6t-34 2q-71 0 -113.5 -50t-45.5 -134h135z" />
    <glyph glyph-name="uni024E" unicode="&#x24e;" horiz-adv-x="536" 
d="M524 584v-52h-87l-139 -256v-276h-58v272l-141 260h-89v52h61l-71 130h64l69 -130h270l69 130h64l-71 -130h59zM268 332l107 200h-214z" />
    <glyph glyph-name="uni024F" unicode="&#x24f;" horiz-adv-x="469" 
d="M0 532h61l70 -182h210l68 182h61l-70 -182h63v-48h-81l-152 -397q-27 -70 -64 -108.5t-100 -38.5q-20 0 -35 3t-29 7v48q26 -9 57 -9q42 0 68.5 26t46.5 79l35 90l-118 300h-86v48h67zM235 61h3q7 23 19 59t28 80l38 102h-174l39 -101q16 -44 28 -78.5t19 -61.5z" />
    <glyph glyph-name="uni0250" unicode="&#x250;" horiz-adv-x="536" 
d="M260 -9q-90 0 -134 44t-44 139v358h43l11 -90h2q28 45 70 72.5t116 27.5q76 0 120.5 -38t44.5 -111q0 -79 -64.5 -121t-189.5 -47l-97 -5v-37q0 -79 31.5 -111.5t92.5 -32.5q41 0 79 10.5t76 30.5l18 -46q-37 -19 -82 -31t-93 -12zM138 264l90 4q102 4 152 34.5t50 91.5
q0 49 -31 74.5t-85 25.5q-83 0 -128.5 -47t-47.5 -132v-51z" />
    <glyph glyph-name="uni0251" unicode="&#x251;" horiz-adv-x="599" 
d="M274 -10q-102 0 -159.5 69t-57.5 203q0 138 59 209t163 71q70 0 112.5 -30t62.5 -74h3l8 94h47v-532h-48l-7 95h-3q-21 -44 -63.5 -74.5t-116.5 -30.5zM282 39q93 0 133 56t40 161v10q0 110 -39.5 168.5t-130.5 58.5q-83 0 -126 -59.5t-43 -171.5q0 -108 42 -165.5
t124 -57.5z" />
    <glyph glyph-name="uni0252" unicode="&#x252;" horiz-adv-x="599" 
d="M325 542q102 0 159.5 -69t57.5 -203q0 -138 -59 -209t-163 -71q-70 0 -112.5 30t-62.5 74h-3l-8 -94h-47v532h48l7 -95h3q21 44 63.5 74.5t116.5 30.5zM317 493q-93 0 -133 -56t-40 -161v-10q0 -110 39.5 -168.5t130.5 -58.5q83 0 126 59.5t43 171.5q0 108 -42 165.5
t-124 57.5z" />
    <glyph glyph-name="uni0253" unicode="&#x253;" horiz-adv-x="599" 
d="M217 765q17 0 32 -3t27 -6v-50q-9 3 -22.5 5.5t-29.5 2.5q-39 0 -59.5 -22t-20.5 -70v-78q0 -28 -1 -58t-3 -50h4q20 45 65.5 75.5t115.5 30.5q103 0 160 -69.5t57 -205.5q0 -126 -57.5 -201.5t-167.5 -75.5q-67 0 -109.5 28t-62.5 68h-5l-10 -86h-43v620
q0 70 32.5 107.5t97.5 37.5zM318 493q-93 0 -133.5 -58t-40.5 -168q0 -114 38 -171t128 -57q86 0 129.5 59.5t43.5 169.5q0 225 -165 225z" />
    <glyph glyph-name="uni0254" unicode="&#x254;" horiz-adv-x="476" 
d="M182 542q116 0 177 -68t61 -199q0 -133 -66 -209t-184 -76q-43 0 -76.5 7t-59.5 19v53q28 -13 63 -21t74 -8q67 0 108.5 30t61 82.5t19.5 119.5q0 106 -44.5 163t-139.5 57q-28 0 -64 -7t-63 -21l-16 50q26 12 67.5 20t81.5 8z" />
    <glyph glyph-name="uni0255" unicode="&#x255;" horiz-adv-x="512" 
d="M316 542q38 0 72 -7t60 -19l-16 -50q-27 12 -58 18.5t-59 6.5q-94 0 -145 -61t-51 -166q0 -74 25 -125q34 40 82 64.5t104 24.5q66 0 104 -31t38 -81q0 -62 -47.5 -94t-116.5 -32q-105 0 -168 57q-20 -38 -36 -91l-46 19q8 30 20.5 58.5t26.5 53.5q-45 70 -45 176
q0 89 32 151.5t90 95t134 32.5zM326 178q-93 0 -156 -84q22 -26 56.5 -40.5t80.5 -14.5q53 0 81.5 21.5t28.5 53.5q0 27 -22.5 45.5t-68.5 18.5z" />
    <glyph glyph-name="uni0256" unicode="&#x256;" horiz-adv-x="599" 
d="M580 -238q-56 0 -91 34.5t-35 117.5v82q0 20 1 50t3 50h-4q-21 -43 -64.5 -74.5t-116.5 -31.5q-103 0 -160 69t-57 204q0 136 59.5 207.5t162.5 71.5q70 0 112.5 -30t63.5 -72h4q-2 22 -3 52t-1 52v216h57v-842q0 -62 20.5 -85t58.5 -23q20 0 35.5 3.5t23.5 6.5v-46
q-10 -4 -28.5 -8t-40.5 -4zM280 39q90 0 132 56t42 161v10q0 114 -41.5 170.5t-128.5 56.5q-82 0 -125.5 -60t-43.5 -171q0 -223 165 -223z" />
    <glyph glyph-name="uni0257" unicode="&#x257;" horiz-adv-x="599" 
d="M279 -10q-107 0 -164.5 68.5t-57.5 201.5q0 138 60.5 210t166.5 72q67 0 109 -29t62 -73h4q-1 24 -2.5 53t-1.5 51v90q0 65 30.5 97.5t82.5 32.5q19 0 35.5 -3t28.5 -8v-49q-25 10 -57 10q-63 0 -63 -78v-636h-46l-8 92h-3q-21 -42 -63 -72t-113 -30zM286 39q92 0 131 56
t39 161v10q0 110 -39 168.5t-127 58.5q-86 0 -130 -60.5t-44 -172.5q0 -109 42 -165t128 -56z" />
    <glyph glyph-name="uni0258" unicode="&#x258;" horiz-adv-x="552" 
d="M262 542q-68 0 -114 -31.5t-69 -86.5t-23 -126v-40h380q0 -105 -49 -161.5t-141 -56.5q-50 0 -87 8t-81 28v-52q40 -18 79 -26t91 -8q119 0 183 73t64 199q0 81 -27.5 144.5t-79.5 99.5t-126 36zM263 494q73 0 118.5 -49t53.5 -139h-319q0 84 35.5 136t111.5 52z" />
    <glyph glyph-name="uni0259" unicode="&#x259;" horiz-adv-x="552" 
d="M248 542q119 0 183 -73t64 -199q0 -81 -27.5 -144.5t-79.5 -99.5t-126 -36q-68 0 -114 31.5t-69 86.5t-23 126v40h380q0 105 -49 161.5t-141 56.5q-50 0 -87 -8t-81 -28v52q40 18 79 26t91 8zM434 226h-319q0 -84 36 -136t112 -52q73 0 118 49t53 139z" />
    <glyph glyph-name="uni025A" unicode="&#x25a;" horiz-adv-x="763" 
d="M260 -10q-100 0 -152.5 63.5t-52.5 175.5l375 99q-7 46 -28.5 83t-60.5 59t-97 22q-46 0 -86.5 -9.5t-79.5 -25.5v51q39 16 79 25t90 9q101 0 162 -53.5t78 -145.5l99 27l14 -53q14 -49 31 -69t45 -20q20 0 38 6t34 14l15 -46q-21 -10 -45 -18t-50 -8q-51 0 -78.5 35
t-45.5 99l-51 -14q0 -91 -23 -160t-74.5 -107.5t-135.5 -38.5zM262 39q66 0 103.5 31.5t53 86t15.5 123.5l-319 -84q2 -42 16.5 -78t46.5 -57.5t84 -21.5z" />
    <glyph glyph-name="uni025B" unicode="&#x25b;" horiz-adv-x="459" 
d="M336 304v-48h-67q-82 0 -124.5 -27t-42.5 -85q0 -51 40.5 -78.5t113.5 -27.5q50 0 90.5 10.5t75.5 25.5v-50q-28 -14 -70.5 -24t-98.5 -10q-106 0 -157 43t-51 109q0 57 32 90t86 47v3q-51 15 -75 45.5t-24 74.5q0 48 25.5 79t69 46t96.5 15t91 -9t76 -25l-20 -47
q-32 14 -68 23t-79 9q-136 0 -136 -94q0 -49 41.5 -72t119.5 -23h56z" />
    <glyph glyph-name="uni025C" unicode="&#x25c;" horiz-adv-x="460" 
d="M213 542q84 0 131.5 -36t47.5 -102q0 -46 -25.5 -76t-70.5 -42v-4q54 -12 84 -45.5t30 -87.5q0 -73 -54.5 -116t-153.5 -43q-54 0 -98 9.5t-72 25.5v54q35 -18 77.5 -29.5t92.5 -11.5q65 0 108.5 28t43.5 86q0 56 -40 80t-118 24h-71v48h65q66 0 106 23t40 73
q0 93 -126 93q-44 0 -77.5 -9.5t-70.5 -26.5l-20 47q38 18 80 28t91 10z" />
    <glyph glyph-name="uni025D" unicode="&#x25d;" horiz-adv-x="648" 
d="M213 542q66 0 110 -22.5t60 -65.5l87 25l15 -53q13 -48 30 -68t45 -20q21 0 39 5.5t33 14.5l16 -46q-21 -11 -45 -18.5t-49 -7.5q-51 0 -79.5 34.5t-44.5 98.5l-38 -10v-5q0 -46 -25.5 -76t-70.5 -42v-4q54 -12 84 -45.5t30 -87.5q0 -73 -54.5 -116t-153.5 -43
q-54 0 -98 9.5t-72 25.5v54q35 -18 77.5 -29.5t92.5 -11.5q65 0 108.5 28t43.5 86q0 56 -40 80t-118 24h-71v48h65q66 0 106 23t40 73q0 93 -126 93q-44 0 -77.5 -9.5t-70.5 -26.5l-20 47q38 18 80 28t91 10z" />
    <glyph glyph-name="uni025E" unicode="&#x25e;" horiz-adv-x="562" 
d="M314 542q87 0 135.5 -38t48.5 -102q0 -48 -26 -77.5t-74 -41.5v-3q52 -10 85 -41t33 -89q0 -68 -53 -114t-163 -46q-124 0 -183.5 74t-59.5 199q0 127 64.5 203t192.5 76zM313 492q-101 0 -149 -61t-48 -168q0 -110 46 -167t144 -57q74 0 113.5 31t39.5 83q0 55 -43 78
t-124 23h-42v48h32q78 0 119 22t41 74q0 42 -32 68t-97 26z" />
    <glyph glyph-name="uni025F" unicode="&#x25f;" horiz-adv-x="232" 
d="M16 -240q-43 0 -68 11v49q28 -11 63 -11q36 0 56.5 22t20.5 69v350h-80v48h80v234h56v-234h82v-48h-82v-350q0 -68 -33.5 -104t-94.5 -36z" />
    <glyph glyph-name="uni0260" unicode="&#x260;" horiz-adv-x="599" 
d="M568 764q18 0 35 -3t27 -8v-49q-23 10 -56 10q-64 0 -64 -78v-653q0 -105 -54 -164t-175 -59q-59 0 -105.5 10t-83.5 26v55q37 -19 86 -30.5t106 -11.5q87 0 128.5 46t41.5 125v31q0 21 1 44.5t1 38.5h-2q-47 -104 -178 -104q-104 0 -162 70t-58 202q0 129 58 204.5
t168 75.5q63 0 104.5 -25t67.5 -67h4q-2 20 -3 43t-1 45v96q0 65 31 97.5t83 32.5zM288 492q-86 0 -129.5 -60.5t-43.5 -170.5q0 -109 43 -166t124 -57q66 0 103.5 27t53 74t15.5 107v34q0 102 -37 157t-129 55z" />
    <glyph glyph-name="uni0261" unicode="&#x261;" horiz-adv-x="599" 
d="M282 542q63 0 104.5 -24t66.5 -67h3l9 81h46v-549q0 -105 -53.5 -164t-175.5 -59q-60 0 -106 10t-84 26v55q38 -19 86.5 -30.5t105.5 -11.5q87 0 128.5 46t41.5 125v31q0 21 1 42t2 41h-3q-22 -52 -68 -78t-110 -26q-104 0 -161.5 70t-57.5 202q0 129 57.5 204.5
t167.5 75.5zM288 492q-86 0 -129 -60.5t-43 -170.5q0 -109 42.5 -166t123.5 -57q66 0 103.5 27t53.5 74t16 107v34q0 102 -37.5 157t-129.5 55z" />
    <glyph glyph-name="uni0262" unicode="&#x262;" horiz-adv-x="574" 
d="M330 543q50 0 91 -9.5t73 -25.5l-22 -52q-32 16 -67.5 26t-73.5 10q-103 0 -161 -60.5t-58 -165.5q0 -106 51.5 -165.5t150.5 -59.5q39 0 70 6t58 14v169h-140v48h198v-250q-44 -17 -88.5 -27t-99.5 -10q-117 0 -188 70.5t-71 203.5q0 88 35 150t97.5 95t144.5 33z" />
    <glyph glyph-name="uni0263" unicode="&#x263;" horiz-adv-x="469" 
d="M236 -239q-46 0 -74 31.5t-28 81.5q0 49 21 98.5t49 104.5l-204 455h62l122 -278q14 -33 29 -69.5t23 -61.5h4q8 25 22.5 61t29.5 71l122 277h62l-205 -454q31 -61 50 -108.5t19 -95.5q0 -49 -28 -81t-76 -32zM238 -190q22 0 36 16t14 50q0 33 -14.5 72.5t-35.5 80.5
q-22 -41 -37 -81t-15 -72q0 -34 15 -50t37 -16z" />
    <glyph glyph-name="uni0264" unicode="&#x264;" horiz-adv-x="507" 
d="M466 541q15 0 25.5 -2.5t18.5 -6.5v-48q-6 3 -16.5 5.5t-21.5 2.5q-21 0 -36 -13.5t-37 -46.5l-113 -172q32 -46 49 -83t17 -81q0 -48 -27 -76.5t-73 -28.5t-73 28t-27 75q0 46 19 83.5t51 82.5l-117 177q-19 29 -34 42t-37 13q-13 1 -22.5 -3t-14.5 -6v47q8 4 20 7.5
t27 3.5q33 0 54.5 -16.5t47.5 -56.5l66 -104q13 -19 23 -35t17 -31h3q7 14 17.5 31t23.5 36l67 104q24 37 46.5 54.5t56.5 17.5zM254 218q-22 -32 -35.5 -60t-13.5 -59t13.5 -45t33.5 -14t34 14t14 45q0 32 -13 60.5t-33 58.5z" />
    <glyph glyph-name="uni0265" unicode="&#x265;" horiz-adv-x="596" 
d="M452 -228v244q0 40 3 76h-4q-20 -44 -66 -73t-114 -29q-91 0 -139.5 47t-48.5 147v348h57v-344q0 -76 34.5 -112t101.5 -36q176 0 176 202v290h56v-760h-56z" />
    <glyph glyph-name="uni0266" unicode="&#x266;" horiz-adv-x="596" 
d="M88 0v634q0 65 30.5 97.5t82.5 32.5q19 0 35.5 -3t27.5 -8v-49q-23 10 -56 10q-64 0 -64 -78v-120q0 -40 -3 -76h4q20 44 66 73t114 29q91 0 139.5 -47t48.5 -147v-348h-57v344q0 76 -34.5 112t-101.5 36q-176 0 -176 -202v-290h-56z" />
    <glyph glyph-name="uni0267" unicode="&#x267;" horiz-adv-x="604" 
d="M201 764q19 0 35.5 -3t27.5 -8v-49q-23 10 -56 10q-64 0 -64 -78v-120q0 -40 -3 -76h4q20 44 66 73t114 29q91 0 139.5 -47t48.5 -147v-458q0 -64 -30.5 -97t-82.5 -33q-19 0 -35.5 4t-27.5 8v49q24 -11 57 -11q62 0 62 79v455q0 76 -34.5 112t-101.5 36
q-176 0 -176 -202v-290h-56v634q0 65 30.5 97.5t82.5 32.5z" />
    <glyph glyph-name="uni0268" unicode="&#x268;" horiz-adv-x="232" 
d="M116 729q40 0 40 -43q0 -44 -40 -44q-38 0 -38 44q0 43 38 43zM222 307v-48h-78v-259h-56v259h-78v48h78v225h56v-225h78z" />
    <glyph glyph-name="iotaLatin" unicode="&#x269;" horiz-adv-x="315" 
d="M138 532v-382q0 -58 22 -85t69 -27q19 0 38 3t31 6v-46q-12 -5 -33.5 -8t-42.5 -3q-65 0 -103 34.5t-38 121.5v386h57z" />
    <glyph glyph-name="uni026A" unicode="&#x26a;" horiz-adv-x="307" 
d="M257 532v-36l-75 -11v-439l75 -10v-36h-207v36l75 10v439l-75 11v36h207z" />
    <glyph glyph-name="uni026B" unicode="&#x26b;" horiz-adv-x="292" 
d="M118 0v380q-12 8 -23.5 14t-25.5 6q-22 0 -37.5 -14.5t-20.5 -51.5h-38q5 54 30.5 83t68.5 29q14 0 25 -4t21 -10v328h57v-360q11 -8 22.5 -14t24.5 -6q22 0 38 15t22 52h38q-5 -53 -31.5 -83t-69.5 -30q-13 0 -23.5 3.5t-20.5 8.5v-346h-57z" />
    <glyph glyph-name="uni026C" unicode="&#x26c;" horiz-adv-x="304" 
d="M142 0v308h-50q-51 0 -77.5 24t-26.5 66q0 36 23 62t70 26q40 0 61 -30v304h58v-404h94v-48h-94v-308h-58zM98 356h44v9q0 29 -12.5 51t-44.5 22q-23 0 -33.5 -11.5t-10.5 -27.5q0 -23 15.5 -33t41.5 -10z" />
    <glyph glyph-name="uni026D" unicode="&#x26d;" horiz-adv-x="232" 
d="M221 -240q-61 0 -97 32.5t-36 113.5v854h56v-849q0 -55 21 -79t63 -24q16 0 32 3t26 7v-46q-10 -4 -26.5 -8t-38.5 -4z" />
    <glyph glyph-name="uni026E" unicode="&#x26e;" horiz-adv-x="607" 
d="M329 -240q-55 0 -98 9t-77 25v54q34 -16 79 -27.5t98 -11.5q86 0 136 49.5t50 133.5q0 89 -58.5 130.5t-170.5 41.5h-49v42l243 276h-337v-482h-57v760h57v-228h409v-42l-246 -278q266 -7 266 -219q0 -69 -29.5 -121.5t-84.5 -82t-131 -29.5z" />
    <glyph glyph-name="uni026F" unicode="&#x26f;" horiz-adv-x="894" 
d="M250 -10q-79 0 -123.5 45t-44.5 142v355h56v-352q0 -72 32 -106t88 -34q76 0 117 44.5t41 137.5v310h56v-352q0 -72 32 -106t88 -34q76 0 117 46.5t41 143.5v302h56v-532h-46l-8 84h-4q-20 -39 -60.5 -66.5t-103.5 -27.5q-58 0 -98 25t-56 75h-4q-22 -48 -68 -74
t-108 -26z" />
    <glyph glyph-name="uni0270" unicode="&#x270;" horiz-adv-x="894" 
d="M749 -240v242q0 18 1 41t2 40h-4q-21 -39 -61.5 -66t-102.5 -27q-57 0 -97.5 25t-58.5 74h-4q-22 -49 -68 -74t-106 -25q-80 0 -124 45t-44 142v355h56v-352q0 -72 32 -106.5t88 -34.5q76 0 117 44.5t41 138.5v310h56v-352q0 -72 32 -106.5t88 -34.5q75 0 116 47t41 144
v302h57v-772h-57z" />
    <glyph glyph-name="uni0271" unicode="&#x271;" horiz-adv-x="894" 
d="M644 542q79 0 123.5 -45t44.5 -142v-465q0 -64 -30.5 -97t-82.5 -33q-19 0 -35.5 4t-27.5 8v49q10 -5 25.5 -8t30.5 -3q64 0 64 79v463q0 72 -32 106t-88 34q-76 0 -117 -44.5t-41 -137.5v-310h-56v352q0 72 -32 106t-88 34q-76 0 -117 -46.5t-41 -143.5v-302h-56v532h46
l8 -84h4q20 39 60.5 66.5t103.5 27.5q57 0 96.5 -24t57.5 -74h5q24 48 69.5 73t105.5 25z" />
    <glyph glyph-name="uni0272" unicode="&#x272;" horiz-adv-x="596" 
d="M326 542q91 0 139 -47t48 -147v-348h-57v344q0 76 -34.5 112t-101.5 36q-176 0 -176 -202v-387q0 -79 -35 -111t-83 -32q-20 0 -37.5 4t-28.5 9v47q12 -6 27.5 -9t29.5 -3q35 0 53 23t18 75v626h46l8 -92h4q21 44 66.5 73t113.5 29z" />
    <glyph glyph-name="uni0273" unicode="&#x273;" horiz-adv-x="596" 
d="M513 -82q0 -62 21.5 -85t59.5 -23q17 0 32.5 3.5t24.5 6.5v-46q-10 -4 -27.5 -8t-37.5 -4q-57 0 -93.5 34.5t-36.5 117.5v430q0 76 -34.5 112t-101.5 36q-176 0 -176 -202v-290h-56v532h46l8 -92h4q21 44 66.5 73t113.5 29q91 0 139 -47t48 -147v-430z" />
    <glyph glyph-name="uni0274" unicode="&#x274;" horiz-adv-x="597" 
d="M84 0v536h66l318 -460q-2 26 -3 59t-1 56v345h55v-536h-65l-318 460q2 -22 2 -56.5v-55.5v-348h-54z" />
    <glyph glyph-name="uni0275" unicode="&#x275;" horiz-adv-x="590" 
d="M533 266q0 -83 -27.5 -145t-81 -96.5t-130.5 -34.5q-74 0 -127 34t-81.5 96t-28.5 146q0 130 64.5 203t176.5 73q76 0 128.5 -34.5t79.5 -96.5t27 -145zM297 492q-85 0 -130 -50.5t-51 -144.5h358q-6 88 -48 141.5t-129 53.5zM294 39q90 0 133 56.5t47 152.5h-358
q3 -97 47 -153t131 -56z" />
    <glyph glyph-name="uni0276" unicode="&#x276;" horiz-adv-x="857" 
d="M296 546q63 0 109 -28t74 -78v96h329v-49h-274v-181h259v-49h-259v-208h274v-49h-329v100q-28 -50 -74.5 -79.5t-110.5 -29.5q-72 0 -126.5 34.5t-84.5 97.5t-30 147t29.5 146t83.5 96t130 34zM295 496q-85 0 -134.5 -62t-49.5 -164t46.5 -166t138.5 -64q90 0 136 63
t46 167q0 105 -46.5 165.5t-136.5 60.5z" />
    <glyph glyph-name="omegaclosed" unicode="&#x277;" horiz-adv-x="744" 
d="M372 542q148 0 231 -82t83 -228q0 -66 -18 -121t-57.5 -88t-102.5 -33q-56 0 -88.5 25.5t-46.5 70.5h-3q-14 -45 -48 -70.5t-87 -25.5q-85 0 -131.5 64t-46.5 178q0 146 81.5 228t233.5 82zM372 492q-123 0 -190.5 -65.5t-67.5 -193.5q0 -95 33 -144.5t93 -49.5
q52 0 78 38t26 105v149h56v-149q0 -70 26 -106.5t78 -36.5q62 0 93.5 51t31.5 143q0 128 -67.5 193.5t-189.5 65.5z" />
    <glyph glyph-name="uni0278" unicode="&#x278;" horiz-adv-x="681" 
d="M368 760v-220q119 -8 187.5 -80t68.5 -194q0 -117 -67 -191.5t-189 -82.5v-232h-56v232q-119 7 -187.5 79.5t-68.5 194.5t67.5 194t190.5 80v220h54zM314 491q-100 -7 -149.5 -66t-49.5 -159q0 -102 50 -161t149 -65v451zM368 490v-450q98 8 147.5 68t49.5 158
q0 101 -49.5 159t-147.5 65z" />
    <glyph glyph-name="uni0279" unicode="&#x279;" horiz-adv-x="394" 
d="M88 -9q-42 0 -72 9l8 52q16 -4 32 -6t34 -2q74 0 116.5 53.5t42.5 142.5v292h57v-532h-48l-6 100h-3q-20 -45 -60.5 -77t-100.5 -32z" />
    <glyph glyph-name="uni027A" unicode="&#x27a;" horiz-adv-x="394" 
d="M88 -9q-42 0 -72 9l8 52q32 -9 66 -9q74 0 116.5 54t42.5 143v520h57v-760h-48l-6 100h-3q-20 -45 -60.5 -77t-100.5 -32z" />
    <glyph glyph-name="uni027B" unicode="&#x27b;" horiz-adv-x="394" 
d="M375 -238q-55 0 -90.5 34.5t-35.5 117.5v110q0 16 1 38t2 38h-3q-20 -45 -60.5 -77t-100.5 -32q-42 0 -72 9l8 52q32 -9 66 -9q74 0 116.5 54t42.5 143v292h57v-614q0 -62 21 -85t59 -23q20 0 34.5 3.5t23.5 6.5v-46q-10 -4 -28 -8t-41 -4z" />
    <glyph glyph-name="uni027C" unicode="&#x27c;" horiz-adv-x="394" 
d="M306 541q42 0 72 -9l-8 -52q-16 4 -32 6t-34 2q-74 0 -116.5 -53.5t-42.5 -142.5v-532h-57v772h48l6 -100h3q20 45 60.5 77t100.5 32z" />
    <glyph glyph-name="uni027D" unicode="&#x27d;" horiz-adv-x="394" 
d="M306 541q42 0 72 -9l-8 -52q-16 4 -32 6t-34 2q-74 0 -116.5 -53.5t-42.5 -142.5v-374q0 -57 22.5 -82.5t66.5 -25.5q19 0 34.5 3t25.5 7v-46q-12 -4 -28 -8t-38 -4q-64 0 -102 34.5t-38 117.5v618h48l6 -100h3q20 45 60.5 77t100.5 32z" />
    <glyph glyph-name="uni027E" unicode="&#x27e;" horiz-adv-x="336" 
d="M238 542q25 0 47.5 -5.5t36.5 -10.5l-8 -50l-32.5 10t-44.5 6q-47 0 -72 -29t-25 -93v-370h-57v374q0 89 41.5 128.5t113.5 39.5z" />
    <glyph glyph-name="uni027F" unicode="&#x27f;" horiz-adv-x="336" 
d="M102 542q74 0 113 -40t39 -128v-614h-56v610q0 63 -23 92.5t-74 29.5q-25 0 -45 -5.5t-33 -10.5l-8 50q14 5 37.5 10.5t49.5 5.5z" />
    <glyph glyph-name="uni0280" unicode="&#x280;" horiz-adv-x="512" 
d="M84 0v536h188q94 0 143 -39t49 -113q0 -45 -17.5 -76.5t-46 -50t-60.5 -25.5l154 -232h-66l-146 225h-141v-225h-57zM141 274h132q65 0 100 29.5t35 80.5q0 50 -33.5 76.5t-109.5 26.5h-124v-213z" />
    <glyph glyph-name="uni0281" unicode="&#x281;" horiz-adv-x="512" 
d="M84 536v-536h188q94 0 143 39t49 113q0 45 -17.5 76.5t-46 50t-60.5 25.5l154 232h-66l-146 -225h-141v225h-57zM141 262h132q65 0 100 -29.5t35 -80.5q0 -50 -33.5 -76.5t-109.5 -26.5h-124v213z" />
    <glyph glyph-name="uni0282" unicode="&#x282;" horiz-adv-x="468" 
d="M422 141q0 -73 -53.5 -112t-152.5 -39q-33 0 -62 4.5t-52 10.5v-99q0 -98 78 -98q17 0 32.5 3t27.5 8v-46q-13 -5 -28.5 -9t-37.5 -4q-59 0 -93.5 32t-34.5 109v178q35 -18 80 -29.5t92 -11.5q78 0 113 26.5t35 72.5q0 44 -36.5 67.5t-109.5 48.5q-49 17 -86.5 34
t-58.5 44.5t-21 74.5q0 64 52 100t139 36q48 0 89.5 -9.5t75.5 -23.5l-20 -47q-31 14 -70 23t-78 9q-63 0 -98 -22t-35 -64q0 -32 17 -50.5t49 -32t78 -29.5q47 -16 85.5 -34t61 -46t22.5 -75z" />
    <glyph glyph-name="uni0283" unicode="&#x283;" horiz-adv-x="230" 
d="M212 764q37 0 55 -10v-46q-8 3 -20.5 5.5t-25.5 2.5q-39 0 -59 -24t-20 -83v-694q0 -83 -34.5 -119t-91.5 -36q-21 0 -37.5 3.5t-27.5 8.5v47q11 -4 25.5 -7.5t30.5 -3.5q40 0 58.5 25t18.5 85v693q0 82 36 117.5t92 35.5z" />
    <glyph glyph-name="uni0284" unicode="&#x284;" horiz-adv-x="230" 
d="M16 -240q-21 0 -37.5 3.5t-27.5 8.5v47q11 -4 25.5 -7.5t30.5 -3.5q40 0 58.5 25t18.5 85v348h-83v48h83v297q0 82 36 117.5t92 35.5q37 0 55 -10v-46q-8 3 -20.5 5.5t-25.5 2.5q-39 0 -59 -24t-20 -83v-295h86v-48h-86v-351q0 -83 -34.5 -119t-91.5 -36z" />
    <glyph glyph-name="uni0285" unicode="&#x285;" horiz-adv-x="230" 
d="M206 -240q-55 0 -89.5 34t-34.5 118v484q0 52 -19.5 76.5t-58.5 24.5q-13 0 -25.5 -3t-19.5 -6v46q8 4 23 8t34 4q56 0 89.5 -36t33.5 -112v-484q0 -60 18.5 -83t56.5 -23q16 0 31 3.5t25 7.5v-47q-10 -5 -26.5 -8.5t-37.5 -3.5z" />
    <glyph glyph-name="uni0286" unicode="&#x286;" horiz-adv-x="230" 
d="M20 -240q-52 0 -85 29t-33 77q0 50 33 79.5t98 29.5h51v632q0 83 36.5 118t94.5 35q20 0 36.5 -4t27.5 -9v-46q-10 4 -24.5 7.5t-30.5 3.5q-39 0 -60.5 -23.5t-21.5 -85.5v-628h76v-48h-76q-2 -95 -35 -131t-87 -36zM16 -192q32 0 50 22t18 78v19h-47q-38 0 -59 -14.5
t-21 -45.5q0 -26 14.5 -42.5t44.5 -16.5z" />
    <glyph glyph-name="uni0287" unicode="&#x287;" horiz-adv-x="340" 
d="M102 494q-22 0 -42.5 -3.5t-34.5 -8.5v46q16 6 37.5 10t47.5 4q66 0 102 -37.5t36 -120.5v-338h79v-32l-79 -18l-20 -123h-36v127h-164v46h164v336q0 112 -90 112z" />
    <glyph glyph-name="uni0288" unicode="&#x288;" horiz-adv-x="340" 
d="M238 -191q22 0 42.5 3.5t34.5 8.5v-46q-16 -6 -37.5 -10.5t-47.5 -4.5q-66 0 -102 37.5t-36 120.5v568h-79v32l79 18l20 123h36v-127h164v-46h-164v-565q0 -112 90 -112z" />
    <glyph glyph-name="uni0289" unicode="&#x289;" horiz-adv-x="596" 
d="M10 258v48h70v226h58v-226h312v226h57v-226h75v-48h-75v-258h-47l-8 91h-3q-22 -43 -67.5 -72t-113.5 -29q-188 0 -188 194v74h-70zM138 188q0 -76 34 -112.5t102 -36.5q176 0 176 203v16h-312v-70z" />
    <glyph glyph-name="uni028A" unicode="&#x28a;" horiz-adv-x="574" 
d="M288 -12q-72 0 -126 30.5t-84.5 87t-30.5 134.5q0 82 31.5 142t92.5 101h-145v49h220v-46q-66 -35 -103 -95.5t-37 -150.5q0 -92 47 -147.5t135 -55.5q87 0 134.5 56.5t47.5 147.5q0 90 -41 151.5t-99 93.5v46h220v-49h-146q56 -41 90 -99t34 -143q0 -77 -30 -134
t-84 -88t-126 -31z" />
    <glyph glyph-name="uni028B" unicode="&#x28b;" horiz-adv-x="572" 
d="M360 546q62 0 96.5 -33t34.5 -113v-203q0 -101 -50.5 -154t-154.5 -53q-204 0 -204 207v335h56v-332q0 -85 37 -123t111 -38q76 0 112 38.5t36 122.5v192q0 57 -19.5 80.5t-58.5 23.5q-15 0 -28.5 -2.5t-23.5 -5.5v50q10 3 25.5 5.5t30.5 2.5z" />
    <glyph glyph-name="uni028C" unicode="&#x28c;" horiz-adv-x="469" 
d="M265 532l204 -532h-60l-132 353q-13 33 -23.5 65t-16.5 57h-4q-7 -25 -17.5 -57.5t-22.5 -64.5l-132 -353h-61l204 532h61z" />
    <glyph glyph-name="uni028D" unicode="&#x28d;" horiz-adv-x="736" 
d="M222 532l108 -346q10 -33 19 -62.5t15 -55.5h2q6 26 14 56t19 63l113 345h60l150 -532h-59l-90 329q-12 44 -20.5 77.5t-12.5 59.5h-2q-6 -24 -14 -57t-22 -73l-110 -336h-58l-106 336q-10 36 -20 70t-14 60h-4q-3 -24 -11.5 -58.5t-19.5 -78.5l-87 -329h-58l145 532h63z
" />
    <glyph glyph-name="uni028E" unicode="&#x28e;" horiz-adv-x="469" 
d="M469 0h-61l-127 331q-16 44 -28 78.5t-19 61.5h-3q-7 -23 -19 -59t-28 -80l-124 -332h-61l240 627q27 70 64 108.5t100 38.5q20 0 35 -3t29 -7v-48q-26 9 -57 9q-42 0 -68.5 -26t-46.5 -79l-35 -90z" />
    <glyph glyph-name="uni028F" unicode="&#x28f;" horiz-adv-x="446" 
d="M443 532l-192 -328v-204h-57v204l-191 328h64l155 -279l157 279h64z" />
    <glyph glyph-name="uni0290" unicode="&#x290;" horiz-adv-x="463" 
d="M470 -240q-46 0 -74.5 28.5t-28.5 94.5v117h-327v39l313 447h-291v46h358v-43l-313 -443h315v-160q0 -44 15 -61t43 -17q12 0 25.5 3t22.5 7v-46q-9 -4 -24.5 -8t-33.5 -4z" />
    <glyph glyph-name="uni0291" unicode="&#x291;" horiz-adv-x="530" 
d="M204 -86l-46 18q6 18 12.5 35t13.5 33h-144v39l313 447h-291v46h358v-43l-313 -443h99q40 81 89 125t115 44q50 0 80 -27.5t30 -69.5q0 -53 -38.5 -85.5t-125.5 -32.5h-118q-8 -18 -17 -40t-17 -46zM260 46h97q61 0 84.5 21t23.5 49q0 22 -15.5 37t-43.5 15
q-44 0 -79 -32t-67 -90z" />
    <glyph glyph-name="uni0292" unicode="&#x292;" horiz-adv-x="468" 
d="M414 532v-42l-246 -278q129 -4 198 -59.5t69 -159.5q0 -69 -29.5 -121.5t-84.5 -82t-131 -29.5q-56 0 -98.5 9t-76.5 25v54q35 -16 80 -27.5t97 -11.5q86 0 136 49.5t50 133.5q0 89 -59 130.5t-171 41.5h-48v42l242 276h-312v50h384z" />
    <glyph glyph-name="uni0293" unicode="&#x293;" horiz-adv-x="468" 
d="M162 -240q-47 0 -88 14t-66.5 43t-25.5 74q0 51 40.5 85.5t119.5 34.5q65 0 120.5 -22.5t101.5 -62.5q4 10 9 29t5 41q-2 90 -60.5 129t-170.5 39h-47v42l242 276h-312v50h384v-42l-246 -278q129 -4 198 -58t69 -156q0 -36 -8.5 -63t-18.5 -46q18 -20 37 -41.5t36 -45.5
l-40 -34q-17 22 -33.5 42t-31.5 36q-28 -30 -81.5 -58t-132.5 -28zM162 -191q62 0 105 21.5t69 51.5q-46 43 -93.5 61.5t-98.5 18.5q-58 0 -82.5 -21t-24.5 -51q0 -39 35.5 -60t89.5 -21z" />
    <glyph glyph-name="uni0294" unicode="&#x294;" horiz-adv-x="412" 
d="M185 764q97 0 149 -51t52 -142q0 -92 -53 -152.5t-137 -98.5v-320h-57v351q53 19 96 47.5t68 70t25 99.5q0 72 -38 109.5t-108 37.5q-44 0 -82.5 -13t-67.5 -32l-22 45q34 22 77 35.5t98 13.5z" />
    <glyph glyph-name="uni0295" unicode="&#x295;" horiz-adv-x="412" 
d="M227 764q-97 0 -149 -51t-52 -142q0 -92 53 -152.5t137 -98.5v-320h57v351q-53 19 -96 47.5t-68 70t-25 99.5q0 72 38 109.5t108 37.5q44 0 82.5 -13t67.5 -32l22 45q-34 22 -77 35.5t-98 13.5z" />
    <glyph glyph-name="glottalturned" unicode="&#x296;" horiz-adv-x="412" 
d="M185 -10q-55 0 -98 13.5t-77 35.5l22 44q29 -18 67.5 -31t82.5 -13q70 0 108 37.5t38 109.5q0 58 -25 99.5t-68 70t-96 47.5v353h57v-322q84 -38 137 -98.5t53 -152.5q0 -91 -52 -142t-149 -51z" />
    <glyph glyph-name="uni0297" unicode="&#x297;" horiz-adv-x="474" 
d="M304 -239q-77 0 -132.5 38.5t-85 125t-29.5 229.5q0 145 34 230t92 121.5t130 36.5q41 0 75 -7t56 -17l-16 -50q-25 9 -55 16t-61 7q-58 0 -102.5 -33t-69 -106.5t-24.5 -195.5q0 -132 24 -207t66.5 -106t99.5 -31q40 0 72.5 8t58.5 18v-51q-25 -11 -57 -18.5t-76 -7.5z
" />
    <glyph glyph-name="uni0298" unicode="&#x298;" horiz-adv-x="768" 
d="M705 358q0 -109 -36 -192t-107.5 -129.5t-177.5 -46.5q-108 0 -179.5 46.5t-107 130t-35.5 192.5t36.5 191t109 128.5t179.5 46.5q103 0 173.5 -44.5t107.5 -126.5t37 -196zM123 358q0 -95 28 -166.5t86 -111t147 -39.5q90 0 147.5 39.5t85 110.5t27.5 167
q0 148 -64.5 231.5t-192.5 83.5q-89 0 -148 -39.5t-87.5 -110.5t-28.5 -165zM342 356q0 49 44 49t44 -49t-44 -49t-44 49z" />
    <glyph glyph-name="uni0299" unicode="&#x299;" horiz-adv-x="568" 
d="M492 402q0 -51 -27 -79.5t-71 -38.5v-4q52 -8 85 -39t33 -89q0 -69 -47 -110.5t-149 -41.5h-228v532h222q88 0 135 -32.5t47 -97.5zM434 396q0 41 -29.5 64t-98.5 23h-161v-179h153q70 0 103 23t33 69zM453 152q0 55 -37.5 79t-111.5 24h-159v-207h161q74 0 110.5 25
t36.5 79z" />
    <glyph glyph-name="uni029A" unicode="&#x29a;" horiz-adv-x="575" 
d="M261 542q123 0 183.5 -75t60.5 -201q0 -83 -27 -145t-82 -96.5t-138 -34.5q-108 0 -160 43t-52 110q0 57 32 90.5t86 48.5v2q-52 15 -76 44t-24 73q0 47 26 78.5t71 47t100 15.5zM262 492q-69 0 -106 -24.5t-37 -70.5q0 -49 41.5 -71t119.5 -22h32v-48h-42
q-81 0 -124 -26.5t-43 -83.5q0 -52 40.5 -79.5t113.5 -27.5q98 0 143.5 59t45.5 168q0 106 -43 166t-141 60z" />
    <glyph glyph-name="uni029B" unicode="&#x29b;" horiz-adv-x="575" 
d="M552 766q20 0 33.5 -3.5t22.5 -6.5v-50q-9 3 -22.5 6.5t-29.5 3.5q-29 0 -45.5 -17t-16.5 -57v-134l-22 -52q-32 16 -67.5 26t-73.5 10q-103 0 -161 -60.5t-58 -165.5q0 -106 51.5 -165.5t150.5 -59.5q39 0 70 6t58 14v169h-140v48h198v-250q-44 -17 -88.5 -27t-99.5 -10
q-117 0 -188 70.5t-71 203.5q0 88 35 150t97.5 95t144.5 33q63 0 112 -17v112q0 128 110 128z" />
    <glyph glyph-name="uni029C" unicode="&#x29c;" horiz-adv-x="616" 
d="M145 532v-231h326v231h57v-532h-57v252h-326v-252h-57v532h57z" />
    <glyph glyph-name="uni029D" unicode="&#x29d;" horiz-adv-x="232" 
d="M116 642q-38 0 -38 44q0 43 38 43q40 0 40 -43q0 -44 -40 -44zM26 -240q-50 0 -82 29t-32 77q0 50 31.5 79.5t95.5 29.5h49v557h56v-557h76v-48h-76q-2 -95 -34 -131t-84 -36zM23 -192q29 0 46.5 22t17.5 78v19h-45q-75 0 -75 -60q0 -26 13.5 -42.5t42.5 -16.5z" />
    <glyph glyph-name="uni029E" unicode="&#x29e;" horiz-adv-x="494" 
d="M350 -228v386q0 32 1 66.5t1 68.5h-1q-13 -16 -29.5 -36.5t-31.5 -36.5l-202 -220h-68l210 228l-228 304h68l200 -266l80 82v184h56v-760h-56z" />
    <glyph glyph-name="uni029F" unicode="&#x29f;" horiz-adv-x="436" 
d="M88 0v532h57v-483h269v-49h-326z" />
    <glyph glyph-name="uni02A0" unicode="&#x2a0;" horiz-adv-x="599" 
d="M454 -240v236q0 20 1 50t3 50h-4q-21 -43 -64.5 -74.5t-116.5 -31.5q-103 0 -160 69t-57 204q0 136 59.5 207.5t162.5 71.5q70 0 112.5 -30t63.5 -72h4q-2 22 -3 52t-1 52v77q0 79 34.5 111t81.5 32q22 0 40 -3.5t28 -8.5v-47q-24 11 -59 11q-34 0 -51 -22.5t-17 -75.5
v-858h-57zM280 39q90 0 132 56t42 161v10q0 114 -41.5 170.5t-128.5 56.5q-82 0 -125.5 -60t-43.5 -171q0 -223 165 -223z" />
    <glyph glyph-name="uni02A1" unicode="&#x2a1;" horiz-adv-x="412" 
d="M185 764q97 0 149 -51t52 -142q0 -92 -52.5 -152.5t-132.5 -98.5v-112h105v-49h-105v-159h-57v159h-96v49h96v143q51 19 92.5 47.5t66.5 70t25 99.5q0 72 -38 109.5t-108 37.5q-44 0 -82.5 -13t-67.5 -32l-22 45q34 22 77 35.5t98 13.5z" />
    <glyph glyph-name="uni02A2" unicode="&#x2a2;" horiz-adv-x="412" 
d="M226 764q56 0 98 -13.5t77 -35.5l-21 -45q-30 19 -68.5 32t-82.5 13q-71 0 -108.5 -37.5t-37.5 -109.5q0 -58 25 -99.5t67 -70t93 -47.5v-143h94v-49h-94v-159h-58v159h-106v49h106v112q-80 38 -132.5 98.5t-52.5 152.5q0 91 52.5 142t148.5 51z" />
    <glyph glyph-name="dzlig" unicode="&#x2a3;" horiz-adv-x="931" 
d="M279 -10q-107 0 -164.5 68.5t-57.5 201.5q0 138 60.5 210t166.5 72q67 0 109 -29t62 -73h4q-1 24 -2.5 53t-1.5 51v216h57v-228h376v-40l-312 -446h314v-46h-424l-8 92h-3q-21 -42 -63 -72t-113 -30zM286 39q92 0 131 56t39 161v10q0 110 -39 168.5t-127 58.5
q-86 0 -130 -60.5t-44 -172.5q0 -109 42 -165t128 -56zM512 43l308 443h-308v-443z" />
    <glyph glyph-name="uni02A4" unicode="&#x2a4;" horiz-adv-x="942" 
d="M664 -240q-56 0 -98.5 9t-76.5 25v54q35 -16 80 -27.5t97 -11.5q86 0 136 49.5t50 133.5q0 89 -59 130.5t-171 41.5h-48v42l242 276h-304v-482h-46l-8 92h-3q-21 -42 -63 -72t-113 -30q-107 0 -164.5 68.5t-57.5 201.5q0 138 60.5 210t166.5 72q67 0 109 -29t62 -73h4
q-1 24 -2.5 53t-1.5 51v216h57v-228h376v-42l-246 -278q129 -4 198 -59.5t69 -159.5q0 -69 -29.5 -121.5t-84.5 -82t-131 -29.5zM286 39q92 0 131 56t39 161v10q0 110 -39 168.5t-127 58.5q-86 0 -130 -60.5t-44 -172.5q0 -109 42 -165t128 -56z" />
    </font>
</defs>
</svg>
